Гольциус и Пеликанья компания / Goltzius and the Pelican Company (Питер Гринуэй / Peter Greenaway) [2012 г., Артхаус, BDRip, 720p] MVO + Sub (Eng) + Original (Eng)

Ответить на тему
 
Автор
Сообщение

Пост 03-Янв-2017 22:46

[Q] 

somik

-Гольциус и Пеликанья компания / Goltzius and the Pelican Company-- Производство: Великобритания, Нидерланды, Франция, Хорватия
Год выпуска: 2012 г.
Жанр: Артхаус
Продолжительность: 01:36:55
Мировая премьера: 30 сентября 2012
Российская премьера: 12 сентября 2013, «Cinema Prestige»
Дата выхода DVD: 12 декабря 2013, «Cinema Prestige»
Перевод: Профессиональный (многоголосый, закадровый) [R5]
Оригинальный аудиопоток: английский
Режиссер: Питер Гринуэй / Peter Greenaway-В ролях: Ф. Мюррэй Абрахам, Винсент Риотта, Халина Рейн, Ларс Эйдингер, Флавио Паренти, Анне Луизе Хассинг, Джулио Мария Беррути, Франческо Де Вито, Кейт Моран, Пиппо Дельбонно-Описание: Зимой 1590 года в Кольмаре голландский типограф и гравёр Хендрик Гольциус обращается к маркизу Эльзасскому с просьбой о выделении средств на создание типографии, которая будет издавать иллюстрированные книги. Гольциус считает, что первые две книги, которые выйдут из-под печатного станка, следует преподнести Маркизу и его свите. Этими книгами должны стать иллюстрированное издание Ветхого Завета, содержащее шесть историй с эротическим содержанием, и иллюстрированное издание Метаморфоз Овидия, содержащее историю измен Юпитера.
Чтобы ещё сильнее прельстить Маркиза, Гольциус и его типографские работники готовятся поставить перед свитой Маркиза серию спектаклей по этим эротическим рассказам. Маркиз, человек, известный широтой взглядов, гордящийся своей религиозной и культурной терпимостью, владелец большой библиотеки, с просвещённым интересом к книгам и новым технологиям печати, поддаётся искушению Гольциуса. В присутствии свидетелей Маркиз заявляет, что возместит производственные затраты Гольциуса и компании, при условии, что те будут держать его в состоянии распалённом и взволнованном.
Гольциус и его Пеликанья компания печатных мастеров с их жёнами и любовницами из театрального мира приступают к работе…-
Качество видео: BDRip
Контейнер: MKV
Стандарт разрешения: 720p
Видео кодек: MPEG4 AVC
Аудио кодек: AC3
Видео: 5165 Кбит/с, 1280x688, 24 fps
Аудио: 48 kHz, AC3, 6 ch, 384 Кбит/с
Аудио #2: 48 kHz, DTS, 6 ch, 1510 Кбит/с
Cубтитры: английские
Формат субтитров: softsub (SRT)
Доп. информация о субтитрах: включаемые
Самолюбование разума
Не являясь знатоком творчества Гринуэя, не претендую на всестороннюю оценку, остановлюсь лишь на том, что мне интересно.
Есть ли границы для иронии Гринуэя? На мой взгляд, нет ничего в этом мире, что он посчитал бы священным и не подлежащим насмешливому рассмотрению. Искусство продажно по определению: иначе творцам не на что будет жить. Значит, честное искусство не имеет права этого смущаться, а должно откровенно распалять низменные страсти человека: это условие выгодной продажи. Всякие нравственные ограничения — предрассудки, которые человек, занимающийся искусством, должен переступать без малейшего смущения, а всякие разговоры об облагораживающей роли искусства — нонсенс: как может облагораживать ниаболее подверженный страстям, ведь если он им не подвержен, он и сыграть ничего не сможет.
В сфере человеческих оценок и суждений всё абсолютно относительно. О любом поступке можно рассказать с пафосом, а можно иронически, и тогда история Лота и его дочерей или Иосифа и жены Потифара выглядит как преступление, нарушение всех мыслимых норм или как жертва, подвиг самоотречения во имя продолжения рода человеческого или ещё чего-то. Всё зависит лишь от мастерства интерпретатора, а им и выступают искусство, религия, искусствоведение. При этом живое растление искусством несравненно сильнее благородного трёпа религии, деятели которой и сами не устоят против соблазна. Столь порочна природа человека, ну а если Бог хотел чего-то иного, надо было иначе создавать, теперь предъявлять претензии поздно.
Что может избежать осмеяния? Власть? Ха-ха, ею так просто манипулировать.
Любовь, верность? Всё имеет свою цену и если не продаётся сразу, то набивает себе цену, или ещё не нашло благородного оправдания своего поступка. Откуда оправдание? А разум на что? Гринуэй вовсе не идеализирует своё любимое орудие. Как миленький служит, конечно, в подчинении, но при этом какая радость видеть весь этот жизненный цирк без прикрас, остреньким скальпелем иронии снимать одёжки с того, что претендует на возвышенные побуждения.
Жалуются, что Гринуэй не смог сделать свой фильм эротичичным, что он не возбуждает. Претензии не по адресу. Искусство, обращённое к интеллекту, не может возбуждать. Это всё равно что упрекать верблюда в том, что он не так грациозен, как лань: «И знал только Бог седобородый, что это животные разной породы» (за точность цитаты не ручаюсь). Ну как же было верить Гринуэю, что он снимает средневековый порнофильм?! Посмеялся старичок, тем более знал: порнографов много, а он такой один. Опять же, ирония над тем, что продавать-то надо. А главное Степень порнографичности зависит не от поз, а от намерений автора: и Мадонна может вызывать эрекцию. Гринуэй против любых ограничений: можно показывать абсолютно всё, важно для чего.
Хорошо, а для чего снят фильм и для чего его смотреть? Мастерство? Несомненно. Гринуэй любуется тем, как он умеет, изобразительное мастерство, разнообразие средств, приёмов и т. д. Смотришь — как идёшь по галерее. А главное? Только разрушать, но надобно же и строить? Что строит Свифт? Уайльд? Шоу? А если через пролив — Вольтер? Гриуэй лишь присоединяется к вечно зелёной традиции, к сожалению, при нашем климате не слишком распространённой: традиции интеллектуального искусства. Есть обаяние ума. Он разрушает предрассудки, он учит не только смотреть (смотрит и бык), но понимать и часто понимать то, что стремятся скрыть. В наше время всеобщей демагогии протирать глаза и ум такими фильмами весьма полезно.
10 из 10
Общее
Уникальный идентификатор : 193806446805081041095624055321179055757 (0x91CDC3910778B57CBFE9D9BAD9CDE68D)
Полное имя : C:\герои 7\Гольциус и Пеликанья компания Goltzius and the Pelican Company (2012) BDRip 720p P\Goltzius and the Pelican Company.2012.BDRip.720p.[pirat.ca].mkv
Формат : Matroska
Версия формата : Version 2
Размер файла : 5,78 Гбайт
Продолжительность : 1 ч. 57 м.
Общий поток : 7060 Кбит/сек
Дата кодирования : UTC 2014-12-21 12:02:55
Программа кодирования : mkvmerge v7.4.0 ('Circles') 64bit built on Dec 12 2014 12:19:56
Библиотека кодирования : libebml v1.3.0 + libmatroska v1.4.1
Видео
Идентификатор : 1
Формат : AVC
Формат/Информация : Advanced Video Codec
Профиль формата : [email protected]
Параметр CABAC формата : Да
Параметр ReFrames формата : 5 кадров
Идентификатор кодека : V_MPEG4/ISO/AVC
Продолжительность : 1 ч. 57 м.
Битрейт : 5165 Кбит/сек
Ширина : 1280 пикселей
Высота : 688 пикселей
Соотношение сторон : 1,85:1
Режим частоты кадров : Постоянный
Частота кадров : 24,000 кадра/сек
Цветовое пространство : YUV
Субдискретизация насыщенности : 4:2:0
Битовая глубина : 8 бит
Тип развёртки : Прогрессивная
Бит/(Пиксели*Кадры) : 0.244
Размер потока : 4,23 Гбайт (73%)
Библиотека кодирования : x264 core 142 r2491 24e4fed
Настройки программы : cabac=1 / ref=5 / deblock=1:-3:-3 / analyse=0x3:0x113 / me=umh / subme=9 / psy=1 / psy_rd=1.00:0.00 / mixed_ref=1 / me_range=16 / chroma_me=1 / trellis=2 / 8x8dct=1 / cqm=0 / deadzone=21,11 / fast_pskip=1 / chroma_qp_offset=-2 / threads=12 / lookahead_threads=2 / sliced_threads=0 / nr=0 / decimate=1 / interlaced=0 / bluray_compat=0 / constrained_intra=0 / bframes=3 / b_pyramid=2 / b_adapt=2 / b_bias=0 / direct=3 / weightb=1 / open_gop=0 / weightp=2 / keyint=240 / keyint_min=24 / scenecut=40 / intra_refresh=0 / rc_lookahead=50 / rc=2pass / mbtree=1 / bitrate=5165 / ratetol=1.0 / qcomp=0.60 / qpmin=0 / qpmax=69 / qpstep=4 / cplxblur=20.0 / qblur=0.5 / ip_ratio=1.40 / aq=1:1.00
Язык : English
Default : Да
Forced : Нет
Аудио #1
Идентификатор : 2
Формат : AC-3
Формат/Информация : Audio Coding 3
Расширение режима : CM (complete main)
Параметр Endianness формата : Big
Идентификатор кодека : A_AC3
Продолжительность : 1 ч. 57 м.
Вид битрейта : Постоянный
Битрейт : 384 Кбит/сек
Каналы : 6 каналов
Расположение каналов : Front: L C R, Side: L R, LFE
Частота : 48,0 КГц
Частота кадров : 31,250 кадров/сек (1536 spf)
Метод сжатия : С потерями
Размер потока : 322 Мбайт (5%)
Язык : Russian
Default : Да
Forced : Да
Аудио #2
Идентификатор : 3
Формат : DTS
Формат/Информация : Digital Theater Systems
Режим : 16
Параметр Endianness формата : Big
Идентификатор кодека : A_DTS
Продолжительность : 1 ч. 57 м.
Вид битрейта : Постоянный
Битрейт : 1509 Кбит/сек
Каналы : 6 каналов
Расположение каналов : Front: L C R, Side: L R, LFE
Частота : 48,0 КГц
Частота кадров : 93,750 кадра/сек (512 spf)
Битовая глубина : 24 бит
Метод сжатия : С потерями
Размер потока : 1,23 Гбайт (21%)
Язык : English
Default : Нет
Forced : Нет
Текст
Идентификатор : 4
Формат : UTF-8
Идентификатор кодека : S_TEXT/UTF8
Идентификатор кодека/Информация : UTF-8 Plain Text
Продолжительность : 1 ч. 53 м.
Битрейт : 66 бит/сек
Count of elements : 1680
Размер потока : 55,5 Кбайт (0%)
Язык : English
Default : Нет
Forced : Нет
Меню
00:00:00.000 : en:00:00:00.000
00:09:57.833 : en:00:09:57.833
00:19:25.458 : en:00:19:25.458
00:28:45.542 : en:00:28:45.542
00:37:57.292 : en:00:37:57.292
00:50:50.333 : en:00:50:50.333
01:01:04.417 : en:01:01:04.417
01:12:37.125 : en:01:12:37.125
01:25:49.083 : en:01:25:49.083
01:37:10.958 : en:01:37:10.958
01:45:31.458 : en:01:45:31.458
01:54:36.750 : en:01:54:36.750
Download / Скачать

Хотите скачать бесплатно? Зарегистрируйтесь на сайте (ссылка на регистрацию). Pirat.ca - самый быстрый торрент трекер в рунете!

Как скачивать  ·   Что такое торрент  ·   Рейтинг и ограничения

jofrei53

Флибустьер

Пост 04-Янв-2017 00:09 (спустя 1 час 22 минуты)

[Q] 

Спасибо somik! Супер! Лови бочку
[Профиль]  [ЛС] 
Показать сообщения:    
Ответить на тему

Текущее время: Сегодня 08:45

Часовой пояс: GMT + 4



Вы не можете начинать темы
Вы не можете отвечать на сообщения
Вы не можете редактировать свои сообщения
Вы не можете удалять свои сообщения
Вы не можете голосовать в опросах
Вы не можете прикреплять файлы к сообщениям
Вы не можете скачивать файлы

Майнать ▼