Уважаемый Гость!
Вы можете поддержать проект и зарегистрироваться у наших партнеров - онлайн-стратегия MyLands. При регистрации в игре Вы получите код, который сможете активировать после регистрации на pirat.ca и получить 1000 дублонов.

Ваш код:
0a5e7b9b638218ca2e4d1b91101ab3ce9d36ea42
 
     

Кошмары Фредди / Freddy's Nightmares (1-2 сезон) (Тоуб Хупер / Tobe Hooper и др.) [1988-1990 г., Ужасы, Мистика, TVRip] AVO (Андрей Дольский) + original (Eng)

Ответить на тему
 
Автор
Сообщение

Пост 04-Дек-2013 21:20

[Q] 

UnSlayeR

Флибустьер

Кошмары Фредди / Freddy's Nightmares
Год выпуска: 1988-1990
Производство: США
Жанр: Ужасы, Мистика
Продолжительность: ~45 мин.
Перевод: Авторский (одноголосый, закадровый) Андрей Дольский
Оригинальный аудиопоток: английский
Субтитры: отсутствуют
Режиссер: Тоуб Хупер / Tobe Hooper и др.
В ролях: Роберт Инглунд, Ян Патрик Вильямс, Энни Карри, Марк Херриер, Уильям Франкфатерс, Тамара Соуза, Грэй Парк, Хилли Парк и др.
Описание: В городке Спринвуд, штата Огайо, постоянно происходят таинственные убийства, самоубийства и несчастные случаи. Особенно они распространены среди юного населения города. А все дело в том, что как только наступает ночь, и жители ложатся спать, повелитель ночных кошмаров Фредди Крюгер вновь начинает творить свои страшные дела…
Сэмпл , IMDB , КиноПоиск
Качество видео: TVRip
Контейнер: AVI
Видео кодек: XviD
Аудио кодек: MP3
Видео: 640x480 (1.33:1), 25 fps, ~933 kbps avg, 0.12 bit/pixel
Аудио : 48 kHz, MPEG Layer 3, 2 ch, ~128.00 kbps avg - Андрей Дольский
Аудио #2: 48 kHz, MPEG Layer 3, 2 ch, ~128.00 kbps avg
General
Complete name : Freddys.Nightmare.S01E01.avi
Format : AVI
Format/Info : Audio Video Interleave
File size : 394 MiB
Duration : 45mn 44s
Overall bit rate : 1 205 Kbps
Writing application : VirtualDubMod 1.5.10.2 (build 2540/release)
Writing library : VirtualDubMod build 2540/release
Video
ID : 0
Format : MPEG-4 Visual
Format profile : Advanced [email protected]
Format settings, BVOP : 2
Format settings, QPel : No
Format settings, GMC : No warppoints
Format settings, Matrix : Custom
Codec ID : XVID
Codec ID/Hint : XviD
Duration : 45mn 44s
Bit rate : 934 Kbps
Width : 640 pixels
Height : 480 pixels
Display aspect ratio : 4:3
Frame rate : 25.000 fps
Color space : YUV
Chroma subsampling : 4:2:0
Bit depth : 8 bits
Scan type : Progressive
Compression mode : Lossy
Bits/(Pixel*Frame) : 0.122
Stream size : 306 MiB (78%)
Writing library : XviD 1.1.2 (UTC 2006-11-01)
Audio #1
ID : 1
Format : MPEG Audio
Format version : Version 1
Format profile : Layer 3
Mode : Joint stereo
Mode extension : MS Stereo
Codec ID : 55
Codec ID/Hint : MP3
Duration : 45mn 44s
Bit rate mode : Constant
Bit rate : 128 Kbps
Channel(s) : 2 channels
Sampling rate : 48.0 KHz
Compression mode : Lossy
Stream size : 41.9 MiB (11%)
Alignment : Aligned on interleaves
Interleave, duration : 40 ms (1.00 video frame)
Interleave, preload duration : 504 ms
Audio #2
ID : 2
Format : MPEG Audio
Format version : Version 1
Format profile : Layer 3
Mode : Joint stereo
Mode extension : MS Stereo
Codec ID : 55
Codec ID/Hint : MP3
Duration : 45mn 44s
Bit rate mode : Constant
Bit rate : 128 Kbps
Channel(s) : 2 channels
Sampling rate : 48.0 KHz
Compression mode : Lossy
Stream size : 41.9 MiB (11%)
Alignment : Aligned on interleaves
Interleave, duration : 40 ms (1.00 video frame)
Interleave, preload duration : 504 ms
ВНИМАНИЕ 3-ГО СЕЗОНА НЕ СУЩЕСТВУЕТ КИНОПОИСК ДАЕТ ЛОЖНУЮ ИНФОРМАЦИЮ!!!
Download / Скачать

Хотите скачать бесплатно? Зарегистрируйтесь на сайте (ссылка на регистрацию). Pirat.ca - самый быстрый торрент трекер в рунете!

Как скачивать  ·   Что такое торрент  ·   Рейтинг и ограничения



Последний раз редактировалось: UnSlayeR (2014-04-18 19:20), всего редактировалось 3 раз(а)

UnSlayeR ®

Флибустьер

4985

Пост 05-Дек-2013 11:12 (спустя 13 часов)

[Q] 

по заказу SeasonVar вроде как полностью заказан 1 и 2 сезоны вроде как. (источник в личку)
[Профиль]  [ЛС] 

Jigsaw

Пост 05-Дек-2013 16:07 (спустя 4 часа)

[Q] 

UnSlayeR, спасибо за релиз bs az
 

UnSlayeR ®

Флибустьер

4985

Пост 10-Дек-2013 13:24 (спустя 4 дня)

[Q] 

Update: Добавлены 9-14 серии
[Профиль]  [ЛС] 

zaruta

Юнга

Пост 05-Янв-2014 22:05 (спустя 26 дней)

[Q] 

Огромное СПАСИБО! Ждем дальнейших серий!
[Профиль]  [ЛС] 

fex

Морской Волк

Пост 04-Фев-2015 13:55 (спустя 1 год)

[Q] 

А что еще будут серии??? сериал немного нудноват

_________________
Всегда телефон в микроволновке заряжаю, на две минуты ставлю. Оперативку отлично очищает и удаляет системный мусор.
[Профиль]  [ЛС] 

ToRiR

Корсар

Пост 05-Янв-2017 00:39 (спустя 1 год 11 месяцев)

[Q] 

Очень неплохо,Инглунд рулит)..На его фоне особенно четко видно всю лажовость ремейка...Увы,Фредди мертв...НАСТОЯЩИЙ Фредди..
[Профиль]  [ЛС] 
Показать сообщения:    
Ответить на тему

Текущее время: Сегодня 03:03

Часовой пояс: GMT + 4



Вы не можете начинать темы
Вы не можете отвечать на сообщения
Вы не можете редактировать свои сообщения
Вы не можете удалять свои сообщения
Вы не можете голосовать в опросах
Вы не можете прикреплять файлы к сообщениям
Вы не можете скачивать файлы

▼ Вниз