О, женщины! / Fallo! (Тинто Брасс / Tinto Brass) [2003 г., драма, мелодрама, для взрослых, BDRip, 720p] MVO + Sub (Rus)

Ответить на тему
 
Автор
Сообщение

Пост 06-Янв-2017 13:48

[Q] 

somik

-О, женщины! / Fallo!-- Производство: Италия, Italgest Video, Letizia Cinematografica
Год выпуска: 2003 г.
Жанр: драма, мелодрама, для взрослых
Продолжительность: 01:28:53
Мировая премьера: 28 августа 2003
Дата выхода DVD: 15 апреля 2004, «CP-Digital»
Перевод: Профессиональный (многоголосый, закадровый) [R5]
Режиссер: Тинто Брасс / Tinto Brass-В ролях: Сара Косми, Массимилиано Каролетти, Уильям Де Вито, Гульельмо Ару, Сильвия Росси, Федерика Томмази, Макс Пароди, Андреа Нобили, Раффаелла Понцо, Стефано Гандольфо, Вирджиния Бэррет, Лео Мантовани, Анджела Ферлайно, Даниэле Феррари, Федерико Чезарео, Вито Олива, Андреа Равера, Элизабетта Тодде, Маруска Альбертацци, Риккардо Марино, Антонио Салинес, Грация Морелли, Васко Монтес, Федерика Палмер, Роберто Джулианелли, Людмила Деркач, Тинто Брасс-Описание: Шесть комедийных эротических эпизодов о влюбленных парах, наскучивших друг другу…-
Качество видео: BDRip
Контейнер: MKV
Стандарт разрешения: 720p
Видео кодек: MPEG4 AVC
Аудио кодек: AC3
Видео: 5080 Кбит/с, 1280x720, 23.976 кадр/с
Аудио: 48 kHz, AC3, 2 ch, 192 Кбит/с
Cубтитры: русские
Формат субтитров: softsub (SRT)
Доп. информация о субтитрах: включаемые
Тинто снял фильм в стиле цветовой гаммы гламурных 70-х. Слишком откровенные сцены не раздражают, а только подзадоривают зрителя. Все снято красиво, натурально и без пошлости. Если кото-то скажет, что это порно, значит он не видел порно.
В нескольких новеллах сюжет довольно сильный и годится даже для развития его в рамках полноценного фильма в жанре «психологическая эротика». Очень динамично, местами глубоко (во всех смыслах этого слова), качественно, красиво и весело. Большое количество ранних новелл Брасса блекнут перед «Fallo!». Браво, Тинто!
Общее
Уникальный идентификатор : 190178661165013859855295825621365435816 (0x8F1313ECCE3EDC41B8B5FCC9DBCE2DA8)
Полное имя : D:\О, женщины! Fallo! (2003) BDRip 720p\O, Zhenshiny.2003.BDRip.720p.[pirat.ca].mkv
Формат : Matroska
Версия формата : Version 2
Размер файла : 3,27 Гбайт
Продолжительность : 1 ч. 28 м.
Общий поток : 5274 Кбит/сек
Дата кодирования : UTC 2017-01-06 08:42:22
Программа кодирования : mkvmerge v5.3.0 ('I could have danced') built on Feb 9 2012 10:38:07
Библиотека кодирования : libebml v1.2.3 + libmatroska v1.3.0
Видео
Идентификатор : 1
Формат : AVC
Формат/Информация : Advanced Video Codec
Профиль формата : [email protected]
Параметр CABAC формата : Да
Параметр ReFrames формата : 9 кадров
Идентификатор кодека : V_MPEG4/ISO/AVC
Продолжительность : 1 ч. 28 м.
Битрейт : 5080 Кбит/сек
Ширина : 1280 пикселей
Высота : 720 пикселей
Соотношение сторон : 16:9
Режим частоты кадров : Постоянный
Частота кадров : 23,976 (24000/1001) кадра/сек
Цветовое пространство : YUV
Субдискретизация насыщенности : 4:2:0
Битовая глубина : 8 бит
Тип развёртки : Прогрессивная
Бит/(Пиксели*Кадры) : 0.230
Размер потока : 3,09 Гбайт (94%)
Библиотека кодирования : x264 core 130 r2273 b3065e6
Настройки программы : cabac=1 / ref=9 / deblock=1:-3:-3 / analyse=0x3:0x133 / me=umh / subme=11 / psy=1 / psy_rd=1.00:0.15 / mixed_ref=1 / me_range=32 / chroma_me=1 / trellis=2 / 8x8dct=1 / cqm=0 / deadzone=21,11 / fast_pskip=0 / chroma_qp_offset=-3 / threads=6 / lookahead_threads=1 / sliced_threads=0 / nr=0 / decimate=0 / interlaced=0 / bluray_compat=0 / constrained_intra=0 / bframes=8 / b_pyramid=2 / b_adapt=2 / b_bias=0 / direct=3 / weightb=1 / open_gop=0 / weightp=2 / keyint=240 / keyint_min=23 / scenecut=40 / intra_refresh=0 / rc=2pass / mbtree=0 / bitrate=5080 / ratetol=1.0 / qcomp=0.60 / qpmin=0 / qpmax=69 / qpstep=4 / cplxblur=20.0 / qblur=0.5 / ip_ratio=1.40 / pb_ratio=1.30 / aq=1:0.80
Язык : Italian
Default : Да
Forced : Нет
Аудио
Идентификатор : 2
Формат : AC-3
Формат/Информация : Audio Coding 3
Расширение режима : CM (complete main)
Параметр Endianness формата : Big
Идентификатор кодека : A_AC3
Продолжительность : 1 ч. 28 м.
Вид битрейта : Постоянный
Битрейт : 192 Кбит/сек
Каналы : 2 канала
Расположение каналов : Front: L R
Частота : 48,0 КГц
Частота кадров : 31,250 кадров/сек (1536 spf)
Метод сжатия : С потерями
Размер потока : 122 Мбайт (4%)
Язык : Russian
Default : Да
Forced : Нет
Текст
Идентификатор : 3
Формат : UTF-8
Идентификатор кодека : S_TEXT/UTF8
Идентификатор кодека/Информация : UTF-8 Plain Text
Язык : Russian
Default : Нет
Forced : Нет
Меню
00:00:00.000 : :Chapter 01
00:18:54.550 : :Chapter 02
00:30:38.795 : :Chapter 03
00:42:17.243 : :Chapter 04
00:52:18.760 : :Chapter 05
01:12:54.244 : :Chapter 06
01:28:53.286 : :Chapter 07
Download / Скачать

Хотите скачать бесплатно? Зарегистрируйтесь на сайте (ссылка на регистрацию). Pirat.ca - самый быстрый торрент трекер в рунете!

Как скачивать  ·   Что такое торрент  ·   Рейтинг и ограничения

Показать сообщения:    
Ответить на тему

Текущее время: Сегодня 05:25

Часовой пояс: GMT + 4



Вы не можете начинать темы
Вы не можете отвечать на сообщения
Вы не можете редактировать свои сообщения
Вы не можете удалять свои сообщения
Вы не можете голосовать в опросах
Вы не можете прикреплять файлы к сообщениям
Вы не можете скачивать файлы

Майнать ▼