Не думай про белых обезьян (Юрий Мамин) [2009 г., драма, мелодрама, комедия в стихах, DVDRip]

Ответить на тему
 
Автор
Сообщение

Пост 06-Янв-2017 13:20

[Q] 

somik

-Не думай про белых обезьян-- Производство: Россия, Fountain Fund
Год выпуска: 2009 г.
Жанр: драма, мелодрама, комедия в стихах
Продолжительность: 02:01:17
Российская премьера: 22 января 2009, «Парадиз»
Дата выхода DVD: 26 февраля 2009, «Парадиз»
Перевод: Не требуется
Оригинальный аудиопоток: русский
Режиссер: Юрий Мамин-В ролях: Катерина Ксеньева, Михаил Тарабукин, Алексей Девотченко, Анвар Либабов, Ивета Рогова, Дмитрий Аверин, Филипп Азаров, Олег Басилашвили, Олег Басилашвили, Анна Королева, Ирина Ракшина, Виктор Смирнов, Людмила Ширяева, Сергей Юрский, Борис Бедросов, Дмитрий Лебедев, Екатерина Новикова-Описание: Герой фильма — молодой бармен Вова — энергичен и самоуверен. Мерилом ценностей для него являются деньги. Его будущий тесть Гаврилыч, влиятельный бизнесмен, отвел ему под жилье заброшенную мансарду и велел переделать под ресторан подвал.
На чердаке наш герой сталкивается со странной троицей — нищими представителями художественной богемы: суицидной и экстраординарной девушкой Дашей, художником-алкоголиком Геной и странным лысым человеком по прозвищу Ху-Пунь. Вова хочет приспособить их под дешевую рабочую силу. Но эта встреча переворачивает его представление о мире.
Он осознает, что смысл жизни можно найти в совершенно бесполезных, на первый взгляд, вещах — в рисунке, мелодии, в созерцании городских крыш и плывущих облаков… Он узнает, что любовь и секс, совершенно разные вещи… И стройная налаженная жизнь Вовы летит кувырком.-
Качество видео: DVDRip
Контейнер: AVI
Видео кодек: DivX
Аудио кодек: AC3
Видео: 720x432 (1.67:1), 25 fps, XviD MPEG-4, 1960 kbps avg, 0.25 bit/pixel
Аудио: 48 kHz, AC3 Dolby Digital, 3/2 (L,C,R,l,r) + LFE ch, 448 kbps
Cубтитры: отсутствуют
«Не думай про белых обезьян» или «Лицо халдея»
«Незнание — благо, знание — бремя» — вот одна из основополагающих мудростей данной ленты. Мудрость эта не нова, но актуальность не потеряла еще со времён древних цивилизаций. И так:
Жил себе паренёк, зарабатывал деньги на момент и на старость, был решителен и предприимчив. А тут вдруг ему третий глаз открыли некие «интеллигентные карлсоны» — и пропал паренёк. Он знает — без денег в этом мире делать нечего. Никому не охота есть на завтрак-обед-ужин травяной борщ на неотапливаемом чердаке. Но и вникать во все тонкости денежно-насущных вопрос уже не получается. Просто не получается. И бросить жалко, и нести тяжело.
Фильм о том, что люди искусства бесполезны простому обществу, неприятны простому обществу и мешают простому обществу.
Фильм о том, что открывшего третий глаз горе ждёт. Горе от ума.
Фильм о том, что раз в жизни услышав фразу «Не думай про белых обезьян», уже никогда не сможешь перестать думать о них.
Юрий Мамин проделал великую работу. Мало того, что это лучший русский фильм со времен… даже не знаю… пожалуй со времён того самого «Окна в Париж», так это еще и действительно интересное произведение (не побоюсь этого сказать) европейского уровня!
Но я могу понять тех, кто разочаровался в этом фильме. Те, кто хотел увидеть достойный сиквел «Окно в Париж» получили фигу с маслом. «Окно в Париж» — гениальная сатира, не спорю, но в ней есть один малюсенький минус — она изжила себя. А тема «Не думай про белых обезьян» как и сам фильм не изживёт себя, покуда человеческий мир будет делиться на потребителей и людей искусства.
Кому смотреть: советую смотреть тем, кто любит и понимает авторское кино (Бергман, Джармуш, Кустурица, Феллини, Вуди Аллен и т. п.), ибо для «простого смертного» сие кино — скука в стихах. Неприкрытого юмора практически нет. Да и не комедия это вовсе.
Кому не смотреть: поклонникам «Титаника», «9ой роты» и «Стиляг» — противопоказано (ничего лично). А так же халдеям (не знаете, кто это — тем более противопоказано)
10 из 10
Общее
Полное имя : D:\D\Не думай про белых обезьян (2008) DVDRip\Ne dumaj pro belyh obezyan.2008.DVDRip.[pirat.ca].avi
Формат : AVI
Формат/Информация : Audio Video Interleave
Профиль формата : OpenDML
Размер файла : 2,05 Гбайт
Продолжительность : 2 ч. 1 м.
Общий поток : 2415 Кбит/сек
Программа кодирования : VirtualDubModRus 1.5.10.2 (build 2542/release)
Видео
Идентификатор : 0
Формат : MPEG-4 Visual
Профиль формата : Advanced [email protected]
Параметр BVOP формата : 2
Параметр QPel формата : Нет
Параметр GMC формата : Без точки перехода
Параметр матрицы формата : Default (H.263)
Режим смешивания : Сжатый битовый поток
Идентификатор кодека : XVID
Идентификатор кодека/Подсказка : XviD
Продолжительность : 2 ч. 1 м.
Битрейт : 1955 Кбит/сек
Ширина : 720 пикселей
Высота : 432 пикселя
Соотношение сторон : 5:3
Частота кадров : 25,000 кадров/сек
Цветовое пространство : YUV
Субдискретизация насыщенности : 4:2:0
Битовая глубина : 8 бит
Тип развёртки : Прогрессивная
Метод сжатия : С потерями
Бит/(Пиксели*Кадры) : 0.251
Размер потока : 1,66 Гбайт (81%)
Библиотека кодирования : XviD 64
Аудио
Идентификатор : 1
Формат : AC-3
Формат/Информация : Audio Coding 3
Расширение режима : CM (complete main)
Параметр Endianness формата : Big
Идентификатор кодека : 2000
Продолжительность : 2 ч. 1 м.
Вид битрейта : Постоянный
Битрейт : 448 Кбит/сек
Каналы : 6 каналов
Расположение каналов : Front: L C R, Side: L R, LFE
Частота : 48,0 КГц
Частота кадров : 31,250 кадров/сек (1536 spf)
Метод сжатия : С потерями
Размер потока : 389 Мбайт (19%)
Выравнивание : Разделение по промежуткам
Продолжительность промежутка : 40 мс. (1,00 видеокадр)
Время предзагрузки промежутка : 500 мс.
Download / Скачать

Хотите скачать бесплатно? Зарегистрируйтесь на сайте (ссылка на регистрацию). Pirat.ca - самый быстрый торрент трекер в рунете!

Как скачивать  ·   Что такое торрент  ·   Рейтинг и ограничения

medved218

Корсар

Пост 07-Янв-2017 01:08 (спустя 11 часов)

[Q] 

что за ерись?
[Профиль]  [ЛС] 
Показать сообщения:    
Ответить на тему

Текущее время: Сегодня 18:36

Часовой пояс: GMT + 4



Вы не можете начинать темы
Вы не можете отвечать на сообщения
Вы не можете редактировать свои сообщения
Вы не можете удалять свои сообщения
Вы не можете голосовать в опросах
Вы не можете прикреплять файлы к сообщениям
Вы не можете скачивать файлы

Майнать ▼