Уважаемый Гость!
Вы можете поддержать проект и зарегистрироваться у наших партнеров - онлайн-стратегия MyLands. При регистрации в игре Вы получите код, который сможете активировать после регистрации на pirat.ca и получить 1000 дублонов.

Ваш код:
629d0990658d87842c575af5b07885e54009975e
 
     

Славные парни / The Nice Guys (Шейн Блэк / Shane Black) [2016 г., криминал, комедия, BDRip-AVC] Dub [Лицензия] + Original (Eng) + Sub (Rus, Eng)

Ответить на тему
 
Автор
Сообщение

Пост 01-Окт-2016 13:27

[Q] 

aleksey99

--Славные парни / The Nice Guys--«Симпатичная пара»-- Производство: США, Великобритания, Bloom, Lip Sync Productions, Misty Mountains
Год выпуска: 2016 г.
Жанр: криминал, комедия
Продолжительность: 01:55:57--Мировая премьера: 15 мая 2016
Российская премьера: 16 июня 2016, «Парадиз»--Перевод: Профессиональный (полное дублирование) [Лицензия]
Оригинальный аудиопоток: английский--Режиссер: Шейн Блэк / Shane Black--В ролях: Райан Гослинг, Ким Бейсингер, Расселл Кроу, Энгаури Райс, Мэтт Бомер, Маргарет Куэлли, Йайа ДаКоста, Кит Дэвид, Бо Напп, Лоис Смит--Описание: Что бывает, когда напарником брутального костолома становится субтильный лопух? Наемный охранник Джексон Хили и частный детектив Холланд Марч вынуждены работать в паре, чтобы распутать плевое дело о пропавшей девушке, которое оборачивается преступлением века.
Смогут ли парни разгадать сложный ребус, если у каждого из них — свои, весьма индивидуальные, методы…-- --Качество видео: BDRip-AVC
Контейнер: MKV
Видео кодек: AVC/H.264
Аудио кодек: AC3
Видео: AVC, 1024x428 (2.40:1), 2750 kbps, 23,976 fps, 0.262 bpp
Аудио 1: 48 kHz, AC3 Dolby Digital, 3/2 (L,C,R,l,r) + LFE ch, ~448 kbps RUS
Аудио 2: 48 kHz, AC3 Dolby Digital, 3/2 (L,C,R,l,r) + LFE ch, ~448 kbps ENG
Cубтитры: русские, английские.
Общее
Уникальный идентификатор : 190739477493272609353756375661157225459 (0x8F7F164E0711AC31A28B5C158B8B13F3)
Полное имя : H:\Torrent2\The.Nice.Guys.2016.BDRip.AVC.mkv
Формат : Matroska
Версия формата : Version 4 / Version 2
Размер файла : 2,96 Гбайт
Продолжительность : 1 ч. 55 м.
Режим общего битрейта : Переменный
Общий поток : 3650 Кбит/сек
Дата кодирования : UTC 2016-10-01 08:39:43
Программа кодирования : mkvmerge v9.4.2 ('So High') 64bit
Библиотека кодирования : libebml v1.3.4 + libmatroska v1.4.5
Видео
Идентификатор : 1
Формат : AVC
Формат/Информация : Advanced Video Codec
Профиль формата : [email protected]
Параметр CABAC формата : Да
Параметр ReFrames формата : 10 кадров
Идентификатор кодека : V_MPEG4/ISO/AVC
Продолжительность : 1 ч. 55 м.
Вид битрейта : Переменный
Битрейт : 2750 Кбит/сек
Максимальный битрейт : 40,0 Мбит/сек
Ширина : 1024 пикселя
Высота : 428 пикселей
Соотношение сторон : 2,40:1
Режим частоты кадров : Постоянный
Частота кадров : 23,976 (24000/1001) кадра/сек
Цветовое пространство : YUV
Субдискретизация насыщенности : 4:2:0
Битовая глубина : 8 бит
Тип развёртки : Прогрессивная
Бит/(Пиксели*Кадры) : 0.262
Размер потока : 2,23 Гбайт (75%)
Библиотека кодирования : x264 core 148 r2638 7599210
Настройки программы : cabac=1 / ref=10 / deblock=1:-3:-3 / analyse=0x3:0x133 / me=umh / subme=11 / psy=1 / psy_rd=1.00:0.00 / mixed_ref=1 / me_range=48 / chroma_me=1 / trellis=2 / 8x8dct=1 / cqm=0 / deadzone=21,11 / fast_pskip=1 / chroma_qp_offset=-2 / threads=11 / lookahead_threads=2 / sliced_threads=0 / nr=0 / decimate=1 / interlaced=0 / bluray_compat=0 / constrained_intra=0 / bframes=15 / b_pyramid=2 / b_adapt=2 / b_bias=0 / direct=3 / weightb=1 / open_gop=0 / weightp=2 / keyint=240 / keyint_min=23 / scenecut=40 / intra_refresh=0 / rc=2pass / mbtree=0 / bitrate=2750 / ratetol=1.0 / qcomp=0.70 / qpmin=0 / qpmax=69 / qpstep=4 / cplxblur=20.0 / qblur=0.5 / ip_ratio=1.40 / pb_ratio=1.30 / aq=1:1.0
Язык : English
Default : Да
Forced : Нет
Цветовой диапазон : Limited
Основные цвета : BT.709
Характеристики трансфера : BT.709
Коэффициенты матрицы : BT.709
Аудио #1
Идентификатор : 2
Формат : AC-3
Формат/Информация : Audio Coding 3
Расширение режима : CM (complete main)
Параметр Endianness формата : Big
Идентификатор кодека : A_AC3
Продолжительность : 1 ч. 55 м.
Вид битрейта : Постоянный
Битрейт : 448 Кбит/сек
Каналы : 6 каналов
Расположение каналов : Front: L C R, Side: L R, LFE
Частота : 48,0 КГц
Частота кадров : 31,250 кадров/сек (1536 spf)
Метод сжатия : С потерями
Размер потока : 371 Мбайт (12%)
Заголовок : BD RUS
Язык : Russian
Default : Да
Forced : Нет
Аудио #2
Идентификатор : 3
Формат : AC-3
Формат/Информация : Audio Coding 3
Расширение режима : CM (complete main)
Параметр Endianness формата : Big
Идентификатор кодека : A_AC3
Продолжительность : 1 ч. 55 м.
Вид битрейта : Постоянный
Битрейт : 448 Кбит/сек
Каналы : 6 каналов
Расположение каналов : Front: L C R, Side: L R, LFE
Частота : 48,0 КГц
Частота кадров : 31,250 кадров/сек (1536 spf)
Метод сжатия : С потерями
Размер потока : 372 Мбайт (12%)
Заголовок : Original
Язык : English
Default : Нет
Forced : Нет
Текст #1
Идентификатор : 4
Формат : UTF-8
Идентификатор кодека : S_TEXT/UTF8
Идентификатор кодека/Информация : UTF-8 Plain Text
Продолжительность : 1 ч. 47 м.
Битрейт : 115 бит/сек
Count of elements : 1806
Размер потока : 91,2 Кбайт (0%)
Заголовок : full
Язык : Russian
Default : Нет
Forced : Нет
Текст #2
Идентификатор : 5
Формат : UTF-8
Идентификатор кодека : S_TEXT/UTF8
Идентификатор кодека/Информация : UTF-8 Plain Text
Продолжительность : 1 ч. 47 м.
Битрейт : 73 бит/сек
Count of elements : 1905
Размер потока : 57,7 Кбайт (0%)
Заголовок : full
Язык : English
Default : Нет
Forced : Нет
Текст #3
Идентификатор : 6
Формат : UTF-8
Идентификатор кодека : S_TEXT/UTF8
Идентификатор кодека/Информация : UTF-8 Plain Text
Продолжительность : 1 ч. 55 м.
Битрейт : 74 бит/сек
Count of elements : 2116
Размер потока : 63,5 Кбайт (0%)
Заголовок : SDH
Язык : English
Default : Нет
Forced : Нет
Меню
00:00:00.000 : en:00:00:00.000
00:10:41.683 : en:00:10:41.683
00:21:07.308 : en:00:21:07.308
00:29:12.876 : en:00:29:12.876
00:40:12.744 : en:00:40:12.744
00:50:50.464 : en:00:50:50.464
01:01:02.033 : en:01:01:02.033
01:10:15.420 : en:01:10:15.420
01:19:59.086 : en:01:19:59.086
01:29:40.709 : en:01:29:40.709
01:40:10.338 : en:01:40:10.338
01:48:35.801 : en:01:48:35.801
01:50:49.977 : en:01:50:49.977
Трейлер
Download / Скачать

Хотите скачать бесплатно? Зарегистрируйтесь на сайте (ссылка на регистрацию). Pirat.ca - самый быстрый торрент трекер в рунете!

Как скачивать  ·   Что такое торрент  ·   Рейтинг и ограничения

VikVik88

Морской Волк

Пост 05-Окт-2016 13:49 (спустя 4 дня)

[Q] 

угарный фильмец)) спасибо!!! !COOL! Раздающему респект!
[Профиль]  [ЛС] 

vladimn

Штурман

Пост 06-Окт-2016 21:30 (спустя 1 день 7 часов)

[Q] 

Фильм хорош. Можно посмеяться.
[Профиль]  [ЛС] 

Пост 03-Ноя-2016 16:53 (спустя 27 дней)

Топик был перенесен из форума Новинки (HD|DVD|BD| TV|SAT|PDTV| - Rips) в форум Фильмы 2010 - 2016 г.г.
aleksey99
 

Great_ICE_X

Морской Волк

Пост 08-Янв-2017 22:12 (спустя 3 месяца 2 дня)

[Q] 

спасибо, посмотрим
[Профиль]  [ЛС] 

Azatkaz

Морской Волк

Пост 17-Июл-2017 19:53 (спустя 6 месяцев 8 дней)

[Q] 

Автору респект!!! Актерский состав очень нравиться, надеюсь и фильмец будет такой же)))
[Профиль]  [ЛС] 

Angel_XP

Морской Волк

Пост 19-Июл-2017 09:42 (спустя 1 день 13 часов)

[Q] 

Судя по составу актеров фильмец должен быть вполне смотрибельным Трафик потрачен зря! Автору респект!!!
[Профиль]  [ЛС] 

alexsey

Корсар

77

Пост 04-Авг-2017 06:29 (спустя 15 дней)

[Q] 

Мне понравилось
[Профиль]  [ЛС] 

Golsergio

Гроза морей

Пост 04-Авг-2017 12:54 (спустя 6 часов)

[Q] 

мда....мнения расходятся. надо глянуть. Лови бочку
[Профиль]  [ЛС] 
Показать сообщения:    
Ответить на тему

Текущее время: Сегодня 05:41

Часовой пояс: GMT + 4



Вы не можете начинать темы
Вы не можете отвечать на сообщения
Вы не можете редактировать свои сообщения
Вы не можете удалять свои сообщения
Вы не можете голосовать в опросах
Вы не можете прикреплять файлы к сообщениям
Вы не можете скачивать файлы

▼ Вниз