ML
     
  Уважаемый Гость!
Вы можете поддержать проект и зарегистрироваться у наших партнеров - онлайн-стратегия MyLands. При регистрации в игре Вы получите код, который сможете активировать после регистрации на pirat.ca и получить 1000 дублонов.

Ваш код:
2cea854bae06d26241aab7fdd5e780021cf3d3fc
 
     

Табу / Taboo / Сезон: 1 / Серии: 1-8 из 8 (Андерс Энгстрем / Anders Engström ...) [2017 г., драма, ... HDTVRip] MVO (LostFilm) [финал сезона]

Ответить на тему
 
Автор
Сообщение

Пост 11-Янв-2017 12:45

[Q] 

kugesan

-Табу / Taboo
«***»
-- Производство: Великобритания, США
Жанр: драма, ...
Год выпуска: 2017 г.
Продолжительность: ~ 00:55:00 мин серия-Премьера (мир): 7 января 2017-Озвучка: Студия
Перевод: Профессиональный (многоголосый, закадровый)-Режиссер: Андерс Энгстрем / Anders Engström, Кристоффер Нюхольм / Kristoffer Nyholm-В ролях: Том Харди (Джеймс Кезайя Делэйни), Лео Билл (Уилтон), Майкл Келли (Дамбартон), Джонатан Прайс (Стюарт Стрэндж), Уна Чаплин (Зилфа Гири)-Описание:
Британия, 1814 год. Джеймс Кезайя Делэйни вернулся в родной Лондон — город, где его давно считают мертвым. У Джеймса в кармане 14 добытых не самым честным путем бриллиантов, а в душе — желание найти и наказать убийц отца. Все, что Джеймсу осталось от родителя в наследство, — клочок земли да старый верный слуга. И если слуга мало интересует могущественную Британскую Ост-Индскую компанию в лице ее жадной верхушки, то участок земли, который за это время существенно вырос в цене, — очень даже. Влиятельный и коварный сэр Стюарт Стрэндж готов пойти на все, чтобы получить желаемое, вплоть до убийства Делэйни. Но в чем нельзя отказать главному герою сериала, так это в умении выживать. Если его не убила темная магия Африки, десятилетняя разлука с возлюбленной, схватка с медведем и проклятие золота ацтеков, то сэру Стрэнджу придется очень постараться. Недалек тот день, когда алчность сойдется в бою с безумием, но будет ли в этой схватке победитель?..
-Качество видео: HDTVRip
Формат: AVI
Видеокодек: XviD
Аудиокодек: MP3
Видео: MPEG-4 Visual at 1447 Кбит/сек: 720 x 400 (1.800) at 25.000 fps, 0.20 Бит/Пиксели
Аудио Rus: MPEG Audio at 192 Кбит/сек: 2 канала, 48,0 КГц |LostFilm|
Cубтитры: отсутствуют
- -
Общее
Полное имя : E:\_Сериалы\_Сериалы\Табу\TABOO (Season 01)\Taboo.S01E01.XviD.LostFilm.[qqss44].avi
Формат : AVI
Формат/Информация : Audio Video Interleave
Размер файла : 649 Мбайт
Продолжительность : 55 м. 1 с.
Общий поток : 1649 Кбит/сек
Программа кодирования : VirtualDubMod 1.5.10.3 | www.virtualdub-fr.org || (build 2550/release)
Библиотека кодирования : VirtualDubMod build 2550/release
Видео
Идентификатор : 0
Формат : MPEG-4 Visual
Профиль формата : Advanced [email protected]
Параметр BVOP формата : 2
Параметр QPel формата : Нет
Параметр GMC формата : Без точки перехода
Параметр матрицы формата : Выборочная
Идентификатор кодека : XVID
Идентификатор кодека/Подсказка : XviD
Продолжительность : 55 м. 1 с.
Битрейт : 1447 Кбит/сек
Ширина : 720 пикселей
Высота : 400 пикселей
Соотношение сторон : 16:9
Частота кадров : 25,000 кадров/сек
Цветовое пространство : YUV
Субдискретизация насыщенности : 4:2:0
Битовая глубина : 8 бит
Тип развёртки : Прогрессивная
Метод сжатия : С потерями
Бит/(Пиксели*Кадры) : 0.201
Размер потока : 569 Мбайт (88%)
Библиотека кодирования : XviD 73
Аудио
Идентификатор : 1
Формат : MPEG Audio
Версия формата : Version 1
Профиль формата : Layer 3
Режим : Joint stereo
Расширение режима : MS Stereo
Идентификатор кодека : 55
Идентификатор кодека/Подсказка : MP3
Продолжительность : 55 м. 1 с.
Вид битрейта : Постоянный
Битрейт : 192 Кбит/сек
Каналы : 2 канала
Частота : 48,0 КГц
Метод сжатия : С потерями
Размер потока : 75,6 Мбайт (12%)
Выравнивание : Соединение по промежуткам
Продолжительность промежутка : 40 мс. (1,00 видеокадр)
Время предзагрузки промежутка : 504 мс.
-
-Скриншоты:
-
Раздача ведётся путём добавления новых серий; при каждом добавлении создаётся новый торрент.
Чтобы начать докачку новой серии, пользователям необходимо сделать следующее:
1. остановить скачивание,
2. удалить старый торрент у себя из клиента (старые серии удалять не надо),
3. скачать новый торрент и запустить его у себя в клиенте вместо старого, при этом указать клиенту путь в старую папку, куда и должно происходить скачивание новых серий.
Ваш клиент при этом должен произвести хеширование (проверку) старой папки (если не производит сам - помогите ему сделать это), и будет докачивать только те серии которых у вас ещё нет. Старые серии при этом не удаляются, а продолжают раздаваться!
Eсли вы уже удалили старые серии, то предотвратить повторную закачку старых серий можно, отжав галочку в соответствующих местах при запуске нового торрента. По возможности, желательно не удалять старые серии как можно дольше, чтобы релизёр не столько продолжал раздавать старые серии, а смог сконцентрироваться на новых.
Совет для тех, кто не хочет ждать перехеширования:
Создайте ещё одну папку рядом с папкой сериала (рядом, а не в ней!!!). Каждую новую серию после удачной загрузки копируйте в новую папку так чтобы ваша основная папка всегда была пуста. Когда ваш новый торрент предложит вам закачать все файлы, выберете только последнюю. Для сидирования же укажите адрес новой папки.
Как закачать отдельный файл из торрента или докачать ранее пропущенные файлы торрента!
-
1. Открыть торрент
2. Снять галки с тех файлов торрента, которые мы не хотим закачивать. Оставляем только на нужных нам файлах (файле).
3. Нажать О.К.
В клиенте utorrent
Инструкция
1) Открыть торрент

2) Снять галки с тех файлов торрента, которые мы не хотим закачивать:
* либо вручную, снимая с каждого файла галку( скрин №1)
* либо, нажав кнопку "Снять метки (Select None)", сняв сразу со всех файлов(скрин №2)
№1

№2

Оставляем только на нужных нам файлах (файле).

3)Нажать О.К
-Приятного просмотра!!!-
Download / Скачать

Хотите скачать бесплатно? Зарегистрируйтесь на сайте (ссылка на регистрацию). Pirat.ca - самый быстрый торрент трекер в рунете!

Как скачивать  ·   Что такое торрент  ·   Рейтинг и ограничения



Последний раз редактировалось: kugesan (2017-03-01 23:12), всего редактировалось 6 раз(а)

kotafanas

Морской Волк

95

Пост 20-Янв-2017 21:34 (спустя 9 дней)

[Q] 

деллете. делете

_________________



[Профиль]  [ЛС] 

Dante67

Флибустьер

19

Пост 09-Фев-2017 23:53 (спустя 20 дней)

[Q] 

как сериал?стоит смотреть?
[Профиль]  [ЛС] 

Meverik

Шкипер

Пост 23-Фев-2017 21:57 (спустя 13 дней)

[Q] 

спасибо большое
[Профиль]  [ЛС] 

olmed

Гроза морей

Пост 03-Мар-2017 09:42 (спустя 7 дней)

[Q] 

стоит смотреть? смотрел его хоть кто-нибудь...
[Профиль]  [ЛС] 
Показать сообщения:    
Ответить на тему

Текущее время: Сегодня 02:28

Часовой пояс: GMT + 4



Вы не можете начинать темы
Вы не можете отвечать на сообщения
Вы не можете редактировать свои сообщения
Вы не можете удалять свои сообщения
Вы не можете голосовать в опросах
Вы не можете прикреплять файлы к сообщениям
Вы не можете скачивать файлы

▼ Вниз