Уважаемый Гость!
Вы можете поддержать проект и зарегистрироваться у наших партнеров - онлайн-стратегия MyLands. При регистрации в игре Вы получите код, который сможете активировать после регистрации на pirat.ca и получить 1000 дублонов.

Ваш код:
629d0990658d87842c575af5b07885e54009975e
 
     

Дом странных детей Мисс Перегрин / Miss Peregrine's Home for Peculiar Children (Тим Бёртон / Tim Burton) [2016 г., фэнтези, драма, приключения, семейный, HDRip] Dub [Лицензия]

Ответить на тему
 
Автор
Сообщение

Пост 04-Дек-2016 10:12

[Q] 

aleksey99

--Дом странных детей Мисс Перегрин / Miss Peregrine's Home for Peculiar Children--«Stay peculiar»-- Производство: Великобритания, Бельгия, США, 20th Century Fox Film Corporation, Chernin Entertainment
Год выпуска: 2016 г.
Жанр: фэнтези, драма, приключения, семейный
Продолжительность: 02:06:55--Мировая премьера: 25 сентября 2016
Российская премьера: 6 октября 2016, «Двадцатый Век Фокс СНГ»--Перевод: Профессиональный (полное дублирование) [Лицензия BD CEE]--Режиссер: Тим Бёртон / Tim Burton--В ролях: Ева Грин, Эйса Баттерфилд, Сэмюэл Л. Джексон, Джуди Денч, Руперт Эверетт, Эллисон Джэнни, Крис О`Дауд, Теренс Стэмп, Элла Пёрнелл, Финлэй МакМиллан, Лорен МакКрости, Хейден Килер-Стоун, Джорджия Пембертон, Майло Паркер, Раффиелла Чепмен, Пикси Дейвис--Описание: Детство Джейкоба прошло под рассказы дедушки о приюте для необычных детей. Среди его обитателей девочка, которая умела держать в руках огонь, девочка, чьи ноги не касались земли, невидимый мальчик и близнецы, умевшие общаться без слов. Когда дедушка умирает, 16-летний Джейкоб получает загадочное письмо и отправляется на остров, где вырос его дед. Там он находит детей, которых раньше видел только на фотографиях.-- --Качество видео: HDRip
Контейнер: AVI
Видео кодек: XviD
Аудио кодек: AC3
Видео: 720x384 (1.88:1), 23.976 fps, XviD build 50 ~1856 kbps avg, 0.28 bit/pixel
Аудио: 48 kHz, AC3 Dolby Digital, 3/2 (L,C,R,l,r) + LFE ch, ~448 kbps
Cубтитры: отсутствуют.
Общее
Полное имя : H:\Torrent2\Missa.PeregRin.S.starnnimi.DetMi.2O16.D.HDRip.21OOMB.avi
Формат : AVI
Формат/Информация : Audio Video Interleave
Профиль формата : OpenDML
Размер файла : 2,05 Гбайт
Продолжительность : 2 ч. 6 м.
Общий поток : 2316 Кбит/сек
Программа кодирования : VirtualDubMod 1.5.10.2 (build 2540/release)
Библиотека кодирования : VirtualDubMod build 2540/release
Видео
Идентификатор : 0
Формат : MPEG-4 Visual
Профиль формата : Advanced [email protected]
Параметр BVOP формата : 2
Параметр QPel формата : Нет
Параметр GMC формата : Без точки перехода
Параметр матрицы формата : Выборочная
Идентификатор кодека : XVID
Идентификатор кодека/Подсказка : XviD
Продолжительность : 2 ч. 6 м.
Битрейт : 1856 Кбит/сек
Ширина : 720 пикселей
Высота : 384 пикселя
Соотношение сторон : 1,85:1
Частота кадров : 23,976 (24000/1001) кадра/сек
Цветовое пространство : YUV
Субдискретизация насыщенности : 4:2:0
Битовая глубина : 8 бит
Тип развёртки : Прогрессивная
Метод сжатия : С потерями
Бит/(Пиксели*Кадры) : 0.280
Размер потока : 1,65 Гбайт (80%)
Библиотека кодирования : XviD 1.2.1 (UTC 2008-12-04)
Аудио
Идентификатор : 1
Формат : AC-3
Формат/Информация : Audio Coding 3
Расширение режима : CM (complete main)
Параметр Endianness формата : Big
Идентификатор кодека : 2000
Продолжительность : 2 ч. 6 м.
Вид битрейта : Постоянный
Битрейт : 448 Кбит/сек
Каналы : 6 каналов
Расположение каналов : Front: L C R, Side: L R, LFE
Частота : 48,0 КГц
Частота кадров : 31,250 кадров/сек (1536 spf)
Метод сжатия : С потерями
Размер потока : 407 Мбайт (19%)
Выравнивание : Разделение по промежуткам
Продолжительность промежутка : 42 мс. (1,00 видеокадр)
Время предзагрузки промежутка : 500 мс.
Трейлер
Download / Скачать

Хотите скачать бесплатно? Зарегистрируйтесь на сайте (ссылка на регистрацию). Pirat.ca - самый быстрый торрент трекер в рунете!

Как скачивать  ·   Что такое торрент  ·   Рейтинг и ограничения

Gros5442

Шкипер

Пост 04-Дек-2016 18:57 (спустя 8 часов)

[Q] 

Спасибо)) cj
[Профиль]  [ЛС] 

Prosto_Tak

Корсар

Пост 06-Дек-2016 03:41 (спустя 1 день 8 часов)

[Q] 

Для детей с какого возраста будет интересен этот фильм? И вообще будет ли?
[Профиль]  [ЛС] 

Demon198455

Шкипер

Пост 08-Дек-2016 10:13 (спустя 2 дня 6 часов)

[Q] 

Спасибо!!! Раздающему респект!
[Профиль]  [ЛС] 

Edward Teach

Корсар

Пост 23-Дек-2016 22:57 (спустя 15 дней)

[Q] 

Очередное творение Бертона, посмотрим
[Профиль]  [ЛС] 

Александр44

Корсар

Пост 28-Дек-2016 02:59 (спустя 4 дня)

[Q] 

Лови бочку Спасибо!!!
[Профиль]  [ЛС] 

Dobryak

Штурман

Пост 06-Янв-2017 08:48 (спустя 9 дней)

[Q] 

Тема сисек Евы Грин не раскрыта?
[Профиль]  [ЛС] 

olmed

Гроза морей

Пост 11-Янв-2017 13:41 (спустя 5 дней)

[Q] 

Замечательный фильм для детей.
[Профиль]  [ЛС] 
Показать сообщения:    
Ответить на тему

Текущее время: Сегодня 05:41

Часовой пояс: GMT + 4



Вы не можете начинать темы
Вы не можете отвечать на сообщения
Вы не можете редактировать свои сообщения
Вы не можете удалять свои сообщения
Вы не можете голосовать в опросах
Вы не можете прикреплять файлы к сообщениям
Вы не можете скачивать файлы

▼ Вниз