Уважаемый Гость!
Вы можете поддержать проект и зарегистрироваться у наших партнеров - онлайн-стратегия MyLands. При регистрации в игре Вы получите код, который сможете активировать после регистрации на pirat.ca и получить 1000 дублонов.

Ваш код:
629d0990658d87842c575af5b07885e54009975e
 
     

Зачинщики / Masterminds (Джаред Хесс / Jared Hess) [2016 г., боевик, комедия, криминал, WEB-DLRip] Dub [iTunes]

Ответить на тему
 
Автор
Сообщение

Пост 22-Ноя-2016 08:14

[Q] 

aleksey99

--Зачинщики / Masterminds--«А что бы ты делал с $17 миллионами?»-- Производство: США, Broadway Video, Michaels-Goldwyn, Relativity Media
Год выпуска: 2016 г.
Жанр: боевик, комедия, криминал
Продолжительность: 01:30:45--Мировая премьера: 28 сентября 2016
Российская премьера: 29 сентября 2016, «Парадиз»--Перевод: Профессиональный (полное дублирование) [iTunes]--Режиссер: Джаред Хесс / Jared Hess--В ролях: Зак Галифианакис, Оуэн Уилсон, Кристен Уиг, Джейсон Судейкис, Кейт МакКиннон, Лесли Джонс, Мэри Элизабет Эллис, Кен Марино, Девин Рэтрей, Джон Дэйли--Описание: Бывший клерк банка вместе со своей любовницей проворачивает дерзкое ограбление инкассаторской машины и забирает 17 миллионов баксов. Но по неопытности преступники-дебютанты оставляют на месте преступления столько следов и улик, что вряд ли смогут получить удовольствие от добычи.-- --Качество видео: WEB-DLRip
Контейнер: AVI
Видео кодек: XviD
Аудио кодек: AC3
Видео: 720x384 (1.88:1), 25 fps, XviD build 50 ~1766 kbps avg, 0.26 bit/pixel
Аудио: 48 kHz, AC3 Dolby Digital, 3/2 (L,C,R,l,r) + LFE ch, ~384 kbps
Cубтитры: отсутствуют.
Общее
Полное имя : D:\Torrent 2\ZaCHinSCHik1.2O16.D.WEB-DLRip.14OOMB.avi
Формат : AVI
Формат/Информация : Audio Video Interleave
Размер файла : 1,37 Гбайт
Продолжительность : 1 ч. 30 м.
Общий поток : 2161 Кбит/сек
Программа кодирования : VirtualDubMod 1.5.10.2 (build 2540/release)
Библиотека кодирования : VirtualDubMod build 2540/release
Видео
Идентификатор : 0
Формат : MPEG-4 Visual
Профиль формата : Advanced [email protected]
Параметр BVOP формата : 2
Параметр QPel формата : Нет
Параметр GMC формата : Без точки перехода
Параметр матрицы формата : Default (MPEG)
Идентификатор кодека : XVID
Идентификатор кодека/Подсказка : XviD
Продолжительность : 1 ч. 30 м.
Битрейт : 1767 Кбит/сек
Ширина : 720 пикселей
Высота : 384 пикселя
Соотношение сторон : 1,85:1
Частота кадров : 25,000 кадров/сек
Цветовое пространство : YUV
Субдискретизация насыщенности : 4:2:0
Битовая глубина : 8 бит
Тип развёртки : Прогрессивная
Метод сжатия : С потерями
Бит/(Пиксели*Кадры) : 0.256
Размер потока : 1,12 Гбайт (82%)
Библиотека кодирования : XviD 1.2.1 (UTC 2008-12-04)
Аудио
Идентификатор : 1
Формат : AC-3
Формат/Информация : Audio Coding 3
Расширение режима : CM (complete main)
Параметр Endianness формата : Big
Идентификатор кодека : 2000
Продолжительность : 1 ч. 30 м.
Вид битрейта : Постоянный
Битрейт : 384 Кбит/сек
Каналы : 6 каналов
Расположение каналов : Front: L C R, Side: L R, LFE
Частота : 48,0 КГц
Метод сжатия : С потерями
Размер потока : 249 Мбайт (18%)
Выравнивание : Разделение по промежуткам
Продолжительность промежутка : 40 мс. (1,00 видеокадр)
Время предзагрузки промежутка : 500 мс.
Трейлер
Download / Скачать

Хотите скачать бесплатно? Зарегистрируйтесь на сайте (ссылка на регистрацию). Pirat.ca - самый быстрый торрент трекер в рунете!

Как скачивать  ·   Что такое торрент  ·   Рейтинг и ограничения

salavat1234

Гроза морей

Пост 22-Ноя-2016 13:04 (спустя 4 часа)

[Q] 

Спасибо!!! Лови бочку
[Профиль]  [ЛС] 

bjb13

Корсар

327

Пост 22-Ноя-2016 14:36 (спустя 1 час 32 минуты)

[Q] 

трейлер ни чё так, разок глянуть можно Спасибо!!! Лови бочку
[Профиль]  [ЛС] 

nitro1985

Корсар

Пост 22-Ноя-2016 16:57 (спустя 2 часа 20 минут)

[Q] 

поглядим
Спасибо!!! Лови бочку
[Профиль]  [ЛС] 

Maks_e

Корсар

69

Пост 23-Ноя-2016 04:21 (спустя 11 часов)

[Q] 

Спасибо!!! Лови бочку
[Профиль]  [ЛС] 

HRam

Шкипер

Пост 23-Ноя-2016 10:20 (спустя 5 часов)

[Q] 

Круто! заценим.
[Профиль]  [ЛС] 

BilG

Корсар

Пост 23-Ноя-2016 18:00 (спустя 7 часов)

[Q] 

rum

_________________
[Профиль]  [ЛС] 

scorpions7

Шкипер

Пост 23-Ноя-2016 21:08 (спустя 3 часа)

[Q] 

Порадовал! Добротный фильм!
[Профиль]  [ЛС] 

Apostle358

Корсар

156

Пост 26-Ноя-2016 07:54 (спустя 2 дня 10 часов)

[Q] 

Ожидал большего. 3.5/10
[Профиль]  [ЛС] 

viji

Корсар

Пост 28-Ноя-2016 10:31 (спустя 2 дня 2 часа)

[Q] 

Для просмотра, терпимо. Не так уж и плохо.
[Профиль]  [ЛС] 

kostyawerty

Шкипер

Пост 02-Дек-2016 10:03 (спустя 3 дня)

[Q] 

обед на работе скоротать поможет Спасибо!!!
[Профиль]  [ЛС] 

baltimor30

Корсар

Пост 04-Дек-2016 11:55 (спустя 2 дня 1 час)

[Q] 

норм фильм, но 2 раз пересматривать врядли
[Профиль]  [ЛС] 

Пост 26-Дек-2016 09:55 (спустя 21 день)

Топик был перенесен из форума Новинки (HD|DVD|BD| TV|SAT|PDTV| - Rips) в форум Фильмы 2010 - 2016 г.г.
aleksey99
 

dermat2

Корсар

Пост 02-Янв-2017 11:52 (спустя 28 дней)

[Q] 

!COOL! 6 Супер!
[Профиль]  [ЛС] 

ntvsx

Шкипер

Пост 03-Янв-2017 11:41 (спустя 23 часа)

[Q] 

Хорошая комедия.
[Профиль]  [ЛС] 

olmed

Гроза морей

Пост 11-Янв-2017 13:44 (спустя 8 дней)

[Q] 

Не плохой фильм, разок посмотреть можно Спасибо!!!
[Профиль]  [ЛС] 

Ливень

Корсар

Пост 11-Фев-2017 15:05 (спустя 1 месяц)

[Q] 

Хороший фильм, смешной и без обыкновенной американской пошлятины Спасибо!!!
[Профиль]  [ЛС] 
Показать сообщения:    
Ответить на тему

Текущее время: Сегодня 05:38

Часовой пояс: GMT + 4



Вы не можете начинать темы
Вы не можете отвечать на сообщения
Вы не можете редактировать свои сообщения
Вы не можете удалять свои сообщения
Вы не можете голосовать в опросах
Вы не можете прикреплять файлы к сообщениям
Вы не можете скачивать файлы

▼ Вниз