(EuroDisco, ItaloDisco, EuroPop) Silent Circle - Collections (14CD) 1994 - 2014 [FLAC, tracks +.cue, lossless]

Ответить на тему
 
Автор
Сообщение

Пост 12-Янв-2017 15:40

[Q] 

sergej644

-Silent Circle - Collections (14CD)--
Год издания: 1994 - 2014
Страна: Germany
Жанр: EuroDisco, ItaloDisco, EuroPop
Продолжительность: -Формат: FLAC
Битрейт аудио: Lossless
Тип рипа: tracks +.cue
Наличие сканов в содержимом раздачи: да
-«Sílent Circle» — немецкая поп-группа, выступающая в стилях итало-диско и евродиско. Была образована в 1985 году. В нынешний состав группы входят Мартин Тихсен, Харальд Шефер и Юрген Беренс.

Лейбл издания: Dusty Records
Страна-выпуска диска: Germany
Номер по каталогу: 9402-2
01. Prologue (1:02)
02. 2night (5:50)
03. Take A Chance (3:55)
04. Egyptian Eyes (4:01)
05. Just Another Moment (4:39)
06. Entrance (6:01)
07. Talk Is Cheap (4:15)
08. Hide In Your Shell (4:34)
09. Desire (5:22)
10. Every Move, Every Touch (4:50)
11. Night After Night (4:12)
12. Tell Me Why (5:15)

Лейбл издания: Dusty Records
Страна-выпуска диска: Germany
Номер по каталогу: 4017699971524
01. 2Night (Remix) (5:50)
02. Take The Chance (3:55)
03. Every Move Every Touch (Club Dance Mix ) (6:27)
04. Entrance (6:01)
05. Egyptian Eyes (Single Edit) (4:01)
06. Hide In Your Shell (4:34)
07. Trance 2Night (4:44)
08. Just Another Moment (4:39)
09. Talk Is Cheap (4:14)
10. Every Move Every Touch (Album Version) (4:50)
11. Night After Night (4:12)
12. Tell Me Why (5:17)
13. 2Night (Single Edit) (3:44)
14. Desire (5:20)

Лейбл издания: AW Music Records
Страна-выпуска диска: Germany
Номер по каталогу: 4017699000927
01. Like An Ocean (3:46)
02. Love Can Last A Lifetime (4:26)
03. This Magical Moment (3:44)
04. Night Train (4:50)
05. One More Night (Extended Mix) (6:04)
06. She's Got Me On The Phone (5:57)
07. I'm Just A Man In Love (3:01)
08. Be My Lover (3:19)
09. It's Not A Secret (3:28)
10. I Need A Woman (3:40)
11. Save Me (3:58)
12. I've Been Calling Just For You (4:27)

Лейбл издания: ZYX Music
Страна-выпуска диска: Germany
Номер по каталогу: 20520-2
01. Touch In The Night (5:19)
02. Sib Dab Dua (3:06)
03. Dreams (4:02)
04. Hide Away - Man Is Comin'! (3:44)
05. Shy Girl (3:38)
06. Stop The Rain In The Night (3:41)
07. For You (1:33)
08. Give Me Time (3:59)
09. Moonlight Affair (3:31)
10. Anywhere Tonight (3:20)
11. Love Is Just A Word (3:22)
12. Touch In The Night '99 (3:51)

Лейбл издания: ZYX Music
Страна-выпуска диска: Germany
Номер по каталогу: 17087-1
01. Touch In The Night (Crash Version) (5:36)
02. Hide Away - Man Is Comin'! (Special Mix) (5:12)
03. I Am Your Believer ( Club Mix) (5:48)
04. Danger Danger (Raicing Mix) (6:01)
05. Anywhere Tonight (3:20)
06. Shy Girl (3:39)
07. Dreams (4:02)
08. 2 Night (Album Version) (5:50)
09. Take A Chance (3:56)
10. Every Move, Every Touch (4:49)
11. Night Train (3:43)
12. I Need A Woman (3:40)
13. One More Night (Extended Version) (6:04)
14. Night After Night (4:12)
15. Moonlight Affair (Remix 2001) (3:51)
16. Dj Special Mix Vol.1 (6:22)

Лейбл издания: ZYX Music
Страна-выпуска диска: Germany
Номер по каталогу: 17087-2
01. Stop The Rain In The Night (Extended Version) (5:42)
02. Forger The Stranger (Simple Mix) (5:01)
03. Time For Love (Super Action Mix) (5:23)
04. Love Is Just A World (Reggae Version) (5:48)
05. Moonlight Affair (3:31)
06. Give Me Time (3:59)
07. Sib Dab Dua (3:06)
08. Egyptian Eyes (4:01)
09. Entrance (6:03)
10. Save Me (3:58)
11. Like An Ocean (3:46)
12. Love Can Last A Lifetime (4:25)
13. I'm Just A Man In Love (3:01)
14. What A Shame (6:37)
15. Talk Is Cheap (4:14)
16. Touch In The Night (Remix ' 99 ) (3:53)
17. Dj Special Mix Vol. 2 (6:06)

Лейбл издания: KOCH Universal Music
Страна-выпуска диска: Germany
Номер по каталогу: 8061777
01. Touch In The Night [Single Version] (3:41)
02. Stop The Rain In The Night (3:39)
03. Love Is Just A Word (3:22)
04. Moonlight Affair (3:30)
05. Danger, Danger (3:16)
06. Time For Love (3:10)
07. Oh, Don't Lose Your Heart Tonight (3:29)
08. Anywhere Tonight (3:19)
09. I Am Your Believer (3:32)
10. What A Shame (6:35)
11. Forget The Stranger (3:19)
12. Luxury [Previously Unreleased] (3:49)
13. Don't Ask Me Why [Previously Unreleased] (3:54)
14. Every Move, Every Touch (4:48)
15. Tonight (2Night) (5:50)
16. DJ Special Mix (6:21)

Лейбл издания: PMS Pokorny Music Solutions
Страна-выпуска диска: EU
Номер по каталогу: PMS 018
01. Hide Away - Man Is Comin! (Special Mix) (5:11)
02. Touch In The Night (Crash Version) (5:35)
03. Stop The Rain (12'' Version) (5:39)
04. Love Is Just A Word (Reggae Version) (5:47)
05. Moonlight Affair (12'' Version) (6:02)
06. Time For Love (Super Action Mix) (5:25)
07. Danger Danger (Racing Mix) (6:02)
08. Oh, Don't Lose Your Heart Tonight (12'' Version) (5:50)
09. I Am Your Believer (Club Mix) (5:47)
10. Forget The Stranger (Simple Mix) (5:01)
11. What A Shame (Masterbeat Mix) (6:36)

Лейбл издания: Dusty Records
Страна-выпуска диска: Germany
Номер по каталогу: 9406-2
01. Every Move, Every Touch (Remix Edit) (3:56)
02. Every Move, Every Touch (Remix Extended) (6:12)
03. Every Move, Every Touch (Remix Instrumental) (6:11)

Лейбл издания: Dancing Shoes
Страна-выпуска диска: EU
Номер по каталогу: 9505-2
01. Every Move Every Touch (Single Mix) (3:36)
02. Every Move Every Touch (Club Dance Version) (6:28)
03. Entrance (6:01)
04. Hide In Your Shell (4:32)

Лейбл издания: AW Music Productions
Страна-выпуска диска: Germany
Номер по каталогу: AWP004-2
01. One More Night [Radio Edit] (3:44)
02. One More Night [Extended Mix] (6:05)
03. Be My Lover (3:23)
04. One More Night [Club Mix] (9:42)

Лейбл издания: ZYX Music
Страна-выпуска диска: Germany
Номер по каталогу: 8895-8
01. Touch In The Night '98 (Radio Edit) (3:54)
02. Touch In The Night '98 (Megamix) (6:14)
03. Love Is Just A Word (3:16)
04. Touch In The Night '98 (Original) (5:32)

Лейбл издания: AW Music Productions
Страна-выпуска диска: Germany
Номер по каталогу: AWP015-2
01. Night Train (Radio Edit) (3:51)
02. Night Train (Rave Style Club Vocal Mix) (6:21)
03. Night Train (House Radio Edit) (4:02)
04. She's Got Me On The Phone (Extended Club Mix) (5:05)
05. Night Train (House Extended Club Mix) (5:39)
06. Night Train (Rave Style Club Mix) (6:21)
07. Night Train (Radio Instrumental Mix) (3:52)

Лейбл издания: Update Media Group
Страна-выпуска диска: Germany
Номер по каталогу: 70892-8
01. Moonlight Affair 2001 (Italo-Radio-Mix) (3:24)
02. Moonlight Affair 2001 (Italo-Long-Mix) (6:09)
03. Moonlight Affair 2001 (Maryland-Mix) (3:53)
04. Silent Groove (5:29)
-
Код:
Exact Audio Copy V1.1 from 23. June 2015
EAC extraction logfile from 2. July 2016, 20:48
Silent Circle / Back!
Used drive  : SONY    DVD RW AD-7260S   Adapter: 0  ID: 0
Read mode               : Secure
Utilize accurate stream : Yes
Defeat audio cache      : Yes
Make use of C2 pointers : No
Read offset correction                      : 48
Overread into Lead-In and Lead-Out          : No
Fill up missing offset samples with silence : Yes
Delete leading and trailing silent blocks   : No
Null samples used in CRC calculations       : Yes
Used interface                              : Installed external ASPI interface
Gap handling                                : Appended to previous track
Used output format : Internal WAV Routines
Sample format      : 44.100 Hz; 16 Bit; Stereo
TOC of the extracted CD
     Track |   Start  |  Length  | Start sector | End sector
    ---------------------------------------------------------
        1  |  0:00.00 |  1:02.15 |         0    |     4664
        2  |  1:02.15 |  5:50.05 |      4665    |    30919
        3  |  6:52.20 |  3:55.32 |     30920    |    48576
        4  | 10:47.52 |  4:00.65 |     48577    |    66641
        5  | 14:48.42 |  4:38.50 |     66642    |    87541
        6  | 19:27.17 |  6:00.45 |     87542    |   114586
        7  | 25:27.62 |  4:14.45 |    114587    |   133681
        8  | 29:42.32 |  4:34.03 |    133682    |   154234
        9  | 34:16.35 |  5:22.12 |    154235    |   178396
       10  | 39:38.47 |  4:49.58 |    178397    |   200129
       11  | 44:28.30 |  4:12.20 |    200130    |   219049
       12  | 48:40.50 |  5:15.12 |    219050    |   242686
Track  1
     Filename W:\Torrents To Upload\СПАМ\Silent Circle\1994 - Back!\01. Prologue.wav
     Pre-gap length  0:00:02.00
     Peak level 79.2 %
     Extraction speed 1.6 X
     Track quality 100.0 %
     Test CRC AFB775B9
     Copy CRC AFB775B9
     Accurately ripped (confidence 3)  [8860CBB4]  (AR v2)
     Copy OK
Track  2
     Filename W:\Torrents To Upload\СПАМ\Silent Circle\1994 - Back!\02. 2night.wav
     Peak level 96.8 %
     Extraction speed 2.5 X
     Track quality 100.0 %
     Test CRC 0BC36E0D
     Copy CRC 0BC36E0D
     Accurately ripped (confidence 3)  [43B3A26C]  (AR v2)
     Copy OK
Track  3
     Filename W:\Torrents To Upload\СПАМ\Silent Circle\1994 - Back!\03. Take A Chance.wav
     Pre-gap length  0:00:01.58
     Peak level 95.6 %
     Extraction speed 2.7 X
     Track quality 100.0 %
     Test CRC 55FA3E95
     Copy CRC 55FA3E95
     Accurately ripped (confidence 3)  [074036A8]  (AR v2)
     Copy OK
Track  4
     Filename W:\Torrents To Upload\СПАМ\Silent Circle\1994 - Back!\04. Egyptian Eyes.wav
     Pre-gap length  0:00:01.52
     Peak level 95.5 %
     Extraction speed 2.9 X
     Track quality 100.0 %
     Test CRC 0807B405
     Copy CRC 0807B405
     Accurately ripped (confidence 3)  [08A81968]  (AR v2)
     Copy OK
Track  5
     Filename W:\Torrents To Upload\СПАМ\Silent Circle\1994 - Back!\05. Just Another Moment.wav
     Pre-gap length  0:00:02.02
     Peak level 94.9 %
     Extraction speed 3.2 X
     Track quality 100.0 %
     Test CRC 835986D9
     Copy CRC 835986D9
     Accurately ripped (confidence 3)  [D61059F1]  (AR v2)
     Copy OK
Track  6
     Filename W:\Torrents To Upload\СПАМ\Silent Circle\1994 - Back!\06. Entrance.wav
     Pre-gap length  0:00:02.22
     Peak level 94.9 %
     Extraction speed 3.5 X
     Track quality 100.0 %
     Test CRC 9D4DD3AA
     Copy CRC 9D4DD3AA
     Accurately ripped (confidence 3)  [1535EE92]  (AR v2)
     Copy OK
Track  7
     Filename W:\Torrents To Upload\СПАМ\Silent Circle\1994 - Back!\07. Talk Is Cheap.wav
     Pre-gap length  0:00:01.62
     Peak level 96.5 %
     Extraction speed 3.2 X
     Track quality 99.9 %
     Test CRC 127E18C6
     Copy CRC 127E18C6
     Accurately ripped (confidence 3)  [90B0BB66]  (AR v2)
     Copy OK
Track  8
     Filename W:\Torrents To Upload\СПАМ\Silent Circle\1994 - Back!\08. Hide In Your Shell.wav
     Pre-gap length  0:00:02.32
     Peak level 94.5 %
     Extraction speed 3.8 X
     Track quality 100.0 %
     Test CRC E9118F8D
     Copy CRC E9118F8D
     Accurately ripped (confidence 3)  [7B7AFB33]  (AR v2)
     Copy OK
Track  9
     Filename W:\Torrents To Upload\СПАМ\Silent Circle\1994 - Back!\09. Desire.wav
     Pre-gap length  0:00:02.05
     Peak level 96.3 %
     Extraction speed 4.1 X
     Track quality 100.0 %
     Test CRC 1E58E43F
     Copy CRC 1E58E43F
     Accurately ripped (confidence 3)  [ABF089C5]  (AR v2)
     Copy OK
Track 10
     Filename W:\Torrents To Upload\СПАМ\Silent Circle\1994 - Back!\10. Every Move, Every Touch.wav
     Pre-gap length  0:00:01.57
     Peak level 96.2 %
     Extraction speed 4.2 X
     Track quality 100.0 %
     Test CRC 25BFC7F4
     Copy CRC 25BFC7F4
     Accurately ripped (confidence 3)  [61DED8BC]  (AR v2)
     Copy OK
Track 11
     Filename W:\Torrents To Upload\СПАМ\Silent Circle\1994 - Back!\11. Night After Night.wav
     Pre-gap length  0:00:02.48
     Peak level 96.8 %
     Extraction speed 4.3 X
     Track quality 100.0 %
     Test CRC 71BEEB50
     Copy CRC 71BEEB50
     Accurately ripped (confidence 3)  [8A0B7A47]  (AR v2)
     Copy OK
Track 12
     Filename W:\Torrents To Upload\СПАМ\Silent Circle\1994 - Back!\12. Tell Me Why.wav
     Pre-gap length  0:00:02.30
     Peak level 96.8 %
     Extraction speed 4.6 X
     Track quality 100.0 %
     Test CRC 3C51AF8C
     Copy CRC 3C51AF8C
     Accurately ripped (confidence 3)  [067B36B1]  (AR v2)
     Copy OK
All tracks accurately ripped
No errors occurred
End of status report
Код:
REM GENRE Eurodance
REM DATE 1994
REM DISCID A90CA30C
REM COMMENT "ExactAudioCopy v1.1"
PERFORMER "Silent Circle"
TITLE "Back!"
FILE "01. Prologue.flac" WAVE
  TRACK 01 AUDIO
    TITLE "Prologue"
    PERFORMER "Silent Circle"
    INDEX 01 00:00:00
FILE "02. 2night.flac" WAVE
  TRACK 02 AUDIO
    TITLE "2night"
    PERFORMER "Silent Circle"
    INDEX 01 00:00:00
  TRACK 03 AUDIO
    TITLE "Take A Chance"
    PERFORMER "Silent Circle"
    INDEX 00 05:48:22
FILE "03. Take A Chance.flac" WAVE
    INDEX 01 00:00:00
  TRACK 04 AUDIO
    TITLE "Egyptian Eyes"
    PERFORMER "Silent Circle"
    INDEX 00 03:53:55
FILE "04. Egyptian Eyes.flac" WAVE
    INDEX 01 00:00:00
  TRACK 05 AUDIO
    TITLE "Just Another Moment"
    PERFORMER "Silent Circle"
    INDEX 00 03:58:63
FILE "05. Just Another Moment.flac" WAVE
    INDEX 01 00:00:00
  TRACK 06 AUDIO
    TITLE "Entrance"
    PERFORMER "Silent Circle"
    INDEX 00 04:36:28
FILE "06. Entrance.flac" WAVE
    INDEX 01 00:00:00
  TRACK 07 AUDIO
    TITLE "Talk Is Cheap"
    PERFORMER "Silent Circle"
    INDEX 00 05:58:58
FILE "07. Talk Is Cheap.flac" WAVE
    INDEX 01 00:00:00
  TRACK 08 AUDIO
    TITLE "Hide In Your Shell"
    PERFORMER "Silent Circle"
    INDEX 00 04:12:13
FILE "08. Hide In Your Shell.flac" WAVE
    INDEX 01 00:00:00
  TRACK 09 AUDIO
    TITLE "Desire"
    PERFORMER "Silent Circle"
    INDEX 00 04:31:73
FILE "09. Desire.flac" WAVE
    INDEX 01 00:00:00
  TRACK 10 AUDIO
    TITLE "Every Move, Every Touch"
    PERFORMER "Silent Circle"
    INDEX 00 05:20:30
FILE "10. Every Move, Every Touch.flac" WAVE
    INDEX 01 00:00:00
  TRACK 11 AUDIO
    TITLE "Night After Night"
    PERFORMER "Silent Circle"
    INDEX 00 04:47:10
FILE "11. Night After Night.flac" WAVE
    INDEX 01 00:00:00
  TRACK 12 AUDIO
    TITLE "Tell Me Why"
    PERFORMER "Silent Circle"
    INDEX 00 04:09:65
FILE "12. Tell Me Why.flac" WAVE
    INDEX 01 00:00:00
Код:
Exact Audio Copy V1.1 from 23. June 2015
EAC extraction logfile from 2. July 2016, 8:49
Silent Circle / Back II
Used drive  : SONY    DVD RW AD-7260S   Adapter: 0  ID: 0
Read mode               : Secure
Utilize accurate stream : Yes
Defeat audio cache      : Yes
Make use of C2 pointers : No
Read offset correction                      : 48
Overread into Lead-In and Lead-Out          : No
Fill up missing offset samples with silence : Yes
Delete leading and trailing silent blocks   : No
Null samples used in CRC calculations       : Yes
Used interface                              : Installed external ASPI interface
Gap handling                                : Appended to previous track
Used output format : Internal WAV Routines
Sample format      : 44.100 Hz; 16 Bit; Stereo
TOC of the extracted CD
     Track |   Start  |  Length  | Start sector | End sector
    ---------------------------------------------------------
        1  |  0:00.00 |  5:50.10 |         0    |    26259
        2  |  5:50.10 |  3:55.30 |     26260    |    43914
        3  |  9:45.40 |  6:27.37 |     43915    |    72976
        4  | 16:13.02 |  6:00.70 |     72977    |   100046
        5  | 22:13.72 |  4:00.73 |    100047    |   118119
        6  | 26:14.70 |  4:34.00 |    118120    |   138669
        7  | 30:48.70 |  4:43.52 |    138670    |   159946
        8  | 35:32.47 |  4:38.43 |    159947    |   180839
        9  | 40:11.15 |  4:14.19 |    180840    |   199908
       10  | 44:25.34 |  4:49.56 |    199909    |   221639
       11  | 49:15.15 |  4:12.25 |    221640    |   240564
       12  | 53:27.40 |  5:16.60 |    240565    |   264324
       13  | 58:44.25 |  3:43.45 |    264325    |   281094
       14  | 62:27.70 |  5:20.30 |    281095    |   305124
Track  1
     Filename W:\Torrents To Upload\СПАМ\Silent Circle\1997 - Back II\01. 2Night (Remix).wav
     Pre-gap length  0:00:02.00
     Peak level 98.8 %
     Extraction speed 2.5 X
     Track quality 100.0 %
     Test CRC 0CC60CC9
     Copy CRC 0CC60CC9
     Accurately ripped (confidence 2)  [03CAD4CC]  (AR v2)
     Copy OK
Track  2
     Filename W:\Torrents To Upload\СПАМ\Silent Circle\1997 - Back II\02. Take The Chance.wav
     Pre-gap length  0:00:01.70
     Peak level 98.8 %
     Extraction speed 2.4 X
     Track quality 99.9 %
     Test CRC 476947AF
     Copy CRC 476947AF
     Accurately ripped (confidence 2)  [83249033]  (AR v2)
     Copy OK
Track  3
     Filename W:\Torrents To Upload\СПАМ\Silent Circle\1997 - Back II\03. Every Move Every Touch (Club Dance Mix ).wav
     Pre-gap length  0:00:01.55
     Peak level 98.8 %
     Extraction speed 3.2 X
     Track quality 100.0 %
     Test CRC 1AECBB57
     Copy CRC 1AECBB57
     Accurately ripped (confidence 2)  [6CBF24FB]  (AR v2)
     Copy OK
Track  4
     Filename W:\Torrents To Upload\СПАМ\Silent Circle\1997 - Back II\04. Entrance.wav
     Pre-gap length  0:00:01.54
     Peak level 98.8 %
     Extraction speed 3.5 X
     Track quality 100.0 %
     Test CRC E25C030C
     Copy CRC E25C030C
     Accurately ripped (confidence 2)  [4B1B9F10]  (AR v2)
     Copy OK
Track  5
     Filename W:\Torrents To Upload\СПАМ\Silent Circle\1997 - Back II\05. Egyptian Eyes (Single Edit).wav
     Pre-gap length  0:00:02.32
     Peak level 98.8 %
     Extraction speed 3.6 X
     Track quality 100.0 %
     Test CRC EAA6F601
     Copy CRC EAA6F601
     Accurately ripped (confidence 2)  [F1024A5B]  (AR v2)
     Copy OK
Track  6
     Filename W:\Torrents To Upload\СПАМ\Silent Circle\1997 - Back II\06. Hide In Your Shell.wav
     Pre-gap length  0:00:02.04
     Peak level 98.8 %
     Extraction speed 3.8 X
     Track quality 100.0 %
     Test CRC 4993B324
     Copy CRC 4993B324
     Accurately ripped (confidence 2)  [8B511F1A]  (AR v2)
     Copy OK
Track  7
     Filename W:\Torrents To Upload\СПАМ\Silent Circle\1997 - Back II\07. Trance 2Night.wav
     Pre-gap length  0:00:01.60
     Peak level 98.8 %
     Extraction speed 4.1 X
     Track quality 100.0 %
     Test CRC DF977EC9
     Copy CRC DF977EC9
     Accurately ripped (confidence 2)  [631FEB8C]  (AR v2)
     Copy OK
Track  8
     Filename W:\Torrents To Upload\СПАМ\Silent Circle\1997 - Back II\08. Just Another Moment.wav
     Pre-gap length  0:00:02.19
     Peak level 98.8 %
     Extraction speed 3.8 X
     Track quality 99.9 %
     Test CRC D5CEC3CE
     Copy CRC D5CEC3CE
     Accurately ripped (confidence 2)  [3B4953A5]  (AR v2)
     Copy OK
Track  9
     Filename W:\Torrents To Upload\СПАМ\Silent Circle\1997 - Back II\09. Talk Is Cheap.wav
     Pre-gap length  0:00:02.00
     Peak level 98.8 %
     Extraction speed 4.3 X
     Track quality 100.0 %
     Test CRC 6D39ECEB
     Copy CRC 6D39ECEB
     Accurately ripped (confidence 2)  [21F6D84C]  (AR v2)
     Copy OK
Track 10
     Filename W:\Torrents To Upload\СПАМ\Silent Circle\1997 - Back II\10. Every Move Every Touch (Album Version).wav
     Pre-gap length  0:00:01.72
     Peak level 98.8 %
     Extraction speed 4.6 X
     Track quality 100.0 %
     Test CRC 18DD08F4
     Copy CRC 18DD08F4
     Accurately ripped (confidence 2)  [9E27E92B]  (AR v2)
     Copy OK
Track 11
     Filename W:\Torrents To Upload\СПАМ\Silent Circle\1997 - Back II\11. Night After Night.wav
     Pre-gap length  0:00:02.38
     Peak level 98.8 %
     Extraction speed 4.1 X
     Track quality 99.9 %
     Test CRC 174F9F21
     Copy CRC 174F9F21
     Accurately ripped (confidence 2)  [D94F9E8B]  (AR v2)
     Copy OK
Track 12
     Filename W:\Torrents To Upload\СПАМ\Silent Circle\1997 - Back II\12. Tell Me Why.wav
     Pre-gap length  0:00:02.50
     Peak level 98.8 %
     Extraction speed 5.0 X
     Track quality 100.0 %
     Test CRC 77BA2296
     Copy CRC 77BA2296
     Accurately ripped (confidence 2)  [3A4FD657]  (AR v2)
     Copy OK
Track 13
     Filename W:\Torrents To Upload\СПАМ\Silent Circle\1997 - Back II\13. 2Night (Single Edit).wav
     Pre-gap length  0:00:01.69
     Peak level 98.8 %
     Extraction speed 4.9 X
     Track quality 100.0 %
     Test CRC 12D27B87
     Copy CRC 12D27B87
     Accurately ripped (confidence 2)  [EFEE5D85]  (AR v2)
     Copy OK
Track 14
     Filename W:\Torrents To Upload\СПАМ\Silent Circle\1997 - Back II\14. Desire.wav
     Pre-gap length  0:00:02.30
     Peak level 98.8 %
     Extraction speed 4.8 X
     Track quality 99.9 %
     Test CRC 7D1D6954
     Copy CRC 7D1D6954
     Accurately ripped (confidence 2)  [CDFEEAB5]  (AR v2)
     Copy OK
All tracks accurately ripped
No errors occurred
End of status report
Код:
REM GENRE Eurodance
REM DATE 1997
REM DISCID D70FE40E
REM COMMENT "ExactAudioCopy v1.1"
PERFORMER "Silent Circle"
TITLE "Back II"
FILE "01. 2Night (Remix).flac" WAVE
  TRACK 01 AUDIO
    TITLE "2Night (Remix)"
    PERFORMER "Silent Circle"
    INDEX 01 00:00:00
  TRACK 02 AUDIO
    TITLE "Take The Chance"
    PERFORMER "Silent Circle"
    INDEX 00 05:48:15
FILE "02. Take The Chance.flac" WAVE
    INDEX 01 00:00:00
  TRACK 03 AUDIO
    TITLE "Every Move Every Touch (Club Dance Mix )"
    PERFORMER "Silent Circle"
    INDEX 00 03:53:50
FILE "03. Every Move Every Touch (Club Dance Mix ).flac" WAVE
    INDEX 01 00:00:00
  TRACK 04 AUDIO
    TITLE "Entrance"
    PERFORMER "Silent Circle"
    INDEX 00 06:25:58
FILE "04. Entrance.flac" WAVE
    INDEX 01 00:00:00
  TRACK 05 AUDIO
    TITLE "Egyptian Eyes (Single Edit)"
    PERFORMER "Silent Circle"
    INDEX 00 05:58:38
FILE "05. Egyptian Eyes (Single Edit).flac" WAVE
    INDEX 01 00:00:00
  TRACK 06 AUDIO
    TITLE "Hide In Your Shell"
    PERFORMER "Silent Circle"
    INDEX 00 03:58:69
FILE "06. Hide In Your Shell.flac" WAVE
    INDEX 01 00:00:00
  TRACK 07 AUDIO
    TITLE "Trance 2Night"
    PERFORMER "Silent Circle"
    INDEX 00 04:32:15
FILE "07. Trance 2Night.flac" WAVE
    INDEX 01 00:00:00
  TRACK 08 AUDIO
    TITLE "Just Another Moment"
    PERFORMER "Silent Circle"
    INDEX 00 04:41:33
FILE "08. Just Another Moment.flac" WAVE
    INDEX 01 00:00:00
  TRACK 09 AUDIO
    TITLE "Talk Is Cheap"
    PERFORMER "Silent Circle"
    INDEX 00 04:36:43
FILE "09. Talk Is Cheap.flac" WAVE
    INDEX 01 00:00:00
  TRACK 10 AUDIO
    TITLE "Every Move Every Touch (Album Version)"
    PERFORMER "Silent Circle"
    INDEX 00 04:12:22
FILE "10. Every Move Every Touch (Album Version).flac" WAVE
    INDEX 01 00:00:00
  TRACK 11 AUDIO
    TITLE "Night After Night"
    PERFORMER "Silent Circle"
    INDEX 00 04:47:18
FILE "11. Night After Night.flac" WAVE
    INDEX 01 00:00:00
  TRACK 12 AUDIO
    TITLE "Tell Me Why"
    PERFORMER "Silent Circle"
    INDEX 00 04:09:50
FILE "12. Tell Me Why.flac" WAVE
    INDEX 01 00:00:00
  TRACK 13 AUDIO
    TITLE "2Night (Single Edit)"
    PERFORMER "Silent Circle"
    INDEX 00 05:14:66
FILE "13. 2Night (Single Edit).flac" WAVE
    INDEX 01 00:00:00
  TRACK 14 AUDIO
    TITLE "Desire"
    PERFORMER "Silent Circle"
    INDEX 00 03:41:15
FILE "14. Desire.flac" WAVE
    INDEX 01 00:00:00
Код:
Exact Audio Copy V1.1 from 23. June 2015
EAC extraction logfile from 2. July 2016, 21:24
Silent Circle / Stories 'bout Love (Limited Edition)
Used drive  : SONY    DVD RW AD-7260S   Adapter: 0  ID: 0
Read mode               : Secure
Utilize accurate stream : Yes
Defeat audio cache      : Yes
Make use of C2 pointers : No
Read offset correction                      : 48
Overread into Lead-In and Lead-Out          : No
Fill up missing offset samples with silence : Yes
Delete leading and trailing silent blocks   : No
Null samples used in CRC calculations       : Yes
Used interface                              : Installed external ASPI interface
Gap handling                                : Appended to previous track
Used output format : Internal WAV Routines
Sample format      : 44.100 Hz; 16 Bit; Stereo
TOC of the extracted CD
     Track |   Start  |  Length  | Start sector | End sector
    ---------------------------------------------------------
        1  |  0:00.00 |  3:46.22 |         0    |    16971
        2  |  3:46.22 |  4:25.45 |     16972    |    36891
        3  |  8:11.67 |  3:43.50 |     36892    |    53666
        4  | 11:55.42 |  4:49.45 |     53667    |    75386
        5  | 16:45.12 |  6:03.68 |     75387    |   102679
        6  | 22:49.05 |  5:57.07 |    102680    |   129461
        7  | 28:46.12 |  3:00.73 |    129462    |   143034
        8  | 31:47.10 |  3:19.37 |    143035    |   157996
        9  | 35:06.47 |  3:28.28 |    157997    |   173624
       10  | 38:35.00 |  3:39.60 |    173625    |   190109
       11  | 42:14.60 |  3:58.27 |    190110    |   207986
       12  | 46:13.12 |  4:26.53 |    207987    |   227989
Track  1
     Filename W:\Torrents To Upload\СПАМ\Silent Circle\1998 - Stories 'bout Love (Limited Edition)\01. Like An Ocean.wav
     Pre-gap length  0:00:02.00
     Peak level 98.7 %
     Extraction speed 2.2 X
     Track quality 100.0 %
     Test CRC 08BC4DC5
     Copy CRC 08BC4DC5
     Accurately ripped (confidence 5)  [C5AD53C9]  (AR v1)
     Copy OK
Track  2
     Filename W:\Torrents To Upload\СПАМ\Silent Circle\1998 - Stories 'bout Love (Limited Edition)\02. Love Can Last A Lifetime.wav
     Pre-gap length  0:00:01.67
     Peak level 99.0 %
     Extraction speed 2.3 X
     Track quality 99.9 %
     Test CRC 1885F118
     Copy CRC 1885F118
     Accurately ripped (confidence 4)  [E48D1FC9]  (AR v1)
     Copy OK
Track  3
     Filename W:\Torrents To Upload\СПАМ\Silent Circle\1998 - Stories 'bout Love (Limited Edition)\03. This Magical Moment.wav
     Pre-gap length  0:00:02.12
     Peak level 98.7 %
     Extraction speed 2.7 X
     Track quality 100.0 %
     Test CRC 475B147B
     Copy CRC 475B147B
     Accurately ripped (confidence 5)  [79BFF112]  (AR v1)
     Copy OK
Track  4
     Filename W:\Torrents To Upload\СПАМ\Silent Circle\1998 - Stories 'bout Love (Limited Edition)\04. Night Train.wav
     Pre-gap length  0:00:02.30
     Peak level 99.0 %
     Extraction speed 3.1 X
     Track quality 100.0 %
     Test CRC CA4CEFAC
     Copy CRC CA4CEFAC
     Accurately ripped (confidence 5)  [4B145A39]  (AR v1)
     Copy OK
Track  5
     Filename W:\Torrents To Upload\СПАМ\Silent Circle\1998 - Stories 'bout Love (Limited Edition)\05. One More Night (Extended Mix).wav
     Pre-gap length  0:00:02.00
     Peak level 98.7 %
     Extraction speed 3.4 X
     Track quality 100.0 %
     Test CRC 9ABE307F
     Copy CRC 9ABE307F
     Accurately ripped (confidence 4)  [6BC0167D]  (AR v1)
     Copy OK
Track  6
     Filename W:\Torrents To Upload\СПАМ\Silent Circle\1998 - Stories 'bout Love (Limited Edition)\06. She's Got Me On The Phone.wav
     Pre-gap length  0:00:02.00
     Peak level 98.8 %
     Extraction speed 3.6 X
     Track quality 100.0 %
     Test CRC 2755624C
     Copy CRC 2755624C
     Accurately ripped (confidence 4)  [98C241C2]  (AR v1)
     Copy OK
Track  7
     Filename W:\Torrents To Upload\СПАМ\Silent Circle\1998 - Stories 'bout Love (Limited Edition)\07. I'm Just A Man In Love.wav
     Pre-gap length  0:00:02.60
     Peak level 99.0 %
     Extraction speed 3.5 X
     Track quality 100.0 %
     Test CRC FC930B42
     Copy CRC FC930B42
     Accurately ripped (confidence 5)  [D0EE8E45]  (AR v1)
     Copy OK
Track  8
     Filename W:\Torrents To Upload\СПАМ\Silent Circle\1998 - Stories 'bout Love (Limited Edition)\08. Be My Lover.wav
     Pre-gap length  0:00:01.45
     Peak level 99.0 %
     Extraction speed 3.7 X
     Track quality 100.0 %
     Test CRC A001394E
     Copy CRC A001394E
     Accurately ripped (confidence 5)  [6105B2A0]  (AR v1)
     Copy OK
Track  9
     Filename W:\Torrents To Upload\СПАМ\Silent Circle\1998 - Stories 'bout Love (Limited Edition)\09. It's Not A Secret.wav
     Pre-gap length  0:00:01.65
     Peak level 99.0 %
     Extraction speed 3.8 X
     Track quality 100.0 %
     Test CRC 89D7E536
     Copy CRC 89D7E536
     Accurately ripped (confidence 5)  [AA8F4759]  (AR v1)
     Copy OK
Track 10
     Filename W:\Torrents To Upload\СПАМ\Silent Circle\1998 - Stories 'bout Love (Limited Edition)\10. I Need A Woman.wav
     Pre-gap length  0:00:02.48
     Peak level 99.0 %
     Extraction speed 3.9 X
     Track quality 100.0 %
     Test CRC 4BFF35DF
     Copy CRC 4BFF35DF
     Accurately ripped (confidence 5)  [8747ACA4]  (AR v1)
     Copy OK
Track 11
     Filename W:\Torrents To Upload\СПАМ\Silent Circle\1998 - Stories 'bout Love (Limited Edition)\11. Save Me.wav
     Pre-gap length  0:00:01.10
     Peak level 98.8 %
     Extraction speed 3.7 X
     Track quality 99.9 %
     Test CRC E3A9E11A
     Copy CRC E3A9E11A
     Accurately ripped (confidence 5)  [4E69DF11]  (AR v1)
     Copy OK
Track 12
     Filename W:\Torrents To Upload\СПАМ\Silent Circle\1998 - Stories 'bout Love (Limited Edition)\12. I've Been Calling Just For You.wav
     Pre-gap length  0:00:02.12
     Peak level 98.7 %
     Extraction speed 4.4 X
     Track quality 100.0 %
     Test CRC 12394A22
     Copy CRC 12394A22
     Accurately ripped (confidence 5)  [5366A4A9]  (AR v1)
     Copy OK
All tracks accurately ripped
No errors occurred
End of status report
Код:
REM GENRE Eurodance
REM DATE 1998
REM DISCID A30BDF0C
REM COMMENT "ExactAudioCopy v1.1"
PERFORMER "Silent Circle"
TITLE "Stories 'bout Love (Limited Edition)"
FILE "01. Like An Ocean.flac" WAVE
  TRACK 01 AUDIO
    TITLE "Like An Ocean"
    PERFORMER "Silent Circle"
    INDEX 01 00:00:00
  TRACK 02 AUDIO
    TITLE "Love Can Last A Lifetime"
    PERFORMER "Silent Circle"
    INDEX 00 03:44:30
FILE "02. Love Can Last A Lifetime.flac" WAVE
    INDEX 01 00:00:00
  TRACK 03 AUDIO
    TITLE "This Magical Moment"
    PERFORMER "Silent Circle"
    INDEX 00 04:23:33
FILE "03. This Magical Moment.flac" WAVE
    INDEX 01 00:00:00
  TRACK 04 AUDIO
    TITLE "Night Train"
    PERFORMER "Silent Circle"
    INDEX 00 03:41:20
FILE "04. Night Train.flac" WAVE
    INDEX 01 00:00:00
  TRACK 05 AUDIO
    TITLE "One More Night (Extended Mix)"
    PERFORMER "Silent Circle"
    INDEX 00 04:47:45
FILE "05. One More Night (Extended Mix).flac" WAVE
    INDEX 01 00:00:00
  TRACK 06 AUDIO
    TITLE "She's Got Me On The Phone"
    PERFORMER "Silent Circle"
    INDEX 00 06:01:68
FILE "06. She's Got Me On The Phone.flac" WAVE
    INDEX 01 00:00:00
  TRACK 07 AUDIO
    TITLE "I'm Just A Man In Love"
    PERFORMER "Silent Circle"
    INDEX 00 05:54:22
FILE "07. I'm Just A Man In Love.flac" WAVE
    INDEX 01 00:00:00
  TRACK 08 AUDIO
    TITLE "Be My Lover"
    PERFORMER "Silent Circle"
    INDEX 00 02:59:28
FILE "08. Be My Lover.flac" WAVE
    INDEX 01 00:00:00
  TRACK 09 AUDIO
    TITLE "It's Not A Secret"
    PERFORMER "Silent Circle"
    INDEX 00 03:17:47
FILE "09. It's Not A Secret.flac" WAVE
    INDEX 01 00:00:00
  TRACK 10 AUDIO
    TITLE "I Need A Woman"
    PERFORMER "Silent Circle"
    INDEX 00 03:25:55
FILE "10. I Need A Woman.flac" WAVE
    INDEX 01 00:00:00
  TRACK 11 AUDIO
    TITLE "Save Me"
    PERFORMER "Silent Circle"
    INDEX 00 03:38:50
FILE "11. Save Me.flac" WAVE
    INDEX 01 00:00:00
  TRACK 12 AUDIO
    TITLE "I've Been Calling Just For You"
    PERFORMER "Silent Circle"
    INDEX 00 03:56:15
FILE "12. I've Been Calling Just For You.flac" WAVE
    INDEX 01 00:00:00
Код:
Exact Audio Copy V1.1 from 23. June 2015
EAC extraction logfile from 2. July 2016, 11:01
Silent Circle / No. 1
Used drive  : SONY    DVD RW AD-7260S   Adapter: 0  ID: 0
Read mode               : Secure
Utilize accurate stream : Yes
Defeat audio cache      : Yes
Make use of C2 pointers : No
Read offset correction                      : 48
Overread into Lead-In and Lead-Out          : No
Fill up missing offset samples with silence : Yes
Delete leading and trailing silent blocks   : No
Null samples used in CRC calculations       : Yes
Used interface                              : Installed external ASPI interface
Gap handling                                : Appended to previous track
Used output format : Internal WAV Routines
Sample format      : 44.100 Hz; 16 Bit; Stereo
TOC of the extracted CD
     Track |   Start  |  Length  | Start sector | End sector
    ---------------------------------------------------------
        1  |  0:00.00 |  5:19.29 |         0    |    23953
        2  |  5:19.29 |  3:05.51 |     23954    |    37879
        3  |  8:25.05 |  4:02.25 |     37880    |    56054
        4  | 12:27.30 |  3:44.12 |     56055    |    72866
        5  | 16:11.42 |  3:38.29 |     72867    |    89245
        6  | 19:49.71 |  3:40.51 |     89246    |   105796
        7  | 23:30.47 |  1:32.61 |    105797    |   112757
        8  | 25:03.33 |  3:59.08 |    112758    |   130690
        9  | 29:02.41 |  3:30.72 |    130691    |   146512
       10  | 32:33.38 |  3:19.56 |    146513    |   161493
       11  | 35:53.19 |  3:22.00 |    161494    |   176643
       12  | 39:15.19 |  3:50.44 |    176644    |   193937
Track  1
     Filename W:\Torrents To Upload\СПАМ\Silent Circle\1999 - No. 1\01. Touch In The Night.wav
     Pre-gap length  0:00:02.00
     Peak level 100.0 %
     Extraction speed 2.2 X
     Track quality 99.9 %
     Test CRC 58EC1A22
     Copy CRC 58EC1A22
     Accurately ripped (confidence 2)  [23D2C1BA]  (AR v2)
     Copy OK
Track  2
     Filename W:\Torrents To Upload\СПАМ\Silent Circle\1999 - No. 1\02. Sib Dab Dua.wav
     Peak level 100.0 %
     Extraction speed 2.5 X
     Track quality 100.0 %
     Test CRC 06EC266E
     Copy CRC 06EC266E
     Accurately ripped (confidence 2)  [30C26668]  (AR v2)
     Copy OK
Track  3
     Filename W:\Torrents To Upload\СПАМ\Silent Circle\1999 - No. 1\03. Dreams.wav
     Peak level 100.0 %
     Extraction speed 2.5 X
     Track quality 99.9 %
     Test CRC 3D8A089C
     Copy CRC 3D8A089C
     Accurately ripped (confidence 2)  [529AC895]  (AR v2)
     Copy OK
Track  4
     Filename W:\Torrents To Upload\СПАМ\Silent Circle\1999 - No. 1\04. Hide Away - Man Is Comin'!.wav
     Peak level 100.0 %
     Extraction speed 3.0 X
     Track quality 100.0 %
     Test CRC EAF3DF34
     Copy CRC EAF3DF34
     Accurately ripped (confidence 2)  [79543CFA]  (AR v2)
     Copy OK
Track  5
     Filename W:\Torrents To Upload\СПАМ\Silent Circle\1999 - No. 1\05. Shy Girl.wav
     Peak level 100.0 %
     Extraction speed 3.1 X
     Track quality 100.0 %
     Test CRC D3DD0689
     Copy CRC D3DD0689
     Accurately ripped (confidence 2)  [DEFACC10]  (AR v2)
     Copy OK
Track  6
     Filename W:\Torrents To Upload\СПАМ\Silent Circle\1999 - No. 1\06. Stop The Rain In The Night.wav
     Peak level 100.0 %
     Extraction speed 3.3 X
     Track quality 100.0 %
     Test CRC 4FC73D16
     Copy CRC 4FC73D16
     Accurately ripped (confidence 2)  [7FCEA10A]  (AR v2)
     Copy OK
Track  7
     Filename W:\Torrents To Upload\СПАМ\Silent Circle\1999 - No. 1\07. For You.wav
     Peak level 86.0 %
     Extraction speed 2.9 X
     Track quality 100.0 %
     Test CRC 102CCE8F
     Copy CRC 102CCE8F
     Accurately ripped (confidence 2)  [6337A501]  (AR v2)
     Copy OK
Track  8
     Filename W:\Torrents To Upload\СПАМ\Silent Circle\1999 - No. 1\08. Give Me Time.wav
     Peak level 100.0 %
     Extraction speed 3.6 X
     Track quality 100.0 %
     Test CRC BFAA4AD4
     Copy CRC BFAA4AD4
     Accurately ripped (confidence 2)  [34E57B11]  (AR v2)
     Copy OK
Track  9
     Filename W:\Torrents To Upload\СПАМ\Silent Circle\1999 - No. 1\09. Moonlight Affair.wav
     Peak level 100.0 %
     Extraction speed 3.7 X
     Track quality 100.0 %
     Test CRC 2C08A372
     Copy CRC 2C08A372
     Accurately ripped (confidence 2)  [55BB057E]  (AR v2)
     Copy OK
Track 10
     Filename W:\Torrents To Upload\СПАМ\Silent Circle\1999 - No. 1\10. Anywhere Tonight.wav
     Peak level 100.0 %
     Extraction speed 3.8 X
     Track quality 100.0 %
     Test CRC 399CC33F
     Copy CRC 399CC33F
     Accurately ripped (confidence 5)  [BCC3F63D]  (AR v1)
     Copy OK
Track 11
     Filename W:\Torrents To Upload\СПАМ\Silent Circle\1999 - No. 1\11. Love Is Just A Word.wav
     Peak level 100.0 %
     Extraction speed 4.0 X
     Track quality 100.0 %
     Test CRC 9F314D1B
     Copy CRC 9F314D1B
     Accurately ripped (confidence 2)  [A85411E8]  (AR v2)
     Copy OK
Track 12
     Filename W:\Torrents To Upload\СПАМ\Silent Circle\1999 - No. 1\12. Touch In The Night '99.wav
     Peak level 100.0 %
     Extraction speed 4.2 X
     Track quality 100.0 %
     Test CRC 74BB25FD
     Copy CRC 74BB25FD
     Accurately ripped (confidence 2)  [E819E105]  (AR v2)
     Copy OK
All tracks accurately ripped
No errors occurred
End of status report
Код:
REM GENRE Eurodance
REM DATE 1999
REM DISCID 9C0A190C
REM COMMENT "ExactAudioCopy v1.1"
PERFORMER "Silent Circle"
TITLE "No. 1"
FILE "01. Touch In The Night.flac" WAVE
  TRACK 01 AUDIO
    TITLE "Touch In The Night"
    PERFORMER "Silent Circle"
    INDEX 01 00:00:00
FILE "02. Sib Dab Dua.flac" WAVE
  TRACK 02 AUDIO
    TITLE "Sib Dab Dua"
    PERFORMER "Silent Circle"
    INDEX 01 00:00:00
FILE "03. Dreams.flac" WAVE
  TRACK 03 AUDIO
    TITLE "Dreams"
    PERFORMER "Silent Circle"
    INDEX 01 00:00:00
FILE "04. Hide Away - Man Is Comin'!.flac" WAVE
  TRACK 04 AUDIO
    TITLE "Hide Away - Man Is Comin'!"
    PERFORMER "Silent Circle"
    INDEX 01 00:00:00
FILE "05. Shy Girl.flac" WAVE
  TRACK 05 AUDIO
    TITLE "Shy Girl"
    PERFORMER "Silent Circle"
    INDEX 01 00:00:00
FILE "06. Stop The Rain In The Night.flac" WAVE
  TRACK 06 AUDIO
    TITLE "Stop The Rain In The Night"
    PERFORMER "Silent Circle"
    INDEX 01 00:00:00
FILE "07. For You.flac" WAVE
  TRACK 07 AUDIO
    TITLE "For You"
    PERFORMER "Silent Circle"
    INDEX 01 00:00:00
FILE "08. Give Me Time.flac" WAVE
  TRACK 08 AUDIO
    TITLE "Give Me Time"
    PERFORMER "Silent Circle"
    INDEX 01 00:00:00
FILE "09. Moonlight Affair.flac" WAVE
  TRACK 09 AUDIO
    TITLE "Moonlight Affair"
    PERFORMER "Silent Circle"
    INDEX 01 00:00:00
FILE "10. Anywhere Tonight.flac" WAVE
  TRACK 10 AUDIO
    TITLE "Anywhere Tonight"
    PERFORMER "Silent Circle"
    INDEX 01 00:00:00
FILE "11. Love Is Just A Word.flac" WAVE
  TRACK 11 AUDIO
    TITLE "Love Is Just A Word"
    PERFORMER "Silent Circle"
    INDEX 01 00:00:00
FILE "12. Touch In The Night '99.flac" WAVE
  TRACK 12 AUDIO
    TITLE "Touch In The Night '99"
    PERFORMER "Silent Circle"
    INDEX 01 00:00:00
Код:
Exact Audio Copy V1.1 from 23. June 2015
EAC extraction logfile from 2. July 2016, 9:42
Silent Circle / Greatest Hits (CD1)
Used drive  : SONY    DVD RW AD-7260S   Adapter: 0  ID: 0
Read mode               : Secure
Utilize accurate stream : Yes
Defeat audio cache      : Yes
Make use of C2 pointers : No
Read offset correction                      : 48
Overread into Lead-In and Lead-Out          : No
Fill up missing offset samples with silence : Yes
Delete leading and trailing silent blocks   : No
Null samples used in CRC calculations       : Yes
Used interface                              : Installed external ASPI interface
Gap handling                                : Appended to previous track
Used output format : Internal WAV Routines
Sample format      : 44.100 Hz; 16 Bit; Stereo
TOC of the extracted CD
     Track |   Start  |  Length  | Start sector | End sector
    ---------------------------------------------------------
        1  |  0:00.00 |  5:35.46 |         0    |    25170
        2  |  5:35.46 |  5:12.07 |     25171    |    48577
        3  | 10:47.53 |  5:47.71 |     48578    |    74673
        4  | 16:35.49 |  6:01.12 |     74674    |   101760
        5  | 22:36.61 |  3:19.72 |    101761    |   116757
        6  | 25:56.58 |  3:38.41 |    116758    |   133148
        7  | 29:35.24 |  4:02.37 |    133149    |   151335
        8  | 33:37.61 |  5:50.12 |    151336    |   177597
        9  | 39:27.73 |  3:56.01 |    177598    |   195298
       10  | 43:23.74 |  4:49.34 |    195299    |   217007
       11  | 48:13.33 |  3:43.18 |    217008    |   233750
       12  | 51:56.51 |  3:40.23 |    233751    |   250273
       13  | 55:36.74 |  6:03.46 |    250274    |   277544
       14  | 61:40.45 |  4:12.07 |    277545    |   296451
       15  | 65:52.52 |  3:50.61 |    296452    |   313762
       16  | 69:43.38 |  6:22.00 |    313763    |   342412
Track  1
     Filename W:\Torrents To Upload\СПАМ\Silent Circle\2008 - Greatest Hits (2CD)\CD1\01. Touch In The Night (Crash Version).wav
     Pre-gap length  0:00:02.00
     Peak level 100.0 %
     Extraction speed 2.5 X
     Track quality 99.9 %
     Test CRC D6BE2FF6
     Copy CRC D6BE2FF6
     Accurately ripped (confidence 2)  [2ABBB5E2]  (AR v1)
     Copy OK
Track  2
     Filename W:\Torrents To Upload\СПАМ\Silent Circle\2008 - Greatest Hits (2CD)\CD1\02. Hide Away - Man Is Comin'! (Special Mix).wav
     Pre-gap length  0:00:02.00
     Peak level 100.0 %
     Extraction speed 2.7 X
     Track quality 99.9 %
     Test CRC 719828BC
     Copy CRC 719828BC
     Accurately ripped (confidence 2)  [86B587D5]  (AR v1)
     Copy OK
Track  3
     Filename W:\Torrents To Upload\СПАМ\Silent Circle\2008 - Greatest Hits (2CD)\CD1\03. I Am Your Believer ( Club Mix).wav
     Pre-gap length  0:00:02.00
     Peak level 100.0 %
     Extraction speed 3.0 X
     Track quality 99.9 %
     Test CRC 47F7FAB2
     Copy CRC 47F7FAB2
     Accurately ripped (confidence 2)  [3455DB78]  (AR v1)
     Copy OK
Track  4
     Filename W:\Torrents To Upload\СПАМ\Silent Circle\2008 - Greatest Hits (2CD)\CD1\04. Danger Danger (Raicing Mix).wav
     Pre-gap length  0:00:02.00
     Peak level 100.0 %
     Extraction speed 3.6 X
     Track quality 100.0 %
     Test CRC B9B7986A
     Copy CRC B9B7986A
     Accurately ripped (confidence 2)  [BD160179]  (AR v1)
     Copy OK
Track  5
     Filename W:\Torrents To Upload\СПАМ\Silent Circle\2008 - Greatest Hits (2CD)\CD1\05. Anywhere Tonight.wav
     Pre-gap length  0:00:02.00
     Peak level 68.0 %
     Extraction speed 3.5 X
     Track quality 100.0 %
     Test CRC CD987A47
     Copy CRC CD987A47
     Accurately ripped (confidence 2)  [ECE59C32]  (AR v1)
     Copy OK
Track  6
     Filename W:\Torrents To Upload\СПАМ\Silent Circle\2008 - Greatest Hits (2CD)\CD1\06. Shy Girl.wav
     Pre-gap length  0:00:02.00
     Peak level 78.1 %
     Extraction speed 3.8 X
     Track quality 100.0 %
     Test CRC 8E397928
     Copy CRC 8E397928
     Accurately ripped (confidence 2)  [5803AA68]  (AR v1)
     Copy OK
Track  7
     Filename W:\Torrents To Upload\СПАМ\Silent Circle\2008 - Greatest Hits (2CD)\CD1\07. Dreams.wav
     Pre-gap length  0:00:02.00
     Peak level 68.4 %
     Extraction speed 4.0 X
     Track quality 100.0 %
     Test CRC 5E50F983
     Copy CRC 5E50F983
     Accurately ripped (confidence 2)  [415670F9]  (AR v1)
     Copy OK
Track  8
     Filename W:\Torrents To Upload\СПАМ\Silent Circle\2008 - Greatest Hits (2CD)\CD1\08. 2 Night (Album Version).wav
     Pre-gap length  0:00:02.00
     Peak level 88.4 %
     Extraction speed 4.3 X
     Track quality 100.0 %
     Test CRC FD985E1E
     Copy CRC FD985E1E
     Accurately ripped (confidence 2)  [26A1F00B]  (AR v1)
     Copy OK
Track  9
     Filename W:\Torrents To Upload\СПАМ\Silent Circle\2008 - Greatest Hits (2CD)\CD1\09. Take A Chance.wav
     Pre-gap length  0:00:02.00
     Peak level 92.4 %
     Extraction speed 3.8 X
     Track quality 99.9 %
     Test CRC 12951B1A
     Copy CRC 12951B1A
     Accurately ripped (confidence 2)  [3302A2B4]  (AR v1)
     Copy OK
Track 10
     Filename W:\Torrents To Upload\СПАМ\Silent Circle\2008 - Greatest Hits (2CD)\CD1\10. Every Move, Every Touch.wav
     Pre-gap length  0:00:02.00
     Peak level 84.2 %
     Extraction speed 4.5 X
     Track quality 100.0 %
     Test CRC DF15F2F7
     Copy CRC DF15F2F7
     Accurately ripped (confidence 2)  [E62A9FB4]  (AR v1)
     Copy OK
Track 11
     Filename W:\Torrents To Upload\СПАМ\Silent Circle\2008 - Greatest Hits (2CD)\CD1\11. Night Train.wav
     Pre-gap length  0:00:02.00
     Peak level 98.8 %
     Extraction speed 4.6 X
     Track quality 100.0 %
     Test CRC 5398AF78
     Copy CRC 5398AF78
     Accurately ripped (confidence 2)  [026D8741]  (AR v1)
     Copy OK
Track 12
     Filename W:\Torrents To Upload\СПАМ\Silent Circle\2008 - Greatest Hits (2CD)\CD1\12. I Need A Woman.wav
     Pre-gap length  0:00:02.00
     Peak level 100.0 %
     Extraction speed 4.6 X
     Track quality 100.0 %
     Test CRC AE9101B1
     Copy CRC AE9101B1
     Accurately ripped (confidence 2)  [67C791B3]  (AR v1)
     Copy OK
Track 13
     Filename W:\Torrents To Upload\СПАМ\Silent Circle\2008 - Greatest Hits (2CD)\CD1\13. One More Night (Extended Version).wav
     Pre-gap length  0:00:02.00
     Peak level 85.3 %
     Extraction speed 5.2 X
     Track quality 100.0 %
     Test CRC B773D9A2
     Copy CRC B773D9A2
     Accurately ripped (confidence 2)  [EFBF77FF]  (AR v1)
     Copy OK
Track 14
     Filename W:\Torrents To Upload\СПАМ\Silent Circle\2008 - Greatest Hits (2CD)\CD1\14. Night After Night.wav
     Pre-gap length  0:00:02.00
     Peak level 92.1 %
     Extraction speed 5.1 X
     Track quality 100.0 %
     Test CRC ACA01369
     Copy CRC ACA01369
     Accurately ripped (confidence 2)  [C0F24E5F]  (AR v1)
     Copy OK
Track 15
     Filename W:\Torrents To Upload\СПАМ\Silent Circle\2008 - Greatest Hits (2CD)\CD1\15. Moonlight Affair (Remix 2001).wav
     Pre-gap length  0:00:02.00
     Peak level 97.2 %
     Extraction speed 5.2 X
     Track quality 100.0 %
     Test CRC F836C7AB
     Copy CRC F836C7AB
     Accurately ripped (confidence 1)  [543CC340]  (AR v2)
     Copy OK
Track 16
     Filename W:\Torrents To Upload\СПАМ\Silent Circle\2008 - Greatest Hits (2CD)\CD1\16. Dj Special Mix Vol.1.wav
     Pre-gap length  0:00:02.00
     Peak level 100.0 %
     Extraction speed 5.6 X
     Track quality 100.0 %
     Test CRC A785A041
     Copy CRC A785A041
     Accurately ripped (confidence 1)  [F7C46907]  (AR v2)
     Copy OK
All tracks accurately ripped
No errors occurred
End of status report
Код:
REM GENRE Eurodance
REM DATE 2008
REM DISCID 0C11D510
REM COMMENT "ExactAudioCopy v1.1"
PERFORMER "Silent Circle"
TITLE "Greatest Hits (CD1)"
FILE "01. Touch In The Night (Crash Version).flac" WAVE
  TRACK 01 AUDIO
    TITLE "Touch In The Night (Crash Version)"
    PERFORMER "Silent Circle"
    FLAGS DCP
    INDEX 01 00:00:00
  TRACK 02 AUDIO
    TITLE "Hide Away - Man Is Comin'! (Special Mix)"
    PERFORMER "Silent Circle"
    FLAGS DCP
    INDEX 00 05:33:46
FILE "02. Hide Away - Man Is Comin'! (Special Mix).flac" WAVE
    INDEX 01 00:00:00
  TRACK 03 AUDIO
    TITLE "I Am Your Believer ( Club Mix)"
    PERFORMER "Silent Circle"
    FLAGS DCP
    INDEX 00 05:10:07
FILE "03. I Am Your Believer ( Club Mix).flac" WAVE
    INDEX 01 00:00:00
  TRACK 04 AUDIO
    TITLE "Danger Danger (Raicing Mix)"
    PERFORMER "Silent Circle"
    FLAGS DCP
    INDEX 00 05:45:71
FILE "04. Danger Danger (Raicing Mix).flac" WAVE
    INDEX 01 00:00:00
  TRACK 05 AUDIO
    TITLE "Anywhere Tonight"
    PERFORMER "Silent Circle"
    INDEX 00 05:59:12
FILE "05. Anywhere Tonight.flac" WAVE
    INDEX 01 00:00:00
  TRACK 06 AUDIO
    TITLE "Shy Girl"
    PERFORMER "Silent Circle"
    INDEX 00 03:17:72
FILE "06. Shy Girl.flac" WAVE
    INDEX 01 00:00:00
  TRACK 07 AUDIO
    TITLE "Dreams"
    PERFORMER "Silent Circle"
    INDEX 00 03:36:41
FILE "07. Dreams.flac" WAVE
    INDEX 01 00:00:00
  TRACK 08 AUDIO
    TITLE "2 Night (Album Version)"
    PERFORMER "Silent Circle"
    FLAGS DCP
    INDEX 00 04:00:37
FILE "08. 2 Night (Album Version).flac" WAVE
    INDEX 01 00:00:00
  TRACK 09 AUDIO
    TITLE "Take A Chance"
    PERFORMER "Silent Circle"
    FLAGS DCP
    INDEX 00 05:48:12
FILE "09. Take A Chance.flac" WAVE
    INDEX 01 00:00:00
  TRACK 10 AUDIO
    TITLE "Every Move, Every Touch"
    PERFORMER "Silent Circle"
    FLAGS DCP
    INDEX 00 03:54:01
FILE "10. Every Move, Every Touch.flac" WAVE
    INDEX 01 00:00:00
  TRACK 11 AUDIO
    TITLE "Night Train"
    PERFORMER "Silent Circle"
    INDEX 00 04:47:34
FILE "11. Night Train.flac" WAVE
    INDEX 01 00:00:00
  TRACK 12 AUDIO
    TITLE "I Need A Woman"
    PERFORMER "Silent Circle"
    INDEX 00 03:41:18
FILE "12. I Need A Woman.flac" WAVE
    INDEX 01 00:00:00
  TRACK 13 AUDIO
    TITLE "One More Night (Extended Version)"
    PERFORMER "Silent Circle"
    INDEX 00 03:38:23
FILE "13. One More Night (Extended Version).flac" WAVE
    INDEX 01 00:00:00
  TRACK 14 AUDIO
    TITLE "Night After Night"
    PERFORMER "Silent Circle"
    FLAGS DCP
    INDEX 00 06:01:46
FILE "14. Night After Night.flac" WAVE
    INDEX 01 00:00:00
  TRACK 15 AUDIO
    TITLE "Moonlight Affair (Remix 2001)"
    PERFORMER "Silent Circle"
    INDEX 00 04:10:07
FILE "15. Moonlight Affair (Remix 2001).flac" WAVE
    INDEX 01 00:00:00
  TRACK 16 AUDIO
    TITLE "Dj Special Mix Vol.1 "
    PERFORMER "Silent Circle"
    FLAGS DCP
    INDEX 00 03:48:61
FILE "16. Dj Special Mix Vol.1.flac" WAVE
    INDEX 01 00:00:00
Код:
Exact Audio Copy V1.1 from 23. June 2015
EAC extraction logfile from 2. July 2016, 10:29
Silent Circle / Greatest Hits (CD2)
Used drive  : SONY    DVD RW AD-7260S   Adapter: 0  ID: 0
Read mode               : Secure
Utilize accurate stream : Yes
Defeat audio cache      : Yes
Make use of C2 pointers : No
Read offset correction                      : 48
Overread into Lead-In and Lead-Out          : No
Fill up missing offset samples with silence : Yes
Delete leading and trailing silent blocks   : No
Null samples used in CRC calculations       : Yes
Used interface                              : Installed external ASPI interface
Gap handling                                : Appended to previous track
Used output format : Internal WAV Routines
Sample format      : 44.100 Hz; 16 Bit; Stereo
TOC of the extracted CD
     Track |   Start  |  Length  | Start sector | End sector
    ---------------------------------------------------------
        1  |  0:00.00 |  5:42.15 |         0    |    25664
        2  |  5:42.15 |  5:00.63 |     25665    |    48227
        3  | 10:43.03 |  5:22.51 |     48228    |    72428
        4  | 16:05.54 |  5:47.60 |     72429    |    98513
        5  | 21:53.39 |  3:31.07 |     98514    |   114345
        6  | 25:24.46 |  3:59.12 |    114346    |   132282
        7  | 29:23.58 |  3:05.62 |    132283    |   146219
        8  | 32:29.45 |  4:01.16 |    146220    |   164310
        9  | 36:30.61 |  6:02.57 |    164311    |   191517
       10  | 42:33.43 |  3:57.69 |    191518    |   209361
       11  | 46:31.37 |  3:46.20 |    209362    |   226331
       12  | 50:17.57 |  4:25.24 |    226332    |   246230
       13  | 54:43.06 |  3:00.60 |    246231    |   259790
       14  | 57:43.66 |  6:36.64 |    259791    |   289554
       15  | 64:20.55 |  4:14.25 |    289555    |   308629
       16  | 68:35.05 |  3:52.63 |    308630    |   326092
       17  | 72:27.68 |  6:05.39 |    326093    |   353506
Track  1
     Filename W:\Torrents To Upload\СПАМ\Silent Circle\2008 - Greatest Hits (2CD)\CD2\01. Stop The Rain In The Night (Extended Version).wav
     Pre-gap length  0:00:02.00
     Peak level 100.0 %
     Extraction speed 2.7 X
     Track quality 100.0 %
     Test CRC 076C0C4E
     Copy CRC 076C0C4E
     Accurately ripped (confidence 1)  [194EE705]  (AR v2)
     Copy OK
Track  2
     Filename W:\Torrents To Upload\СПАМ\Silent Circle\2008 - Greatest Hits (2CD)\CD2\02. Forger The Stranger (Simple Mix).wav
     Pre-gap length  0:00:02.00
     Peak level 100.0 %
     Extraction speed 3.0 X
     Track quality 100.0 %
     Test CRC 42F94E30
     Copy CRC 42F94E30
     Accurately ripped (confidence 2)  [C1234853]  (AR v1)
     Copy OK
Track  3
     Filename W:\Torrents To Upload\СПАМ\Silent Circle\2008 - Greatest Hits (2CD)\CD2\03. Time For Love (Super  Action Mix).wav
     Pre-gap length  0:00:02.00
     Peak level 100.0 %
     Extraction speed 3.0 X
     Track quality 99.9 %
     Test CRC 1CCE007D
     Copy CRC 1CCE007D
     Accurately ripped (confidence 2)  [F3D40CE8]  (AR v1)
     Copy OK
Track  4
     Filename W:\Torrents To Upload\СПАМ\Silent Circle\2008 - Greatest Hits (2CD)\CD2\04. Love Is Just A World (Reggae Version).wav
     Pre-gap length  0:00:02.00
     Peak level 100.0 %
     Extraction speed 3.6 X
     Track quality 100.0 %
     Test CRC C2CFB7C1
     Copy CRC C2CFB7C1
     Accurately ripped (confidence 2)  [B4010363]  (AR v1)
     Copy OK
Track  5
     Filename W:\Torrents To Upload\СПАМ\Silent Circle\2008 - Greatest Hits (2CD)\CD2\05. Moonlight Affair.wav
     Pre-gap length  0:00:02.00
     Peak level 72.0 %
     Extraction speed 3.5 X
     Track quality 100.0 %
     Test CRC 00A85CBD
     Copy CRC 00A85CBD
     Accurately ripped (confidence 2)  [9F39D1F4]  (AR v1)
     Copy OK
Track  6
     Filename W:\Torrents To Upload\СПАМ\Silent Circle\2008 - Greatest Hits (2CD)\CD2\06. Give Me Time.wav
     Pre-gap length  0:00:02.00
     Peak level 72.8 %
     Extraction speed 3.8 X
     Track quality 100.0 %
     Test CRC EC959607
     Copy CRC EC959607
     Accurately ripped (confidence 2)  [440671A3]  (AR v1)
     Copy OK
Track  7
     Filename W:\Torrents To Upload\СПАМ\Silent Circle\2008 - Greatest Hits (2CD)\CD2\07. Sib Dab Dua.wav
     Pre-gap length  0:00:02.00
     Peak level 68.9 %
     Extraction speed 3.7 X
     Track quality 100.0 %
     Test CRC BFA0A5D5
     Copy CRC BFA0A5D5
     Accurately ripped (confidence 2)  [056B4C6D]  (AR v1)
     Copy OK
Track  8
     Filename W:\Torrents To Upload\СПАМ\Silent Circle\2008 - Greatest Hits (2CD)\CD2\08. Egyptian Eyes.wav
     Pre-gap length  0:00:02.00
     Peak level 80.9 %
     Extraction speed 4.0 X
     Track quality 100.0 %
     Test CRC CBE6BCB4
     Copy CRC CBE6BCB4
     Accurately ripped (confidence 2)  [3C141BB4]  (AR v1)
     Copy OK
Track  9
     Filename W:\Torrents To Upload\СПАМ\Silent Circle\2008 - Greatest Hits (2CD)\CD2\09. Entrance.wav
     Pre-gap length  0:00:02.00
     Peak level 100.0 %
     Extraction speed 4.4 X
     Track quality 100.0 %
     Test CRC 56ABDF3C
     Copy CRC 56ABDF3C
     Accurately ripped (confidence 2)  [1DD2C930]  (AR v1)
     Copy OK
Track 10
     Filename W:\Torrents To Upload\СПАМ\Silent Circle\2008 - Greatest Hits (2CD)\CD2\10. Save Me.wav
     Pre-gap length  0:00:02.00
     Peak level 94.4 %
     Extraction speed 4.4 X
     Track quality 100.0 %
     Test CRC A66A2D54
     Copy CRC A66A2D54
     Accurately ripped (confidence 2)  [2906791B]  (AR v1)
     Copy OK
Track 11
     Filename W:\Torrents To Upload\СПАМ\Silent Circle\2008 - Greatest Hits (2CD)\CD2\11. Like An Ocean.wav
     Pre-gap length  0:00:02.00
     Peak level 73.3 %
     Extraction speed 4.5 X
     Track quality 100.0 %
     Test CRC E0104BDA
     Copy CRC E0104BDA
     Accurately ripped (confidence 2)  [554362C9]  (AR v1)
     Copy OK
Track 12
     Filename W:\Torrents To Upload\СПАМ\Silent Circle\2008 - Greatest Hits (2CD)\CD2\12. Love Can Last A Lifetime.wav
     Pre-gap length  0:00:02.00
     Peak level 93.7 %
     Extraction speed 4.8 X
     Track quality 100.0 %
     Test CRC D7C01DCF
     Copy CRC D7C01DCF
     Accurately ripped (confidence 2)  [5FFE36BC]  (AR v1)
     Copy OK
Track 13
     Filename W:\Torrents To Upload\СПАМ\Silent Circle\2008 - Greatest Hits (2CD)\CD2\13. I'm Just A Man In Love.wav
     Pre-gap length  0:00:02.00
     Peak level 94.4 %
     Extraction speed 4.5 X
     Track quality 100.0 %
     Test CRC BDE05405
     Copy CRC BDE05405
     Accurately ripped (confidence 2)  [4AE9645D]  (AR v1)
     Copy OK
Track 14
     Filename W:\Torrents To Upload\СПАМ\Silent Circle\2008 - Greatest Hits (2CD)\CD2\14. What A Shame.wav
     Pre-gap length  0:00:02.00
     Peak level 100.0 %
     Extraction speed 5.3 X
     Track quality 100.0 %
     Test CRC D3B0754F
     Copy CRC D3B0754F
     Accurately ripped (confidence 2)  [A3D4FEED]  (AR v1)
     Copy OK
Track 15
     Filename W:\Torrents To Upload\СПАМ\Silent Circle\2008 - Greatest Hits (2CD)\CD2\15. Talk Is Cheap.wav
     Pre-gap length  0:00:02.00
     Peak level 90.1 %
     Extraction speed 5.1 X
     Track quality 100.0 %
     Test CRC 8BBFD0EC
     Copy CRC 8BBFD0EC
     Accurately ripped (confidence 2)  [3F2C8168]  (AR v1)
     Copy OK
Track 16
     Filename W:\Torrents To Upload\СПАМ\Silent Circle\2008 - Greatest Hits (2CD)\CD2\16. Touch In The Night (Remix ' 99 ).wav
     Pre-gap length  0:00:02.00
     Peak level 92.1 %
     Extraction speed 5.2 X
     Track quality 100.0 %
     Test CRC D07F2152
     Copy CRC D07F2152
     Accurately ripped (confidence 1)  [83A5FCA8]  (AR v2)
     Copy OK
Track 17
     Filename W:\Torrents To Upload\СПАМ\Silent Circle\2008 - Greatest Hits (2CD)\CD2\17. Dj Special Mix Vol. 2.wav
     Pre-gap length  0:00:02.00
     Peak level 100.0 %
     Extraction speed 5.2 X
     Track quality 99.9 %
     Test CRC 4BEFC8E3
     Copy CRC 4BEFC8E3
     Accurately ripped (confidence 1)  [3F495D5B]  (AR v2)
     Copy OK
All tracks accurately ripped
No errors occurred
End of status report
Код:
REM GENRE Eurodance
REM DATE 2008
REM DISCID 07126911
REM COMMENT "ExactAudioCopy v1.1"
PERFORMER "Silent Circle"
TITLE "Greatest Hits (CD2)"
FILE "01. Stop The Rain In The Night (Extended Version).flac" WAVE
  TRACK 01 AUDIO
    TITLE "Stop The Rain In The Night (Extended Version)"
    PERFORMER "Silent Circle"
    FLAGS DCP
    INDEX 01 00:00:00
  TRACK 02 AUDIO
    TITLE "Forger The Stranger (Simple Mix)"
    PERFORMER "Silent Circle"
    FLAGS DCP
    INDEX 00 05:40:15
FILE "02. Forger The Stranger (Simple Mix).flac" WAVE
    INDEX 01 00:00:00
  TRACK 03 AUDIO
    TITLE "Time For Love (Super  Action Mix)"
    PERFORMER "Silent Circle"
    FLAGS DCP
    INDEX 00 04:58:63
FILE "03. Time For Love (Super  Action Mix).flac" WAVE
    INDEX 01 00:00:00
  TRACK 04 AUDIO
    TITLE "Love Is Just A World (Reggae Version)"
    PERFORMER "Silent Circle"
    FLAGS DCP
    INDEX 00 05:20:51
FILE "04. Love Is Just A World (Reggae Version).flac" WAVE
    INDEX 01 00:00:00
  TRACK 05 AUDIO
    TITLE "Moonlight Affair"
    PERFORMER "Silent Circle"
    INDEX 00 05:45:60
FILE "05. Moonlight Affair.flac" WAVE
    INDEX 01 00:00:00
  TRACK 06 AUDIO
    TITLE "Give Me Time"
    PERFORMER "Silent Circle"
    INDEX 00 03:29:07
FILE "06. Give Me Time.flac" WAVE
    INDEX 01 00:00:00
  TRACK 07 AUDIO
    TITLE "Sib Dab Dua"
    PERFORMER "Silent Circle"
    INDEX 00 03:57:12
FILE "07. Sib Dab Dua.flac" WAVE
    INDEX 01 00:00:00
  TRACK 08 AUDIO
    TITLE "Egyptian Eyes"
    PERFORMER "Silent Circle"
    FLAGS DCP
    INDEX 00 03:03:62
FILE "08. Egyptian Eyes.flac" WAVE
    INDEX 01 00:00:00
  TRACK 09 AUDIO
    TITLE "Entrance"
    PERFORMER "Silent Circle"
    FLAGS DCP
    INDEX 00 03:59:16
FILE "09. Entrance.flac" WAVE
    INDEX 01 00:00:00
  TRACK 10 AUDIO
    TITLE "Save Me"
    PERFORMER "Silent Circle"
    INDEX 00 06:00:57
FILE "10. Save Me.flac" WAVE
    INDEX 01 00:00:00
  TRACK 11 AUDIO
    TITLE "Like An Ocean"
    PERFORMER "Silent Circle"
    INDEX 00 03:55:69
FILE "11. Like An Ocean.flac" WAVE
    INDEX 01 00:00:00
  TRACK 12 AUDIO
    TITLE "Love Can Last A Lifetime"
    PERFORMER "Silent Circle"
    INDEX 00 03:44:20
FILE "12. Love Can Last A Lifetime.flac" WAVE
    INDEX 01 00:00:00
  TRACK 13 AUDIO
    TITLE "I'm Just A Man In Love"
    PERFORMER "Silent Circle"
    INDEX 00 04:23:24
FILE "13. I'm Just A Man In Love.flac" WAVE
    INDEX 01 00:00:00
  TRACK 14 AUDIO
    TITLE "What A Shame"
    PERFORMER "Silent Circle"
    FLAGS DCP
    INDEX 00 02:58:60
FILE "14. What A Shame.flac" WAVE
    INDEX 01 00:00:00
  TRACK 15 AUDIO
    TITLE "Talk Is Cheap"
    PERFORMER "Silent Circle"
    FLAGS DCP
    INDEX 00 06:34:64
FILE "15. Talk Is Cheap.flac" WAVE
    INDEX 01 00:00:00
  TRACK 16 AUDIO
    TITLE "Touch In The Night (Remix ' 99 )"
    PERFORMER "Silent Circle"
    INDEX 00 04:12:25
FILE "16. Touch In The Night (Remix ' 99 ).flac" WAVE
    INDEX 01 00:00:00
  TRACK 17 AUDIO
    TITLE "Dj Special Mix Vol. 2"
    PERFORMER "Silent Circle"
    FLAGS DCP
    INDEX 00 03:50:63
FILE "17. Dj Special Mix Vol. 2.flac" WAVE
    INDEX 01 00:00:00
Код:
Exact Audio Copy V1.1 from 23. June 2015
EAC extraction logfile from 2. July 2016, 12:24
Silent Circle / 25 Years-The Anniversary Album
Used drive  : SONY    DVD RW AD-7260S   Adapter: 0  ID: 0
Read mode               : Secure
Utilize accurate stream : Yes
Defeat audio cache      : Yes
Make use of C2 pointers : No
Read offset correction                      : 48
Overread into Lead-In and Lead-Out          : No
Fill up missing offset samples with silence : Yes
Delete leading and trailing silent blocks   : No
Null samples used in CRC calculations       : Yes
Used interface                              : Installed external ASPI interface
Gap handling                                : Appended to previous track
Used output format : Internal WAV Routines
Sample format      : 44.100 Hz; 16 Bit; Stereo
TOC of the extracted CD
     Track |   Start  |  Length  | Start sector | End sector
    ---------------------------------------------------------
        1  |  0:00.00 |  3:41.30 |         0    |    16604
        2  |  3:41.30 |  3:38.65 |     16605    |    33019
        3  |  7:20.20 |  3:21.70 |     33020    |    48164
        4  | 10:42.15 |  3:29.60 |     48165    |    63899
        5  | 14:12.00 |  3:16.15 |     63900    |    78614
        6  | 17:28.15 |  3:09.55 |     78615    |    92844
        7  | 20:37.70 |  3:29.16 |     92845    |   108535
        8  | 24:07.11 |  3:18.70 |    108536    |   123455
        9  | 27:26.06 |  3:31.64 |    123456    |   139344
       10  | 30:57.70 |  6:35.13 |    139345    |   168982
       11  | 37:33.08 |  3:19.14 |    168983    |   183921
       12  | 40:52.22 |  3:48.59 |    183922    |   201080
       13  | 44:41.06 |  3:53.51 |    201081    |   218606
       14  | 48:34.57 |  4:47.59 |    218607    |   240190
       15  | 53:22.41 |  5:50.18 |    240191    |   266458
       16  | 59:12.59 |  6:21.29 |    266459    |   295062
Track  1
     Filename W:\Torrents To Upload\СПАМ\Silent Circle\2010 - 25 Years-The Anniversary Album\01. Touch In The Night [Single Version].wav
     Pre-gap length  0:00:02.00
     Peak level 100.0 %
     Extraction speed 2.1 X
     Track quality 99.9 %
     Test CRC 7594CEAC
     Copy CRC 7594CEAC
     Accurately ripped (confidence 3)  [BC4C6B19]  (AR v1)
     Copy OK
Track  2
     Filename W:\Torrents To Upload\СПАМ\Silent Circle\2010 - 25 Years-The Anniversary Album\02. Stop The Rain In The Night.wav
     Pre-gap length  0:00:00.74
     Peak level 100.0 %
     Extraction speed 2.6 X
     Track quality 100.0 %
     Test CRC 91AB4BF3
     Copy CRC 91AB4BF3
     Accurately ripped (confidence 3)  [16583279]  (AR v1)
     Copy OK
Track  3
     Filename W:\Torrents To Upload\СПАМ\Silent Circle\2010 - 25 Years-The Anniversary Album\03. Love Is Just A Word.wav
     Pre-gap length  0:00:00.74
     Peak level 100.0 %
     Extraction speed 2.8 X
     Track quality 100.0 %
     Test CRC 75EA3AFA
     Copy CRC 75EA3AFA
     Accurately ripped (confidence 3)  [BEE6C5A6]  (AR v1)
     Copy OK
Track  4
     Filename W:\Torrents To Upload\СПАМ\Silent Circle\2010 - 25 Years-The Anniversary Album\04. Moonlight Affair.wav
     Pre-gap length  0:00:00.74
     Peak level 100.0 %
     Extraction speed 2.6 X
     Track quality 99.9 %
     Test CRC DB5F2258
     Copy CRC DB5F2258
     Accurately ripped (confidence 3)  [29E47AE4]  (AR v1)
     Copy OK
Track  5
     Filename W:\Torrents To Upload\СПАМ\Silent Circle\2010 - 25 Years-The Anniversary Album\05. Danger, Danger.wav
     Pre-gap length  0:00:00.74
     Peak level 100.0 %
     Extraction speed 2.7 X
     Track quality 99.9 %
     Test CRC C58C3082
     Copy CRC C58C3082
     Accurately ripped (confidence 3)  [C3B676AD]  (AR v1)
     Copy OK
Track  6
     Filename W:\Torrents To Upload\СПАМ\Silent Circle\2010 - 25 Years-The Anniversary Album\06. Time For Love.wav
     Pre-gap length  0:00:00.74
     Peak level 100.0 %
     Extraction speed 3.3 X
     Track quality 100.0 %
     Test CRC D6A7BEBF
     Copy CRC D6A7BEBF
     Accurately ripped (confidence 3)  [C1F6DAAD]  (AR v1)
     Copy OK
Track  7
     Filename W:\Torrents To Upload\СПАМ\Silent Circle\2010 - 25 Years-The Anniversary Album\07. Oh, Don't Lose Your Heart Tonight.wav
     Pre-gap length  0:00:00.74
     Peak level 100.0 %
     Extraction speed 3.4 X
     Track quality 100.0 %
     Test CRC 96689C82
     Copy CRC 96689C82
     Accurately ripped (confidence 3)  [01C808F3]  (AR v1)
     Copy OK
Track  8
     Filename W:\Torrents To Upload\СПАМ\Silent Circle\2010 - 25 Years-The Anniversary Album\08. Anywhere Tonight.wav
     Pre-gap length  0:00:00.74
     Peak level 100.0 %
     Extraction speed 3.6 X
     Track quality 100.0 %
     Test CRC 859CEFA8
     Copy CRC 859CEFA8
     Accurately ripped (confidence 3)  [AB3078B0]  (AR v1)
     Copy OK
Track  9
     Filename W:\Torrents To Upload\СПАМ\Silent Circle\2010 - 25 Years-The Anniversary Album\09. I Am Your Believer.wav
     Pre-gap length  0:00:00.74
     Peak level 100.0 %
     Extraction speed 3.7 X
     Track quality 100.0 %
     Test CRC 41755933
     Copy CRC 41755933
     Accurately ripped (confidence 3)  [5A4D0EE8]  (AR v1)
     Copy OK
Track 10
     Filename W:\Torrents To Upload\СПАМ\Silent Circle\2010 - 25 Years-The Anniversary Album\10. What A Shame.wav
     Pre-gap length  0:00:00.74
     Peak level 100.0 %
     Extraction speed 4.3 X
     Track quality 100.0 %
     Test CRC 51380523
     Copy CRC 51380523
     Accurately ripped (confidence 3)  [9350707E]  (AR v1)
     Copy OK
Track 11
     Filename W:\Torrents To Upload\СПАМ\Silent Circle\2010 - 25 Years-The Anniversary Album\11. Forget The Stranger.wav
     Pre-gap length  0:00:00.74
     Peak level 100.0 %
     Extraction speed 3.5 X
     Track quality 99.9 %
     Test CRC D8D9B9F1
     Copy CRC D8D9B9F1
     Accurately ripped (confidence 2)  [97E99058]  (AR v1)
     Copy OK
Track 12
     Filename W:\Torrents To Upload\СПАМ\Silent Circle\2010 - 25 Years-The Anniversary Album\12. Luxury [Previously Unreleased].wav
     Pre-gap length  0:00:00.74
     Peak level 100.0 %
     Extraction speed 4.3 X
     Track quality 100.0 %
     Test CRC D2C21D78
     Copy CRC D2C21D78
     Accurately ripped (confidence 3)  [8DF04D4F]  (AR v1)
     Copy OK
Track 13
     Filename W:\Torrents To Upload\СПАМ\Silent Circle\2010 - 25 Years-The Anniversary Album\13. Don't Ask Me Why [Previously Unreleased].wav
     Pre-gap length  0:00:00.74
     Peak level 100.0 %
     Extraction speed 3.9 X
     Track quality 99.9 %
     Test CRC F263B87F
     Copy CRC F263B87F
     Accurately ripped (confidence 3)  [30FB4B56]  (AR v1)
     Copy OK
Track 14
     Filename W:\Torrents To Upload\СПАМ\Silent Circle\2010 - 25 Years-The Anniversary Album\14. Every Move, Every Touch.wav
     Pre-gap length  0:00:00.74
     Peak level 100.0 %
     Extraction speed 4.7 X
     Track quality 100.0 %
     Test CRC 8E64A380
     Copy CRC 8E64A380
     Accurately ripped (confidence 3)  [1BD81DFB]  (AR v1)
     Copy OK
Track 15
     Filename W:\Torrents To Upload\СПАМ\Silent Circle\2010 - 25 Years-The Anniversary Album\15. Tonight (2Night).wav
     Pre-gap length  0:00:00.74
     Peak level 100.0 %
     Extraction speed 4.6 X
     Track quality 99.9 %
     Test CRC 82AAA3BF
     Copy CRC 82AAA3BF
     Accurately ripped (confidence 3)  [724D6707]  (AR v1)
     Copy OK
Track 16
     Filename W:\Torrents To Upload\СПАМ\Silent Circle\2010 - 25 Years-The Anniversary Album\16. DJ Special Mix.wav
     Pre-gap length  0:00:00.74
     Peak level 100.0 %
     Extraction speed 5.3 X
     Track quality 100.0 %
     Test CRC 0E2B771C
     Copy CRC 0E2B771C
     Accurately ripped (confidence 2)  [4D24E135]  (AR v1)
     Copy OK
All tracks accurately ripped
No errors occurred
End of status report
Код:
REM GENRE Eurodance
REM DATE 2010
REM DISCID DF0F5E10
REM COMMENT "ExactAudioCopy v1.1"
PERFORMER "Silent Circle"
TITLE "25 Years-The Anniversary Album"
FILE "01. Touch In The Night [Single Version].flac" WAVE
  TRACK 01 AUDIO
    TITLE "Touch In The Night [Single Version]"
    PERFORMER "Silent Circle"
    INDEX 01 00:00:00
  TRACK 02 AUDIO
    TITLE "Stop The Rain In The Night"
    PERFORMER "Silent Circle"
    INDEX 00 03:40:31
FILE "02. Stop The Rain In The Night.flac" WAVE
    INDEX 01 00:00:00
  TRACK 03 AUDIO
    TITLE "Love Is Just A Word"
    PERFORMER "Silent Circle"
    INDEX 00 03:37:66
FILE "03. Love Is Just A Word.flac" WAVE
    INDEX 01 00:00:00
  TRACK 04 AUDIO
    TITLE "Moonlight Affair"
    PERFORMER "Silent Circle"
    INDEX 00 03:20:71
FILE "04. Moonlight Affair.flac" WAVE
    INDEX 01 00:00:00
  TRACK 05 AUDIO
    TITLE "Danger, Danger"
    PERFORMER "Silent Circle"
    INDEX 00 03:28:61
FILE "05. Danger, Danger.flac" WAVE
    INDEX 01 00:00:00
  TRACK 06 AUDIO
    TITLE "Time For Love"
    PERFORMER "Silent Circle"
    INDEX 00 03:15:16
FILE "06. Time For Love.flac" WAVE
    INDEX 01 00:00:00
  TRACK 07 AUDIO
    TITLE "Oh, Don't Lose Your Heart Tonight"
    PERFORMER "Silent Circle"
    INDEX 00 03:08:56
FILE "07. Oh, Don't Lose Your Heart Tonight.flac" WAVE
    INDEX 01 00:00:00
  TRACK 08 AUDIO
    TITLE "Anywhere Tonight"
    PERFORMER "Silent Circle"
    INDEX 00 03:28:17
FILE "08. Anywhere Tonight.flac" WAVE
    INDEX 01 00:00:00
  TRACK 09 AUDIO
    TITLE "I Am Your Believer"
    PERFORMER "Silent Circle"
    INDEX 00 03:17:71
FILE "09. I Am Your Believer.flac" WAVE
    INDEX 01 00:00:00
  TRACK 10 AUDIO
    TITLE "What A Shame"
    PERFORMER "Silent Circle"
    INDEX 00 03:30:65
FILE "10. What A Shame.flac" WAVE
    INDEX 01 00:00:00
  TRACK 11 AUDIO
    TITLE "Forget The Stranger"
    PERFORMER "Silent Circle"
    INDEX 00 06:34:14
FILE "11. Forget The Stranger.flac" WAVE
    INDEX 01 00:00:00
  TRACK 12 AUDIO
    TITLE "Luxury [Previously Unreleased]"
    PERFORMER "Silent Circle"
    INDEX 00 03:18:15
FILE "12. Luxury [Previously Unreleased].flac" WAVE
    INDEX 01 00:00:00
  TRACK 13 AUDIO
    TITLE "Don't Ask Me Why [Previously Unreleased]"
    PERFORMER "Silent Circle"
    INDEX 00 03:47:60
FILE "13. Don't Ask Me Why [Previously Unreleased].flac" WAVE
    INDEX 01 00:00:00
  TRACK 14 AUDIO
    TITLE "Every Move, Every Touch"
    PERFORMER "Silent Circle"
    INDEX 00 03:52:52
FILE "14. Every Move, Every Touch.flac" WAVE
    INDEX 01 00:00:00
  TRACK 15 AUDIO
    TITLE "Tonight (2Night)"
    PERFORMER "Silent Circle"
    INDEX 00 04:46:60
FILE "15. Tonight (2Night).flac" WAVE
    INDEX 01 00:00:00
  TRACK 16 AUDIO
    TITLE "DJ Special Mix"
    PERFORMER "Silent Circle"
    INDEX 00 05:49:19
FILE "16. DJ Special Mix.flac" WAVE
    INDEX 01 00:00:00
Код:
AUDIOCHECKER v2.0 beta (build 457) - by Dester - [email protected]
~~~~~~~~~~~~~~~~~~~~~~~~~~~~~~~~~~
Started at: Saturday, 02. 07. 2016. - 16:48.28
11 files found
01 -===- W:\Torrents To Upload\СПАМ\Silent Circle\2014 - The Original Maxi-Singles Collection\01. Hide Away - Man Is Comin! (Special Mix).flac
  Extracted successfully
  Conclusion: this track is CDDA with probability 99%
  Tempfile successfully deleted.
02 -===- W:\Torrents To Upload\СПАМ\Silent Circle\2014 - The Original Maxi-Singles Collection\02. Touch In The Night (Crash Version).flac
  Extracted successfully
  Conclusion: this track is CDDA with probability 99%
  Tempfile successfully deleted.
03 -===- W:\Torrents To Upload\СПАМ\Silent Circle\2014 - The Original Maxi-Singles Collection\03. Stop The Rain (12'' Version).flac
  Extracted successfully
  Conclusion: this track is CDDA with probability 100%
  Tempfile successfully deleted.
04 -===- W:\Torrents To Upload\СПАМ\Silent Circle\2014 - The Original Maxi-Singles Collection\04. Love Is Just A Word (Reggae Version).flac
  Extracted successfully
  Conclusion: this track is CDDA with probability 100%
  Tempfile successfully deleted.
05 -===- W:\Torrents To Upload\СПАМ\Silent Circle\2014 - The Original Maxi-Singles Collection\05. Moonlight Affair (12'' Version).flac
  Extracted successfully
  Conclusion: this track is CDDA with probability 100%
  Tempfile successfully deleted.
06 -===- W:\Torrents To Upload\СПАМ\Silent Circle\2014 - The Original Maxi-Singles Collection\06. Time For Love (Super Action Mix).flac
  Extracted successfully
  Conclusion: this track is CDDA with probability 100%
  Tempfile successfully deleted.
07 -===- W:\Torrents To Upload\СПАМ\Silent Circle\2014 - The Original Maxi-Singles Collection\07. Danger Danger (Racing Mix).flac
  Extracted successfully
  Conclusion: this track is CDDA with probability 100%
  Tempfile successfully deleted.
08 -===- W:\Torrents To Upload\СПАМ\Silent Circle\2014 - The Original Maxi-Singles Collection\08. Oh, Don't Lose Your Heart Tonight (12'' Version).flac
  Extracted successfully
  Conclusion: this track is CDDA with probability 100%
  Tempfile successfully deleted.
09 -===- W:\Torrents To Upload\СПАМ\Silent Circle\2014 - The Original Maxi-Singles Collection\09. I Am Your Believer (Club Mix).flac
  Extracted successfully
  Conclusion: this track is CDDA with probability 100%
  Tempfile successfully deleted.
10 -===- W:\Torrents To Upload\СПАМ\Silent Circle\2014 - The Original Maxi-Singles Collection\10. Forget The Stranger (Simple Mix).flac
  Extracted successfully
  Conclusion: this track is CDDA with probability 100%
  Tempfile successfully deleted.
11 -===- W:\Torrents To Upload\СПАМ\Silent Circle\2014 - The Original Maxi-Singles Collection\11. What A Shame (Masterbeat Mix).flac
  Extracted successfully
  Conclusion: this track is CDDA with probability 100%
  Tempfile successfully deleted.
Finished at: Saturday, 02. 07. 2016. - 16:51.28 (operation time: 0:02.59)
Код:
Exact Audio Copy V1.1 from 23. June 2015
EAC extraction logfile from 2. July 2016, 16:12
Silent Circle / Every Move Every Touch
Used drive  : SONY    DVD RW AD-7260S   Adapter: 0  ID: 0
Read mode               : Secure
Utilize accurate stream : Yes
Defeat audio cache      : Yes
Make use of C2 pointers : No
Read offset correction                      : 48
Overread into Lead-In and Lead-Out          : No
Fill up missing offset samples with silence : Yes
Delete leading and trailing silent blocks   : No
Null samples used in CRC calculations       : Yes
Used interface                              : Installed external ASPI interface
Gap handling                                : Appended to previous track
Used output format : Internal WAV Routines
Sample format      : 44.100 Hz; 16 Bit; Stereo
TOC of the extracted CD
     Track |   Start  |  Length  | Start sector | End sector
    ---------------------------------------------------------
        1  |  0:00.00 |  3:35.40 |         0    |    16164
        2  |  3:35.40 |  6:27.45 |     16165    |    45234
        3  | 10:03.10 |  6:00.40 |     45235    |    72274
        4  | 16:03.50 |  4:32.08 |     72275    |    92682
Track  1
     Filename W:\Torrents To Upload\СПАМ\Silent Circle\Singles\1995 - Every Move, Every Touch\01. Every Move Every Touch (Single Mix).wav
     Pre-gap length  0:00:02.00
     Peak level 98.7 %
     Extraction speed 2.3 X
     Track quality 100.0 %
     Test CRC D1ECD143
     Copy CRC D1ECD143
     Accurately ripped (confidence 1)  [519831FD]  (AR v2)
     Copy OK
Track  2
     Filename W:\Torrents To Upload\СПАМ\Silent Circle\Singles\1995 - Every Move, Every Touch\02. Every Move Every Touch (Club Dance Version).wav
     Pre-gap length  0:00:01.67
     Peak level 99.0 %
     Extraction speed 2.8 X
     Track quality 100.0 %
     Test CRC FDAA596F
     Copy CRC FDAA596F
     Accurately ripped (confidence 1)  [9264EB07]  (AR v2)
     Copy OK
Track  3
     Filename W:\Torrents To Upload\СПАМ\Silent Circle\Singles\1995 - Every Move, Every Touch\03. Entrance.wav
     Pre-gap length  0:00:02.05
     Peak level 99.0 %
     Extraction speed 2.9 X
     Track quality 99.9 %
     Test CRC 2D791ECD
     Copy CRC 2D791ECD
     Accurately ripped (confidence 1)  [91F36769]  (AR v2)
     Copy OK
Track  4
     Filename W:\Torrents To Upload\СПАМ\Silent Circle\Singles\1995 - Every Move, Every Touch\04. Hide In Your Shell.wav
     Pre-gap length  0:00:02.02
     Peak level 97.5 %
     Extraction speed 3.3 X
     Track quality 100.0 %
     Test CRC CF0B2115
     Copy CRC CF0B2115
     Accurately ripped (confidence 1)  [5D710BE4]  (AR v2)
     Copy OK
All tracks accurately ripped
No errors occurred
End of status report
Код:
REM GENRE Eurodance
REM DATE 1994
REM DISCID 2B04D304
REM COMMENT "ExactAudioCopy v1.1"
PERFORMER "Silent Circle"
TITLE "Every Move Every Touch [CDM]"
FILE "01. Every Move Every Touch (Single Mix).flac" WAVE
  TRACK 01 AUDIO
    TITLE "Every Move Every Touch (Single Mix)"
    PERFORMER "Silent Circle"
    INDEX 01 00:00:00
  TRACK 02 AUDIO
    TITLE "Every Move Every Touch (Club Dance Version)"
    PERFORMER "Silent Circle"
    INDEX 00 03:33:48
FILE "02. Every Move Every Touch (Club Dance Version).flac" WAVE
    INDEX 01 00:00:00
  TRACK 03 AUDIO
    TITLE "Entrance"
    PERFORMER "Silent Circle"
    INDEX 00 06:25:40
FILE "03. Entrance.flac" WAVE
    INDEX 01 00:00:00
  TRACK 04 AUDIO
    TITLE "Hide In Your Shell"
    PERFORMER "Silent Circle"
    INDEX 00 05:58:38
FILE "04. Hide In Your Shell.flac" WAVE
    INDEX 01 00:00:00
Код:
Exact Audio Copy V1.1 from 23. June 2015
EAC extraction logfile from 2. July 2016, 15:24
Silent Circle / Every Move, Every Touch [Remix]
Used drive  : SONY    DVD RW AD-7260S   Adapter: 0  ID: 0
Read mode               : Secure
Utilize accurate stream : Yes
Defeat audio cache      : Yes
Make use of C2 pointers : No
Read offset correction                      : 48
Overread into Lead-In and Lead-Out          : No
Fill up missing offset samples with silence : Yes
Delete leading and trailing silent blocks   : No
Null samples used in CRC calculations       : Yes
Used interface                              : Installed external ASPI interface
Gap handling                                : Appended to previous track
Used output format : Internal WAV Routines
Sample format      : 44.100 Hz; 16 Bit; Stereo
TOC of the extracted CD
     Track |   Start  |  Length  | Start sector | End sector
    ---------------------------------------------------------
        1  |  0:00.00 |  3:56.35 |         0    |    17734
        2  |  3:56.35 |  6:12.07 |     17735    |    45641
        3  | 10:08.42 |  6:11.05 |     45642    |    73471
Track  1
     Filename W:\Torrents To Upload\СПАМ\Silent Circle\Singles\1995 - Every Move, Every Touch [Remix]\01. Every Move, Every Touch (Remix Edit).wav
     Pre-gap length  0:00:02.00
     Peak level 98.0 %
     Extraction speed 2.3 X
     Track quality 100.0 %
     Test CRC 6C38E01D
     Copy CRC 6C38E01D
     Track not present in AccurateRip database
     Copy OK
Track  2
     Filename W:\Torrents To Upload\СПАМ\Silent Circle\Singles\1995 - Every Move, Every Touch [Remix]\02. Every Move, Every Touch (Remix Extended).wav
     Pre-gap length  0:00:02.30
     Peak level 98.0 %
     Extraction speed 2.8 X
     Track quality 100.0 %
     Test CRC E269B2FC
     Copy CRC E269B2FC
     Track not present in AccurateRip database
     Copy OK
Track  3
     Filename W:\Torrents To Upload\СПАМ\Silent Circle\Singles\1995 - Every Move, Every Touch [Remix]\03. Every Move, Every Touch (Remix Instrumental).wav
     Pre-gap length  0:00:02.50
     Peak level 98.0 %
     Extraction speed 3.2 X
     Track quality 100.0 %
     Test CRC 56D5F474
     Copy CRC 56D5F474
     Track not present in AccurateRip database
     Copy OK
None of the tracks are present in the AccurateRip database
No errors occurred
End of status report
Код:
REM GENRE Eurodance
REM DATE 1995
REM DISCID 1603D303
REM COMMENT "ExactAudioCopy v1.1"
PERFORMER "Silent Circle"
TITLE "Every Move, Every Touch [Remix] [CDM]"
FILE "01. Every Move, Every Touch (Remix Edit).flac" WAVE
  TRACK 01 AUDIO
    TITLE "Every Move, Every Touch (Remix Edit)"
    PERFORMER "Silent Circle"
    INDEX 01 00:00:00
  TRACK 02 AUDIO
    TITLE "Every Move, Every Touch (Remix Extended)"
    PERFORMER "Silent Circle"
    INDEX 00 03:54:05
FILE "02. Every Move, Every Touch (Remix Extended).flac" WAVE
    INDEX 01 00:00:00
  TRACK 03 AUDIO
    TITLE "Every Move, Every Touch (Remix Instrumental)"
    PERFORMER "Silent Circle"
    INDEX 00 06:09:32
FILE "03. Every Move, Every Touch (Remix Instrumental).flac" WAVE
    INDEX 01 00:00:00
Код:
Exact Audio Copy V1.1 from 23. June 2015
EAC extraction logfile from 2. July 2016, 13:57
Silent Circle / One More Night
Used drive  : SONY    DVD RW AD-7260S   Adapter: 0  ID: 0
Read mode               : Secure
Utilize accurate stream : Yes
Defeat audio cache      : Yes
Make use of C2 pointers : No
Read offset correction                      : 48
Overread into Lead-In and Lead-Out          : No
Fill up missing offset samples with silence : Yes
Delete leading and trailing silent blocks   : No
Null samples used in CRC calculations       : Yes
Used interface                              : Installed external ASPI interface
Gap handling                                : Appended to previous track
Used output format : Internal WAV Routines
Sample format      : 44.100 Hz; 16 Bit; Stereo
TOC of the extracted CD
     Track |   Start  |  Length  | Start sector | End sector
    ---------------------------------------------------------
        1  |  0:00.00 |  3:43.70 |         0    |    16794
        2  |  3:43.70 |  6:04.65 |     16795    |    44159
        3  |  9:48.60 |  3:23.17 |     44160    |    59401
        4  | 13:12.02 |  9:42.33 |     59402    |   103084
Track  1
     Filename W:\Torrents To Upload\СПАМ\Silent Circle\Singles\1998 - One More Night\01. One More Night [Radio Edit].wav
     Pre-gap length  0:00:02.00
     Peak level 99.8 %
     Extraction speed 2.3 X
     Track quality 100.0 %
     Test CRC 9F344CFF
     Copy CRC 9F344CFF
     Accurately ripped (confidence 2)  [7D2B5C1B]  (AR v1)
     Copy OK
Track  2
     Filename W:\Torrents To Upload\СПАМ\Silent Circle\Singles\1998 - One More Night\02. One More Night [Extended Mix].wav
     Pre-gap length  0:00:02.49
     Peak level 99.8 %
     Extraction speed 2.5 X
     Track quality 99.9 %
     Test CRC 2ABC99C2
     Copy CRC 2ABC99C2
     Accurately ripped (confidence 2)  [617F2290]  (AR v1)
     Copy OK
Track  3
     Filename W:\Torrents To Upload\СПАМ\Silent Circle\Singles\1998 - One More Night\03. Be My Lover.wav
     Pre-gap length  0:00:02.25
     Peak level 99.8 %
     Extraction speed 2.8 X
     Track quality 100.0 %
     Test CRC 3EA7DF01
     Copy CRC 3EA7DF01
     Accurately ripped (confidence 2)  [931FF378]  (AR v1)
     Copy OK
Track  4
     Filename W:\Torrents To Upload\СПАМ\Silent Circle\Singles\1998 - One More Night\04. One More Night [Club Mix].wav
     Pre-gap length  0:00:06.22
     Peak level 99.8 %
     Extraction speed 3.5 X
     Track quality 100.0 %
     Test CRC 49399527
     Copy CRC 49399527
     Accurately ripped (confidence 2)  [6AFF9162]  (AR v1)
     Copy OK
All tracks accurately ripped
No errors occurred
End of status report
Код:
REM GENRE Eurodance
REM DATE 1998
REM DISCID 2D055E04
REM COMMENT "ExactAudioCopy v1.1"
PERFORMER "Silent Circle"
TITLE "One More Night [CDM]"
FILE "01. One More Night [Radio Edit].flac" WAVE
  TRACK 01 AUDIO
    TITLE "One More Night [Radio Edit]"
    PERFORMER "Silent Circle"
    INDEX 01 00:00:00
  TRACK 02 AUDIO
    TITLE "One More Night [Extended Mix]"
    PERFORMER "Silent Circle"
    INDEX 00 03:41:21
FILE "02. One More Night [Extended Mix].flac" WAVE
    INDEX 01 00:00:00
  TRACK 03 AUDIO
    TITLE "Be My Lover"
    PERFORMER "Silent Circle"
    INDEX 00 06:02:40
FILE "03. Be My Lover.flac" WAVE
    INDEX 01 00:00:00
  TRACK 04 AUDIO
    TITLE "One More Night [Club Mix]"
    PERFORMER "Silent Circle"
    INDEX 00 03:16:70
FILE "04. One More Night [Club Mix].flac" WAVE
    INDEX 01 00:00:00
Код:
Exact Audio Copy V1.1 from 23. June 2015
EAC extraction logfile from 2. July 2016, 13:06
Silent Circle / Touch In The Night '98
Used drive  : SONY    DVD RW AD-7260S   Adapter: 0  ID: 0
Read mode               : Secure
Utilize accurate stream : Yes
Defeat audio cache      : Yes
Make use of C2 pointers : No
Read offset correction                      : 48
Overread into Lead-In and Lead-Out          : No
Fill up missing offset samples with silence : Yes
Delete leading and trailing silent blocks   : No
Null samples used in CRC calculations       : Yes
Used interface                              : Installed external ASPI interface
Gap handling                                : Appended to previous track
Used output format : Internal WAV Routines
Sample format      : 44.100 Hz; 16 Bit; Stereo
TOC of the extracted CD
     Track |   Start  |  Length  | Start sector | End sector
    ---------------------------------------------------------
        1  |  0:00.00 |  3:53.42 |         0    |    17516
        2  |  3:53.42 |  6:13.68 |     17517    |    45559
        3  | 10:07.35 |  3:16.22 |     45560    |    60281
        4  | 13:23.57 |  5:31.48 |     60282    |    85154
Track  1
     Filename W:\Torrents To Upload\СПАМ\Silent Circle\Singles\1998 - Touch In The Night '98\01. Touch In The Night '98 (Radio Edit).wav
     Pre-gap length  0:00:02.00
     Peak level 99.8 %
     Extraction speed 2.3 X
     Track quality 100.0 %
     Test CRC D11794A7
     Copy CRC D11794A7
     Accurately ripped (confidence 5)  [5E90CFF0]  (AR v2)
     Copy OK
Track  2
     Filename W:\Torrents To Upload\СПАМ\Silent Circle\Singles\1998 - Touch In The Night '98\02. Touch In The Night '98 (Megamix).wav
     Pre-gap length  0:00:02.17
     Peak level 99.8 %
     Extraction speed 2.7 X
     Track quality 100.0 %
     Test CRC 96126414
     Copy CRC 96126414
     Accurately ripped (confidence 5)  [14AED795]  (AR v2)
     Copy OK
Track  3
     Filename W:\Torrents To Upload\СПАМ\Silent Circle\Singles\1998 - Touch In The Night '98\03. Love Is Just A Word.wav
     Pre-gap length  0:00:02.55
     Peak level 99.8 %
     Extraction speed 2.8 X
     Track quality 100.0 %
     Test CRC 9F772C94
     Copy CRC 9F772C94
     Accurately ripped (confidence 5)  [AFEB2120]  (AR v2)
     Copy OK
Track  4
     Filename W:\Torrents To Upload\СПАМ\Silent Circle\Singles\1998 - Touch In The Night '98\04. Touch In The Night '98 (Original).wav
     Pre-gap length  0:00:01.35
     Peak level 99.8 %
     Extraction speed 3.2 X
     Track quality 100.0 %
     Test CRC E68CAA5B
     Copy CRC E68CAA5B
     Accurately ripped (confidence 5)  [C0767066]  (AR v2)
     Copy OK
All tracks accurately ripped
No errors occurred
End of status report
Код:
REM GENRE Eurodance
REM DATE 1998
REM DISCID 28046F04
REM COMMENT "ExactAudioCopy v1.1"
PERFORMER "Silent Circle"
TITLE "Touch In The Night '98 [CDM]"
FILE "01. Touch In The Night '98 (Radio Edit).flac" WAVE
  TRACK 01 AUDIO
    TITLE "Touch In The Night '98 (Radio Edit)"
    PERFORMER "Silent Circle"
    INDEX 01 00:00:00
  TRACK 02 AUDIO
    TITLE "Touch In The Night '98 (Megamix)"
    PERFORMER "Silent Circle"
    INDEX 00 03:51:25
FILE "02. Touch In The Night '98 (Megamix).flac" WAVE
    INDEX 01 00:00:00
  TRACK 03 AUDIO
    TITLE "Love Is Just A Word"
    PERFORMER "Silent Circle"
    INDEX 00 06:11:13
FILE "03. Love Is Just A Word.flac" WAVE
    INDEX 01 00:00:00
  TRACK 04 AUDIO
    TITLE "Touch In The Night '98 (Original)"
    PERFORMER "Silent Circle"
    INDEX 00 03:14:62
FILE "04. Touch In The Night '98 (Original).flac" WAVE
    INDEX 01 00:00:00
Код:
Exact Audio Copy V1.1 from 23. June 2015
EAC extraction logfile from 2. July 2016, 13:32
Silent Circle / Night Train
Used drive  : SONY    DVD RW AD-7260S   Adapter: 0  ID: 0
Read mode               : Secure
Utilize accurate stream : Yes
Defeat audio cache      : Yes
Make use of C2 pointers : No
Read offset correction                      : 48
Overread into Lead-In and Lead-Out          : No
Fill up missing offset samples with silence : Yes
Delete leading and trailing silent blocks   : No
Null samples used in CRC calculations       : Yes
Used interface                              : Installed external ASPI interface
Gap handling                                : Appended to previous track
Used output format : Internal WAV Routines
Sample format      : 44.100 Hz; 16 Bit; Stereo
TOC of the extracted CD
     Track |   Start  |  Length  | Start sector | End sector
    ---------------------------------------------------------
        1  |  0:00.00 |  3:51.22 |         0    |    17346
        2  |  3:51.22 |  6:21.30 |     17347    |    45951
        3  | 10:12.52 |  4:01.38 |     45952    |    64064
        4  | 14:14.15 |  5:05.25 |     64065    |    86964
        5  | 19:19.40 |  5:39.20 |     86965    |   112409
        6  | 24:58.60 |  6:21.25 |    112410    |   141009
        7  | 31:20.10 |  3:52.17 |    141010    |   158426
Track  1
     Filename W:\Torrents To Upload\СПАМ\Silent Circle\Singles\1999 - Night Train\01. Night Train (Radio Edit).wav
     Pre-gap length  0:00:02.00
     Peak level 99.8 %
     Extraction speed 2.3 X
     Track quality 100.0 %
     Test CRC 444F3D72
     Copy CRC 444F3D72
     Accurately ripped (confidence 1)  [90179BA6]  (AR v1)
     Copy OK
Track  2
     Filename W:\Torrents To Upload\СПАМ\Silent Circle\Singles\1999 - Night Train\02. Night Train (Rave Style Club Vocal Mix).wav
     Pre-gap length  0:00:01.45
     Peak level 99.8 %
     Extraction speed 2.7 X
     Track quality 100.0 %
     Test CRC CF544DF4
     Copy CRC CF544DF4
     Accurately ripped (confidence 1)  [234AC960]  (AR v1)
     Copy OK
Track  3
     Filename W:\Torrents To Upload\СПАМ\Silent Circle\Singles\1999 - Night Train\03. Night Train (House Radio Edit).wav
     Pre-gap length  0:00:01.00
     Peak level 99.8 %
     Extraction speed 2.9 X
     Track quality 100.0 %
     Test CRC E4EE0310
     Copy CRC E4EE0310
     Accurately ripped (confidence 1)  [56051932]  (AR v1)
     Copy OK
Track  4
     Filename W:\Torrents To Upload\СПАМ\Silent Circle\Singles\1999 - Night Train\04. She's Got Me On The Phone (Extended Club Mix).wav
     Pre-gap length  0:00:01.65
     Peak level 99.8 %
     Extraction speed 3.2 X
     Track quality 100.0 %
     Test CRC 630D0DC2
     Copy CRC 630D0DC2
     Accurately ripped (confidence 1)  [F4B9A1AB]  (AR v1)
     Copy OK
Track  5
     Filename W:\Torrents To Upload\СПАМ\Silent Circle\Singles\1999 - Night Train\05. Night Train (House Extended Club Mix).wav
     Pre-gap length  0:00:01.03
     Peak level 99.8 %
     Extraction speed 3.2 X
     Track quality 99.9 %
     Test CRC 63065D71
     Copy CRC 63065D71
     Accurately ripped (confidence 1)  [7427F887]  (AR v1)
     Copy OK
Track  6
     Filename W:\Torrents To Upload\СПАМ\Silent Circle\Singles\1999 - Night Train\06. Night Train (Rave Style Club Mix).wav
     Pre-gap length  0:00:01.13
     Peak level 99.8 %
     Extraction speed 3.8 X
     Track quality 100.0 %
     Test CRC 4C56D21C
     Copy CRC 4C56D21C
     Accurately ripped (confidence 1)  [0CF6A2CB]  (AR v1)
     Copy OK
Track  7
     Filename W:\Torrents To Upload\СПАМ\Silent Circle\Singles\1999 - Night Train\07. Night Train (Radio Instrumental Mix).wav
     Pre-gap length  0:00:01.13
     Peak level 99.8 %
     Extraction speed 3.8 X
     Track quality 100.0 %
     Test CRC AB68C82A
     Copy CRC AB68C82A
     Accurately ripped (confidence 1)  [6447A697]  (AR v1)
     Copy OK
All tracks accurately ripped
No errors occurred
End of status report
Код:
REM GENRE Euro-House
REM DATE 1999
REM DISCID 4A084007
REM COMMENT "ExactAudioCopy v1.1"
PERFORMER "Silent Circle"
TITLE "Night Train [CDM]"
FILE "01. Night Train (Radio Edit).flac" WAVE
  TRACK 01 AUDIO
    TITLE "Night Train (Radio Edit)"
    PERFORMER "Silent Circle"
    INDEX 01 00:00:00
  TRACK 02 AUDIO
    TITLE "Night Train (Rave Style Club Vocal Mix)"
    PERFORMER "Silent Circle"
    INDEX 00 03:49:52
FILE "02. Night Train (Rave Style Club Vocal Mix).flac" WAVE
    INDEX 01 00:00:00
  TRACK 03 AUDIO
    TITLE "Night Train (House Radio Edit)"
    PERFORMER "Silent Circle"
    INDEX 00 06:20:30
FILE "03. Night Train (House Radio Edit).flac" WAVE
    INDEX 01 00:00:00
  TRACK 04 AUDIO
    TITLE "She's Got Me On The Phone (Extended Club Mix)"
    PERFORMER "Silent Circle"
    INDEX 00 03:59:48
FILE "04. She's Got Me On The Phone (Extended Club Mix).flac" WAVE
    INDEX 01 00:00:00
  TRACK 05 AUDIO
    TITLE "Night Train (House Extended Club Mix)"
    PERFORMER "Silent Circle"
    INDEX 00 05:04:22
FILE "05. Night Train (House Extended Club Mix).flac" WAVE
    INDEX 01 00:00:00
  TRACK 06 AUDIO
    TITLE "Night Train (Rave Style Club Mix)"
    PERFORMER "Silent Circle"
    INDEX 00 05:38:07
FILE "06. Night Train (Rave Style Club Mix).flac" WAVE
    INDEX 01 00:00:00
  TRACK 07 AUDIO
    TITLE "Night Train (Radio Instrumental Mix)"
    PERFORMER "Silent Circle"
    INDEX 00 06:20:12
FILE "07. Night Train (Radio Instrumental Mix).flac" WAVE
    INDEX 01 00:00:00
Код:
Exact Audio Copy V1.1 from 23. June 2015
EAC extraction logfile from 2. July 2016, 12:47
Silent Circle feat. MMX / Moonlight Affair 2001
Used drive  : SONY    DVD RW AD-7260S   Adapter: 0  ID: 0
Read mode               : Secure
Utilize accurate stream : Yes
Defeat audio cache      : Yes
Make use of C2 pointers : No
Read offset correction                      : 48
Overread into Lead-In and Lead-Out          : No
Fill up missing offset samples with silence : Yes
Delete leading and trailing silent blocks   : No
Null samples used in CRC calculations       : Yes
Used interface                              : Installed external ASPI interface
Gap handling                                : Appended to previous track
Used output format : Internal WAV Routines
Sample format      : 44.100 Hz; 16 Bit; Stereo
TOC of the extracted CD
     Track |   Start  |  Length  | Start sector | End sector
    ---------------------------------------------------------
        1  |  0:00.00 |  3:24.12 |         0    |    15311
        2  |  3:24.12 |  6:08.38 |     15312    |    42949
        3  |  9:32.50 |  3:53.12 |     42950    |    60436
        4  | 13:25.62 |  5:29.02 |     60437    |    85113
Track  1
     Filename W:\Torrents To Upload\СПАМ\Silent Circle\Singles\2001 - Moonlight Affair 2001\01. Moonlight Affair 2001 (Italo-Radio-Mix).wav
     Pre-gap length  0:00:02.00
     Peak level 98.8 %
     Extraction speed 1.9 X
     Track quality 99.9 %
     Test CRC CBD6F031
     Copy CRC CBD6F031
     Accurately ripped (confidence 1)  [B286DAFF]  (AR v1)
     Copy OK
Track  2
     Filename W:\Torrents To Upload\СПАМ\Silent Circle\Singles\2001 - Moonlight Affair 2001\02. Moonlight Affair 2001 (Italo-Long-Mix).wav
     Pre-gap length  0:00:02.00
     Peak level 98.8 %
     Extraction speed 2.5 X
     Track quality 99.9 %
     Test CRC DC834474
     Copy CRC DC834474
     Accurately ripped (confidence 1)  [2353E55E]  (AR v1)
     Copy OK
Track  3
     Filename W:\Torrents To Upload\СПАМ\Silent Circle\Singles\2001 - Moonlight Affair 2001\03. Moonlight Affair 2001 (Maryland-Mix).wav
     Pre-gap length  0:00:02.00
     Peak level 100.0 %
     Extraction speed 2.9 X
     Track quality 100.0 %
     Test CRC F9CA8E7D
     Copy CRC F9CA8E7D
     Accurately ripped (confidence 1)  [7DC5CE5E]  (AR v1)
     Copy OK
Track  4
     Filename W:\Torrents To Upload\СПАМ\Silent Circle\Singles\2001 - Moonlight Affair 2001\04. Silent Groove.wav
     Pre-gap length  0:00:02.00
     Peak level 100.0 %
     Extraction speed 2.9 X
     Track quality 99.9 %
     Test CRC 9FADD873
     Copy CRC 9FADD873
     Accurately ripped (confidence 1)  [E6EF1B4F]  (AR v1)
     Copy OK
All tracks accurately ripped
No errors occurred
End of status report
Код:
REM GENRE Eurodance
REM DATE 2001
REM DISCID 29046E04
REM COMMENT "ExactAudioCopy v1.1"
PERFORMER "Silent Circle feat. MMX"
TITLE "Moonlight Affair 2001 [CDM]"
FILE "01. Moonlight Affair 2001 (Italo-Radio-Mix).flac" WAVE
  TRACK 01 AUDIO
    TITLE "Moonlight Affair 2001 (Italo-Radio-Mix)"
    PERFORMER "Silent Circle feat. MMX"
    INDEX 01 00:00:00
  TRACK 02 AUDIO
    TITLE "Moonlight Affair 2001 (Italo-Long-Mix)"
    PERFORMER "Silent Circle feat. MMX"
    INDEX 00 03:22:12
FILE "02. Moonlight Affair 2001 (Italo-Long-Mix).flac" WAVE
    INDEX 01 00:00:00
  TRACK 03 AUDIO
    TITLE "Moonlight Affair 2001 (Maryland-Mix)"
    PERFORMER "Silent Circle feat. MMX"
    INDEX 00 06:06:38
FILE "03. Moonlight Affair 2001 (Maryland-Mix).flac" WAVE
    INDEX 01 00:00:00
  TRACK 04 AUDIO
    TITLE "Silent Groove"
    PERFORMER "Silent Circle feat. MMX"
    INDEX 00 03:51:12
FILE "04. Silent Groove.flac" WAVE
    INDEX 01 00:00:00
--
Download / Скачать

Хотите скачать бесплатно? Зарегистрируйтесь на сайте (ссылка на регистрацию). Pirat.ca - самый быстрый торрент трекер в рунете!

Как скачивать  ·   Что такое торрент  ·   Рейтинг и ограничения

Показать сообщения:    
Ответить на тему

Текущее время: Сегодня 10:25

Часовой пояс: GMT + 4



Вы не можете начинать темы
Вы не можете отвечать на сообщения
Вы не можете редактировать свои сообщения
Вы не можете удалять свои сообщения
Вы не можете голосовать в опросах
Вы не можете прикреплять файлы к сообщениям
Вы не можете скачивать файлы

Майнать ▼