Дьявол во плоти / Diavolo in corpo (Марко Беллоккьо / Marco Bellocchio) [1986 г., Драма, мелодрама, арт-хаус, 18+, DVDRip-AVC] DVO

Ответить на тему
 
Автор
Сообщение

Пост 16-Янв-2017 12:31

[Q] 

somik

-Дьявол во плоти / Diavolo in corpo-- Производство: Италия, Франция, L.P. Film S.r.l., Ital-Noleggio Cinematografico, Istituto Luce, Film Sextile
Год выпуска: 1986 г.
Жанр: Драма, мелодрама, арт-хаус, 18+
Продолжительность: 01:54:50
Мировая премьера: 22 апреля 1986
Перевод: Профессиональный (двухголосый, закадровый) [НТВ+]
Режиссер: Марко Беллоккьо / Marco Bellocchio-В ролях: Марушка Детмерс, Федерико Питцалис, Анита Лауренци, Альберто Ди Стасио, Рикардо де Торребруна, Катрин Дайамант, Анна Орсо, Лидия Брокколино, Стефано Аббати, Клаудио Ботоссо-Описание: Молодой студент Андреа влюбляется в красивую женщину Джулию, помолвленную с террористом Джакомо Пулчини из богатой семьи, который находится под следствием. А Джулия, несмотря на протесты матери Джакомо и отца Андреа, отвечает на чувства этого юноши взаимностью.-
Качество видео: DVDRip-AVC
Контейнер: MKV
Видео кодек: MPEG4 AVC
Аудио кодек: AC3
Видео: [email protected] (1,85:1), 25 fps, 1972 Kbps, 0.256 b/px
Аудио: 48 kHz, AC3 Dolby Digital, 2/0 (L,R) ch, 192 kbps
Cубтитры: отсутствуют
Devil In The Flesh
В то время все гадают, была ли знаменитая сцена на лестнице в «9,5 недель» симуляцией или нет, в фильме «Дьявол во плоти» всё по-настоящему, впрочем, вы это сами увидите…
«Дьявол во плоти» в определённом смысле — веха европейского, да и всего прочего кино, — это первый фильм с несимулированными постельными сценами. Неудивительно, что из-за откровенных моментов работа итальянского режиссёра Марко Беллоччио была ограничена к показу в кинотеатрах, а также почти десять минут из неё было вырезано. Но при всёй «скандальности» темы, фильм «Дьявол во плоти» находится в относительном забвении и знаком лишь очень немногим.
Из всемирной энциклопедии можно узнать любопытный факт: в конце 90-х, «Дьявол во плоти» показывали по одному из телевизионных каналов Канады. В результате ошибки в эфир попала не урезанная версия фильма, навлёкшая на руководство злополучного телеканала огромное количество жалоб. Мне, увы, довелось наблюдать более распространенною — укороченную версию, длиной в 1 час 45 минут, но и в этом случае мне были понятны мотивы итальянских прокатчиков. Действительно, показывать такое в кинотеатрах не совсем целесообразно. Из-за обилия очень личных, интимных сцен смотреть «Дьявол во плоти» лучше в одиночестве.
Удивительная тенденция: покажи подобное кино группе зрителей — они тут же обзовут его развратным, порнографическим, или того хуже — издевательством над зрителем. Обратная реакция будет наблюдаться у того, кто смотрел фильм наедине с собой — такой человек всё проглотит. Может быть, тогда дело не в качестве фильма, а в чувствах зрителя, в пресловутом смущении?
На самом деле ничего такого страшного в фильме Беллоччио нет. Нормальный взрослый человек не узнает отсюда ничего нового о нашем любимом виде спорта. Более того, сексуальные сцены в картине (при всём их чудесном многообразии) не выглядят ненужным излишеством, данью глупому эстетству или расшалившимся инстинктам режиссёра. Секс здесь прекрасно, органично переплетается с сюжетом и служит общей идее фильма. Потому называть это произведение порнографией просто кощунственно.
«Дьявол во плоти» — это как раз то самое, очень редкое сочетание формы эротического фильма и глубокого содержания по-настоящему серьёзной, авторской работы. Для этой ленты даже целесообразно придумать целый жанр — эротико-политическая (!) драма. Где-то с 60-х годов прошлого века в Италии зародилось уникальное движение кинематографистов, снимавших политически-ориентированное кино. Марко Беллоччио, ярчайший представитель этого направления, всегда снимал картины с явным уклоном в эту сторону жизни итальянцев.
Итак, в центре фильма — нетипичный любовный треугольник. Молодой парень, Андреа, буквально с первого взгляда влюбляется в девушку, которую видит из окна своей школы. Слежка за таинственной особой приводит его в суд, где он узнаёт, что её зовут Джулия, и что она — невеста Джакомо, раскаявшегося террориста из «Красных бригад», которого вот-вот выпустят на свободу. Это обстоятельство, как впрочем, и другие, как противостояние матери Джакомо и заявления отца Андреа (в прошлом близко знакомого с пассией нашего героя), что Джулия — сумасшедшая, не могут остановить парня, тем более, что на пылкие ухаживания импульсивная Джулия отвечает взаимностью. Но вскоре наступает день освобождения Джакомо, и для Джулии приходит время делать выбор, к которому она не готова.
Намёк, оставленный режиссёром в финале фильма, является не только разрешением проблемы трёх наших героев, но и последним гвоздём в крышку гроба движения итальянских коммунистов. Мало того, что деяния юнцов, стремившихся изменить мир, общество жестоко осудило, один из наших героев, осознавший ошибки и считающий себя посредственностью, наверняка ощутит ещё и предательство той, которую горячо любил. И не разобрать, кто во всём этом виноват: то ли террористы, то ли обаяние юного любовника Джулии, то ли сам Джакомо. Всему своё время: время любить и быть любимым, время страдать и расставаться. Драгоценное время Джакомо вышло — он потратил его на ложные идеалы, бессмысленный террор, на суд и тюрьму.
«Дьявол во плоти» показался мне созвучным с куда более поздними «Мечтателями» Бернардо Бертолуччи: в обоих фильмах уделено пристальное внимание к эротическим сценам, точно так же разумные, взрослые рассуждения противопоставляются незрелому, наивному мировоззрению главных героинь (здесь — Джулии, там — Изабеллы), схож у фильмов даже полный неопределённости финал.
Напоследок, нельзя не отметить по-настоящему выдающуюся игру Марушки Детмерс. Актриса выглядит естественно в самых откровенных сценах и ни на секунду не возникает сомнений в её искренности, будто бы перед нами и не Марушка Детмерс, а настоящая Джулия. Сама актриса в интервью не раз жалела о том, что снималась в этом фильме, ибо роль Джулии так и осталась в её карьере непревзойдённой, обогнав по популярности даже годаровскую «Имя Кармен» с Детмерс в главной роли.
9 из 10
Общее
Уникальный идентификатор : 184780281348126383739406444282464613234 (0x8B0363402E2FF9FC9F1A6A690A56B372)
Полное имя : J:\Дьявол во плоти (1986)\Diavolo in corpo.1986.DVDRip-AVC.[pirat.ca].mkv
Формат : Matroska
Версия формата : Version 2
Размер файла : 1,74 Гбайт
Продолжительность : 1 ч. 54 м.
Общий поток : 2165 Кбит/сек
Дата кодирования : UTC 2017-01-16 07:52:18
Программа кодирования : mkvmerge v5.3.0 ('I could have danced') built on Feb 9 2012 10:38:07
Библиотека кодирования : libebml v1.2.3 + libmatroska v1.3.0
Видео
Идентификатор : 1
Формат : AVC
Формат/Информация : Advanced Video Codec
Профиль формата : [email protected]
Параметр CABAC формата : Да
Параметр ReFrames формата : 8 кадров
Идентификатор кодека : V_MPEG4/ISO/AVC
Продолжительность : 1 ч. 54 м.
Битрейт : 1972 Кбит/сек
Ширина : 704 пикселя
Высота : 456 пикселей
Соотношение сторон : 1,85:1
Соотношение сторон в оригинале : 1,85:1
Режим частоты кадров : Постоянный
Частота кадров : 23,976 (24000/1001) кадра/сек
Цветовое пространство : YUV
Субдискретизация насыщенности : 4:2:0
Битовая глубина : 8 бит
Тип развёртки : Прогрессивная
Бит/(Пиксели*Кадры) : 0.256
Размер потока : 1,55 Гбайт (89%)
Библиотека кодирования : x264 core 146 r2538 121396c
Настройки программы : cabac=1 / ref=8 / deblock=1:-2:-1 / analyse=0x3:0x113 / me=umh / subme=10 / psy=1 / psy_rd=1.00:0.20 / mixed_ref=1 / me_range=32 / chroma_me=1 / trellis=2 / 8x8dct=1 / cqm=0 / deadzone=21,11 / fast_pskip=0 / chroma_qp_offset=-3 / threads=12 / lookahead_threads=1 / sliced_threads=0 / nr=0 / decimate=0 / interlaced=0 / bluray_compat=0 / constrained_intra=0 / bframes=3 / b_pyramid=2 / b_adapt=2 / b_bias=0 / direct=3 / weightb=1 / open_gop=0 / weightp=2 / keyint=250 / keyint_min=23 / scenecut=40 / intra_refresh=0 / rc_lookahead=60 / rc=2pass / mbtree=1 / bitrate=1972 / ratetol=1.0 / qcomp=0.60 / qpmin=0 / qpmax=69 / qpstep=4 / cplxblur=20.0 / qblur=0.5 / vbv_maxrate=50000 / vbv_bufsize=62500 / nal_hrd=none / filler=0 / ip_ratio=1.40 / aq=1:1.00
Default : Да
Forced : Нет
Statistics Tags Issue : mkvmerge v9.3.1 ('Mask Machine') 64bit 2017-01-01 02:07:49 / mkvmerge v5.3.0 ('I could have danced') built on Feb 9 2012 10:38:07 2017-01-16 07:52:18
FromStats_BitRate : 1971372
FromStats_Duration : 01:54:50.008000000
FromStats_FrameCount : 165195
FromStats_StreamSize : 1697846477
Аудио
Идентификатор : 2
Формат : AC-3
Формат/Информация : Audio Coding 3
Расширение режима : CM (complete main)
Параметр Endianness формата : Big
Идентификатор кодека : A_AC3
Продолжительность : 1 ч. 54 м.
Вид битрейта : Постоянный
Битрейт : 192 Кбит/сек
Каналы : 2 канала
Расположение каналов : Front: L R
Частота : 48,0 КГц
Частота кадров : 31,250 кадров/сек (1536 spf)
Метод сжатия : С потерями
Размер потока : 158 Мбайт (9%)
Заголовок : Профессиональный (двухголосый) НТВ+
Язык : Russian
Default : Да
Forced : Нет
Statistics Tags Issue : mkvmerge v9.3.1 ('Mask Machine') 64bit 2017-01-01 02:07:49 / mkvmerge v5.3.0 ('I could have danced') built on Feb 9 2012 10:38:07 2017-01-16 07:52:18
FromStats_BitRate : 192000
FromStats_Duration : 01:54:49.984000000
FromStats_FrameCount : 215312
FromStats_StreamSize : 165359616
Download / Скачать

Хотите скачать бесплатно? Зарегистрируйтесь на сайте (ссылка на регистрацию). Pirat.ca - самый быстрый торрент трекер в рунете!

Как скачивать  ·   Что такое торрент  ·   Рейтинг и ограничения

Показать сообщения:    
Ответить на тему

Текущее время: Сегодня 21:49

Часовой пояс: GMT + 4



Вы не можете начинать темы
Вы не можете отвечать на сообщения
Вы не можете редактировать свои сообщения
Вы не можете удалять свои сообщения
Вы не можете голосовать в опросах
Вы не можете прикреплять файлы к сообщениям
Вы не можете скачивать файлы

Майнать ▼