Шерлок / Sherlock / Сезон: 1 / Серии: 1-3 из 3 (Пол МакГиган / Paul McGuigan) [2010, Великобритания, детектив, драма, BDRip-AVC] AVO (Юрмй Сербин)

Ответить на тему
 
Автор
Сообщение

Пост 17-Янв-2017 03:44

[Q] 

anton966

Шерлок / Sherlock- Год выпуска: 2010
Производство: Великобритания
Жанр: детектив, драма
Продолжительность: 01:28:06+01:28:26+01:29:20
Перевод: Авторский (одноголосый, закадровый) Юрий Сербин
Субтитры: Русские (srt), форсированные
Режиссер: Пол МакГиган / Paul McGuigan
В ролях: Бенедикт Камбербэтч / Benedict Cumberbatch, Мартин Фриман / Martin Freeman, Руперт Грейвз / Rupert Graves, Уна Стаббс / Una Stubbs, Лу Брили / Louise Brealey, Марк Гатисс / Mark Gatiss, Эндрю Скотт / Andrew Scott, Лара Пулвер / Lara Pulver
Описание: События разворачиваются в наши дни. Он прошел Афганистан, остался инвалидом. По возвращению в родные края встречается с загадочным, но своеобразным гениальным человеком. Тот в поиске соседа по квартире. Лондон, 2010 год. Происходят необъяснимые убийства. Скотланд-Ярд без понятия, за что хвататься. Существует лишь один человек, который в силах разрешить проблемы и найти ответы на сложные вопросы.

Качество видео: BDRip-AVC
Контейнер: MKV
Видео кодек: MPEG4-AVC / H.264
Видео: 1152x648 / ~2845 kbps / 23,976 fps / 16:9 / High Profile 4.1
Аудио: 48 kHz, AC3 Dolby Digital, 3/2 (L,C,R,l,r) + LFE ch, ~448 kbps - Сербин
1 серия. "Этюд в розовых тонах":
2010 год. Четыре таинственных самоубийства, следующих друг за другом, ставят в тупик лондонскую полицию. Инспектор Скотланд-Ярда Лестрейд обращается за помощью к детективу-консультанту Шерлоку Холмсу. Вместе со своим компаньоном доктором Уотсоном Холмс осматривает заброшенный дом - последнее место происшествия, где найдена мертвой женщина, одетая в розовое. Перед смертью погибшая хотела написать какое-то слово. Используя свое излюбленное орудие — метод дедукции, Холмс приходит к выводу, что все четыре эпизода - дело рук серийного убийцы…
2 серия. "Слепой банкир":
Университетский приятель Холмса приглашает его расследовать взлом в кабинете президента банка. Воры ничего не взяли, но оставили на стене странные знаки. Холмсу удается вычислить человека, которому адресовано это послание. Им оказывается брокер Ван Кун. Но его обнаруживают застреленным в комнате с закрытыми изнутри окнами и дверями. Вскоре происходит еще одно убийство - журналист с огнестрельным ранением найден у себя дома. В деле фигурируют все те же странные знаки…
3 серия. "Большая игра":
К Шерлоку обращается его брат Майкрофт с просьбой расследовать смерть госслужащего Эндрю Веста, в руках которого оказалась секретные чертежи ракет. Холмс отказывает. Он намерен заняться делом о взрыве в доме напротив Бейкер-стрит, 221Б, которое предложил ему Лестрейд. Подрывник оставил Шерлоку послание – мобильный телефон с фотографией некой комнаты. А вскоре, на подброшенный Холмсу мобильный поступает звонок от неизвестной плачущей женщины, которая сообщает, что у Шерлока есть только 24 часа на решение предложенной ему загадки, иначе подрывник продолжит свое дело...
• Как и в произведениях Артура Конана Дойла, в сериале термин «дедукция» использован неверно. Дедукция — это частный случай умозаключения, переход от общего к частному. Все свои умозаключения Шерлок Холмс делает на индуктивных рассуждениях. Индукция (от латинского “inductio” - наведение) - вид обобщений, связанных с предвосхищением результатов наблюдений и экспериментов на основе данных прошлых лет.
• Квартира Холмса и Ватсона по адресу Бейкер-стрит, 221 Б, снималась на Норт-Гоуэр-стрит, 185 (англ. 185 North Gower Street) в лондонском районе Блумсбери. Для пилотного эпизода некоторые сцены снимались на Бейкер-стрит. Представитель Би-би-си объяснил отказ от съёмок на Бейкер-стрит тем, на этой улице очень плотное автомобильное движение, а также тем, что там очень много предметов и вывесок с надписями «Шерлок Холмс», в частности на доме 221 Б, которые бы пришлось убирать.
• В первой серии «Этюд в розовых тонах» возле одного из трупов была найдена надпись латинскими буквами RACHE, что по-немецки означает «месть». В повести Конан Дойля «Этюд в багровых тонах», где подобная надпись красным обнаружена на стене рядом с трупом, полицейские делают вывод, что речь идёт о женщине по имени Рэйчел (англ. Rachel), тогда как Шерлок Холмс не торопится с этим суждением. В итоге в книге оказывается, что убийца сделал надпись собственной кровью, имея в виду именно немецкое слово «месть». В сериале же эту надпись (причём непонятно большого размера) ногтями на полу делает жертва в последние мгновения жизни, и означает она имя Rachel, хотя полицейские в фильме думали именно о немецком слове.
Все факты https://www.kinopoisk.ru/film/502838/
Формат : Matroska
Версия формата : Version 4 / Version 2
Размер файла : 1,96 Гбайт
Продолжительность : 1 ч. 28 м.
Общий поток : 3176 Кбит/сек
Название фильма : Sherlock.2010.S01.E02.BDRip-AVC.Serbin.Subs -=anton966=-
Дата кодирования : UTC 2017-01-16 04:03:20
Программа кодирования : mkvmerge v8.3.0 ('Over the Horizon') 64bit
Библиотека кодирования : libebml v1.3.1 + libmatroska v1.4.2
Видео
Идентификатор : 1
Формат : AVC
Формат/Информация : Advanced Video Codec
Профиль формата : High@L4.1
Параметр CABAC формата : Да
Параметр ReFrames формата : 11 кадров
Идентификатор кодека : V_MPEG4/ISO/AVC
Продолжительность : 1 ч. 28 м.
Битрейт : 2727 Кбит/сек
Ширина : 1152 пикселя
Высота : 648 пикселей
Соотношение сторон : 16:9
Режим частоты кадров : Постоянный
Частота кадров : 25,000 кадров/сек
Цветовое пространство : YUV
Субдискретизация насыщенности : 4:2:0
Битовая глубина : 8 бит
Тип развёртки : Прогрессивная
Бит/(Пиксели*Кадры) : 0.146
Размер потока : 1,68 Гбайт (86%)
Заголовок : Sherlock.2010.S01.E02.BDRip-AVC
Библиотека кодирования : x264 core 148 r2744kMod b97ae06
Настройки программы : cabac=1 / ref=11 / deblock=1:-3:-3 / analyse=0x3:0x113 / me=umh / subme=11 / psy=1 / fade_compensate=0.00 / psy_rd=1.05:0.20 / mixed_ref=1 / me_range=32 / chroma_me=1 / trellis=2 / 8x8dct=1 / cqm=0 / deadzone=21,11 / fast_pskip=1 / chroma_qp_offset=-3 / threads=8 / lookahead_threads=8 / sliced_threads=0 / nr=0 / decimate=1 / interlaced=0 / bluray_compat=0 / constrained_intra=0 / bframes=13 / b_pyramid=2 / b_adapt=2 / b_bias=0 / direct=1 / weightb=1 / open_gop=0 / weightp=2 / keyint=250 / keyint_min=25 / scenecut=40 / intra_refresh=0 / rc_lookahead=40 / rc=crf / mbtree=0 / crf=20.1000 / qcomp=0.60 / qpmin=0 / qpmax=69 / qpstep=4 / vbv_maxrate=50000 / vbv_bufsize=62500 / crf_max=0.0 / nal_hrd=none / filler=0 / ip_ratio=1.44 / pb_ratio=1.30 / aq=3:1.00
Язык : English
Default : Да
Forced : Нет
Цветовой диапазон : Limited
Основные цвета : BT.709
Характеристики трансфера : BT.709
Коэффициенты матрицы : BT.709
Аудио
Идентификатор : 2
Формат : AC-3
Формат/Информация : Audio Coding 3
Расширение режима : CM (complete main)
Параметр Endianness формата : Big
Идентификатор кодека : A_AC3
Продолжительность : 1 ч. 28 м.
Вид битрейта : Постоянный
Битрейт : 448 Кбит/сек
Каналы : 6 каналов
Расположение каналов : Front: L C R, Side: L R, LFE
Частота : 48,0 КГц
Частота кадров : 31,250 кадров/сек (1536 spf)
Битовая глубина : 16 бит
Метод сжатия : С потерями
Размер потока : 283 Мбайт (14%)
Заголовок : Serbin
Язык : Russian
Default : Да
Forced : Нет
Текст
Идентификатор : 3
Формат : PGS
Режим смешивания : zlib
Идентификатор кодека : S_HDMV/PGS
Идентификатор кодека/Информация : Picture based subtitle format used on BDs/HD-DVDs
Продолжительность : 1 ч. 24 м.
Битрейт : 60 бит/сек
Count of elements : 22
Размер потока : 37,5 Кбайт (0%)
Заголовок : Forced
Язык : Russian
Default : Нет
Forced : Нет
avs [info]: 1152x648p 1:1 @ 25/1 fps (cfr)
x264 [info]: using SAR=1/1
x264 [info]: using cpu capabilities: MMX2 SSE2Fast SSSE3 SSE4.2 AVX XOP FMA4 FMA3 LZCNT BMI1
x264 [info]: profile High, level 4.1
x264 [info]: cabac=1 ref=11 deblock=1:-3:-3 analyse=0x3:0x113 me=umh subme=11 psy=1 fade_compensate=0.00 psy_rd=1.05:0.20 mixed_ref=1 me_range=32 chroma_me=1 trellis=2 8x8dct=1 cqm=0 deadzone=21,11 fast_pskip=1 chroma_qp_offset=-3 threads=8 lookahead_threads=8 sliced_threads=0 nr=0 decimate=1 interlaced=0 bluray_compat=0 constrained_intra=0 bframes=14 b_pyramid=2 b_adapt=2 b_bias=0 direct=1 weightb=1 open_gop=0 weightp=2 keyint=250 keyint_min=25 scenecut=40 intra_refresh=0 rc_lookahead=40 rc=crf mbtree=0 crf=20.2000 qcomp=0.60 qpmin=0 qpmax=69 qpstep=4 vbv_maxrate=50000 vbv_bufsize=62500 crf_max=0.0 nal_hrd=none filler=0 ip_ratio=1.44 pb_ratio=1.30 aq=3:1.00
x264 [info]: frame I:1110 Avg QP:16.23 size: 73410
x264 [info]: frame P:28098 Avg QP:17.92 size: 28788
x264 [info]: frame B:102948 Avg QP:20.13 size: 9642
x264 [info]: consecutive B-frames: 2.7% 2.7% 7.8% 11.6% 15.8% 45.9% 7.9% 1.1% 2.3% 0.9% 0.5% 0.2% 0.3% 0.3% 0.2%
x264 [info]: mb I I16..4: 14.8% 72.8% 12.5%
x264 [info]: mb P I16..4: 2.7% 10.4% 1.0% P16..4: 32.8% 36.7% 9.9% 0.0% 0.0% skip: 6.5%
x264 [info]: mb B I16..4: 0.4% 0.9% 0.1% B16..8: 40.4% 18.0% 2.2% direct: 4.1% skip:34.0% L0:46.8% L1:46.3% BI: 6.9%
x264 [info]: 8x8 transform intra:71.9% inter:61.0%
x264 [info]: coded y,uvDC,uvAC intra: 71.8% 69.2% 41.5% inter: 22.1% 15.6% 0.8%
x264 [info]: i16 v,h,dc,p: 62% 6% 7% 26%
x264 [info]: i8 v,h,dc,ddl,ddr,vr,hd,vl,hu: 11% 7% 14% 9% 12% 13% 12% 11% 12%
x264 [info]: i4 v,h,dc,ddl,ddr,vr,hd,vl,hu: 15% 8% 8% 8% 13% 14% 12% 11% 11%
x264 [info]: i8c dc,h,v,p: 31% 34% 20% 15%
x264 [info]: Weighted P-Frames: Y:4.5% UV:2.9%
x264 [info]: ref P L0: 44.5% 8.4% 17.8% 7.1% 6.0% 4.3% 3.9% 2.2% 2.1% 1.7% 1.8% 0.1% 0.0%
x264 [info]: ref B L0: 67.4% 12.6% 7.1% 3.7% 2.8% 2.3% 1.9% 1.2% 0.7% 0.3%
x264 [info]: ref B L1: 93.4% 6.6%
x264 [info]: kb/s:2849.59
Download / Скачать

Хотите скачать бесплатно? Зарегистрируйтесь на сайте (ссылка на регистрацию). Pirat.ca - самый быстрый торрент трекер в рунете!

Как скачивать  ·   Что такое торрент  ·   Рейтинг и ограничения

Показать сообщения:    
Ответить на тему

Текущее время: Сегодня 16:35

Часовой пояс: GMT + 4



Вы не можете начинать темы
Вы не можете отвечать на сообщения
Вы не можете редактировать свои сообщения
Вы не можете удалять свои сообщения
Вы не можете голосовать в опросах
Вы не можете прикреплять файлы к сообщениям
Вы не можете скачивать файлы

Майнать ▼