Кентерберийские рассказы / I racconti di Canterbury / The Canterbury Tales (Пьер Паоло Пазолини / Pier Paolo Pasolini) [1972 г., драма, комедия, история, BDRip] MVO + Original (Eng)

Ответить на тему
 
Автор
Сообщение

Пост 24-Янв-2017 20:02

[Q] 

somik

-Кентерберийские рассказы / I racconti di Canterbury / The Canterbury Tales-- Производство: Италия, Франция
Год выпуска: 1972 г.
Жанр: драма, комедия, история
Продолжительность: 01:51:23
Мировая премьера: 2 июля 1972
Дата выхода DVD: 19 августа 2009, «Кармен Видео»
Перевод: Профессиональный (многоголосый, закадровый) [R5]
Оригинальный аудиопоток: английский
Режиссер: Пьер Паоло Пазолини / Pier Paolo Pasolini-В ролях: Хью Гриффит, Лаура Бетти, Пьер Паоло Пазолини, Нинетто Даволи, Франко Читти, Джозефин Чаплин, Алан Уэбб, Дж.П. Ван Дайн, Вернон Добчефф, Адриан Стрит, Дерек Дэдмен, Николас Смит, Дэн Томас, Майкл Бальфур, Дженни Ранэйкр, Питер Кэйн, Даниэль Баклер, Джон Фрэнсис Лейн, Сэттимо Кастанья, Атол Коутс, Том Бэйкер, Уиллогби Годдар, Питер Стефенс, Элизабетта Дженовезе, Патрик Даффетт-Описание: Действие картины развивается в средневековой Англии на постоялом дворе. В этом фильме режиссер сыграл роль Чосера, который является одним из слушателей четырех новелл, рассказанных путниками. Все новеллы картины пропитаны духом сладострастья и эротики, простотой нравов и юмором средневековой Англии.-
Качество видео: BDRip
Контейнер: AVI
Видео кодек: XviD
Аудио кодек: AC3
Видео: 688x368 (1.87:1), 23.976 fps, XviD MPEG-4, 1477 kbps avg, 0.24 bit/pixel
Аудио: 48 kHz, AC3 Dolby Digital, 2/0 (L,R) Surround Encoded ch, 192 kbps
Аудио #2: 48 kHz, AC3 Dolby Digital, 1/0 (C) ch, 192 kbps
Cубтитры: русские, английские
Формат субтитров: softsub (SRT)
Доп. информация о субтитрах: внешние
Фильм снят по мотивам романа Джеффри Чосера «Кентерберийские рассказы» (The Canterbury Tales, конец 14-го века).
Это вторая часть средневековой трилогии (или «трилогии жизни») выдающегося итальянского писателя, поэта, кинематографиста и культурного деятеля Пьера Паоло Пазолини. После экранизации «Декамерона» итальянца Джованни Боккаччо он обратился к «Кентерберийским рассказам», во многом перекликающемуся произведению англичанина Джефри Чосера. Сам режиссёр решил предстать на экране в качестве Чосера, который на постоялом дворе является одним из слушателей четырёх новелл, рассказанных путниками. Но всё-таки образ творца здесь более функционален и не несёт той художественной нагрузки, которая была присуща оригинально включённой в повествование роли прославленного живописца Джотто в «Декамероне». И вообще фильм «Кентерберийские рассказы» существенно уступил первой части трилогии. Всё выглядит грубее, натуралистичнее, лишено искренности, чистоты и непосредственности.
Берлинский кинофестиваль, 1972 год
Победитель (1):
Золотой Медведь
I racconti di Canterbury
Любитель спагетти-вестернов Альберто Гримальди совершенно не зря взялся за продюсирование «трилогии жизни» режиссера Пазолини. Удались ведь все три серии. Смотрятся даже по прошествии сорока лет на одном дыхании. Первая часть трилогии «Декамерон» очень точно воссоздала атмосферу эпохи, которую можно почерпнуть из книги. Экранизация известного произведения Джеффри Чосера — продолжила зарисовки о «человеке эпохи Возрождения». Пазолини предложил лишь качественно новый, холодный интерьер и британскую, специфическую в своей чопорности эстетику, которая почти противоречит итальянскому безудержному веселью. Но были найдены и точки соприкосновения.
Точно также, как и в «Декамероне», создатели ленты поставили на насыщенную мозаику микросцен, по принципу мозаики заполняющих пространство фильма. Как и в «Декамероне» сюжет отходит на второй план, уступая место забавным ситуациям, гэгам и фиксации момента. Как и в «Декамероне», тут существенное место отводится эротизму.
Забавно читать в отзывах критиков, что личная жизнь Пазолини отражалась на его творчестве. Можно конечно всерьез обсуждать добавленный режиссером небольшой эпизод в котором неожиданно застают двух мужчин за занятием, которое вполне можно додумать читателю. Однако, за этим исключением, картина наполнена красочными эротическими гетеросексуальными фантазиями. Кстати, очень символично что именно Пазолини, на которого навешивают так много ярлыков, в «Кентереберийских историях» раздевает 45-летнюю Лауру Бетти. И, нужно сказать, звезда «Теорему», сыгравшая там весьма возвышенную роль, выглядит вполне достойно, как в части актерского таланта, так и в аспекте форм.
Между тем, нагота и секс в «Кентерберийских историях» носят скорее информативно-анатомический, нежели эстетский характер. Пазолини был прежде всего поэтом. Так что, несмотря на обилие голых тел картина, как и «Декамерон» ни разу не скатывается в пошлость. Эротизм у Пазолини неотрывно связан с повествованием. И если у героини Лауры Бетти любовник приподнимет край одежды, то Пазолини не станет прятать причинное место заботливо убирая камеру. Как есть, так есть.
Однако, для меня этот фильм является подтверждением постановочного гения Пазолини. Режиссер превосходно справился с кардинально новой для себя, британской эстетикой. Даже гэги у него принципиальным образом изменились, стали более простецкими и незамысловатыми. Гораздо холоднее, чем в «Декмероне», но и нравы то в Британии были совсем не итальянские. Загадочная «вещь в себе», без начала и конца — зарисовка, написанная языком кино, без религии, бунтарей и классов. Только Чосер. Чосер. И Пазолини.
8 из 10
Общее
Полное имя : F:\Кентерберийские рассказы I racconti di Canterbury (1972) BDRip\Kenterberiyskie Rasskazi.1972.BDRip.[pirat.ca]\Kenterberiyskie Rasskazi.1972.BDRip.[pirat.ca].avi
Формат : AVI
Формат/Информация : Audio Video Interleave
Размер файла : 1,46 Гбайт
Продолжительность : 1 ч. 51 м.
Общий поток : 1876 Кбит/сек
Программа кодирования : VirtualDubMod 1.5.10.3 | www.virtualdub-fr.org || (build 2550/release)
Библиотека кодирования : VirtualDubMod build 2550/release
Видео
Идентификатор : 0
Формат : MPEG-4 Visual
Профиль формата : Advanced [email protected]
Параметр BVOP формата : 1
Параметр QPel формата : Нет
Параметр GMC формата : Без точки перехода
Параметр матрицы формата : Выборочная
Идентификатор кодека : XVID
Идентификатор кодека/Подсказка : XviD
Продолжительность : 1 ч. 51 м.
Битрейт : 1478 Кбит/сек
Ширина : 688 пикселей
Высота : 368 пикселей
Соотношение сторон : 1,85:1
Частота кадров : 23,976 (23976/1000) кадра/сек
Цветовое пространство : YUV
Субдискретизация насыщенности : 4:2:0
Битовая глубина : 8 бит
Тип развёртки : Прогрессивная
Метод сжатия : С потерями
Бит/(Пиксели*Кадры) : 0.243
Размер потока : 1,15 Гбайт (79%)
Библиотека кодирования : XviD 64
Аудио #1
Идентификатор : 1
Формат : AC-3
Формат/Информация : Audio Coding 3
Профиль формата : Dolby Digital
Расширение режима : CM (complete main)
Параметр Endianness формата : Big
Идентификатор кодека : 2000
Продолжительность : 1 ч. 51 м.
Вид битрейта : Постоянный
Битрейт : 192 Кбит/сек
Каналы : 2 канала
Расположение каналов : Front: L R
Частота : 48,0 КГц
Частота кадров : 31,250 кадров/сек (1536 spf)
Метод сжатия : С потерями
Размер потока : 153 Мбайт (10%)
Выравнивание : Разделение по промежуткам
Продолжительность промежутка : 42 мс. (1,00 видеокадр)
Время предзагрузки промежутка : 500 мс.
Аудио #2
Идентификатор : 2
Формат : AC-3
Формат/Информация : Audio Coding 3
Расширение режима : CM (complete main)
Параметр Endianness формата : Big
Идентификатор кодека : 2000
Продолжительность : 1 ч. 51 м.
Вид битрейта : Постоянный
Битрейт : 192 Кбит/сек
Каналы : 1 канал
Расположение каналов : Front: C
Частота : 48,0 КГц
Частота кадров : 31,250 кадров/сек (1536 spf)
Метод сжатия : С потерями
Размер потока : 153 Мбайт (10%)
Выравнивание : Разделение по промежуткам
Продолжительность промежутка : 42 мс. (1,00 видеокадр)
Время предзагрузки промежутка : 500 мс.
Download / Скачать

Хотите скачать бесплатно? Зарегистрируйтесь на сайте (ссылка на регистрацию). Pirat.ca - самый быстрый торрент трекер в рунете!

Как скачивать  ·   Что такое торрент  ·   Рейтинг и ограничения

Показать сообщения:    
Ответить на тему

Текущее время: Сегодня 14:15

Часовой пояс: GMT + 4



Вы не можете начинать темы
Вы не можете отвечать на сообщения
Вы не можете редактировать свои сообщения
Вы не можете удалять свои сообщения
Вы не можете голосовать в опросах
Вы не можете прикреплять файлы к сообщениям
Вы не можете скачивать файлы

Майнать ▼