(Instrumental) VA - Легенды французской и итальянской эстрады (РД) - 2011 (4 CD) [FLAC, tracks+cue, lossless]

Ответить на тему
 
Автор
Сообщение

Пост 29-Янв-2013 01:29

[Q] 

CHARLI2236

VA - Легенды французской и итальянской эстрады (РД) - 2011 (4CD)
Год выпуска альбома: 2011
Страна: Россия
Жанр: Instrumental
Лейбл издания: Ридерз Дайджест
Продолжительность: 4:34:46
Формат: FLAC
Битрейт аудио: lossless
Тип рипа: tracks+.cue
Источник (релизер): диск CDDA
Наличие сканов в содержимом раздачи: да
Трэклист
01 - Mon credo - Мирей Матье. (2:53)
02 - La demiere valse - Мирей Матье. (3:09)
03 - Acropolis adieu - Мирей Матье. (3:29)
04 - Santa Maria de la mer - Мирей Матье. (3:40)
05 - A Blue Bayou - Мирей Матье. (4:01)
06 - La Paloma adieu - Мирей Матье. (3:53)
07 - Amour defendu - Мирей Матье. (3:29)
08 - Made In France - Мирей Матье. (3:33)
09 - Une femme amoureuse - Мирей Матье. (4:13)
10 - Trois milliards de gens sur terre - Мирей Матье. (3:29)
11 - Non, je ne regrette rien - Эдит Пиаф. (2:24)
12 - Milord - Эдит Пиаф. (4:32)
13 - Mon manege a moi - Эдит Пиаф. (3:03)
14 - Johnny tu n'es pas un ange - Эдит Пиаф. (2:13)
15 - Sous le ciel de Paris - Эдит Пиаф. (3:26)
16 - C'est a Hambourg - Эдит Пиаф. (3:02)
17 - Padam, Padam - Эдит Пиаф. (3:20)
18 - L'Accordeoniste - Эдит Пиаф. (3:40)
19 - Hymne a l'amour - Эдит Пиаф. (3:29)
20 - La Vie en rose - Эдит Пиаф. (3:09)
”Отчет ЕАС”
Отчёт EAC об извлечении, выполненном 24. января 2013, 19:36 для диска:
Various / Легенды французской и итальянской эстрады (CD1) - Мирей Матье и Эдит Пиаф (РД)
Дисковод: _NEC DVD_RW ND-4550A Adapter: 0 ID: 1
Режим чтения: Достоверный (C2: нет, Точный поток: да, Отключение кэша: да)
Коррекция смещения при чтении: 48
Способность читать области Lead-in и Lead-out : Нет
Выходной формат: C:\Program Files\FLAC\flac.exe (Пользовательский кодировщик)
128 kBit/s
Дополнительные параметры: -8 -V -T "ARTIST=%a" -T "TITLE=%t" -T "ALBUM=%g" -T "DATE=%y" -T "TRACKNUMBER=%n" -T "GENRE=%m" -T "COMMENT=EAC FLAC -8" %s
Другие параметры:
Заполнение пропущенных сэмплов тишиной : Да
Удаление блоков с тишиной в начале и конце : Нет
Встроенный Win32-интерфейс для Win NT/2000
Трек 1
Имя файла C:\Sergei\новая папка\01 - Mon credo - Мирей Матье.wav
Длина предзазора 0:00:02.00
Пиковый уровень 85.9 %
Качество трека 99.9 %
CRC теста B4B4C439
CRC копии B4B4C439
Копирование... OK
Трек 2
Имя файла C:\Sergei\новая папка\02 - La demiere valse - Мирей Матье.wav
Длина предзазора 0:00:02.45
Пиковый уровень 81.3 %
Качество трека 100.0 %
CRC теста 5A398129
CRC копии 5A398129
Копирование... OK
Трек 3
Имя файла C:\Sergei\новая папка\03 - Acropolis adieu - Мирей Матье.wav
Длина предзазора 0:00:02.45
Пиковый уровень 86.8 %
Качество трека 100.0 %
CRC теста F13FBD93
CRC копии F13FBD93
Копирование... OK
Трек 4
Имя файла C:\Sergei\новая папка\04 - Santa Maria de la mer - Мирей Матье.wav
Длина предзазора 0:00:02.81
Пиковый уровень 90.5 %
Качество трека 100.0 %
CRC теста BA316116
CRC копии BA316116
Копирование... OK
Трек 5
Имя файла C:\Sergei\новая папка\05 - A Blue Bayou - Мирей Матье.wav
Длина предзазора 0:00:03.40
Пиковый уровень 98.2 %
Качество трека 100.0 %
CRC теста 1A40DD4C
CRC копии 1A40DD4C
Копирование... OK
Трек 6
Имя файла C:\Sergei\новая папка\06 - La Paloma adieu - Мирей Матье.wav
Длина предзазора 0:00:02.82
Пиковый уровень 88.2 %
Качество трека 100.0 %
CRC теста 0F47D525
CRC копии 0F47D525
Копирование... OK
Трек 7
Имя файла C:\Sergei\новая папка\07 - Amour defendu - Мирей Матье.wav
Длина предзазора 0:00:02.81
Пиковый уровень 88.0 %
Качество трека 100.0 %
CRC теста A13EC9D1
CRC копии A13EC9D1
Копирование... OK
Трек 8
Имя файла C:\Sergei\новая папка\08 - Made In France - Мирей Матье.wav
Длина предзазора 0:00:02.81
Пиковый уровень 74.2 %
Качество трека 100.0 %
CRC теста 354045F3
CRC копии 354045F3
Копирование... OK
Трек 9
Имя файла C:\Sergei\новая папка\09 - Une femme amoureuse - Мирей Матье.wav
Длина предзазора 0:00:02.82
Пиковый уровень 92.2 %
Качество трека 100.0 %
CRC теста E925F21D
CRC копии E925F21D
Копирование... OK
Трек 10
Имя файла C:\Sergei\новая папка\10 - Trois milliards de gens sur terre - Мирей Матье.wav
Длина предзазора 0:00:02.82
Пиковый уровень 93.3 %
Качество трека 100.0 %
CRC теста C4A70D01
CRC копии C4A70D01
Копирование... OK
Трек 11
Имя файла C:\Sergei\новая папка\11 - Non, je ne regrette rien - Эдит Пиаф.wav
Длина предзазора 0:00:04.80
Пиковый уровень 94.6 %
Качество трека 99.9 %
CRC теста 21F81D4E
CRC копии 21F81D4E
Копирование... OK
Трек 12
Имя файла C:\Sergei\новая папка\12 - Milord - Эдит Пиаф.wav
Длина предзазора 0:00:02.40
Пиковый уровень 90.1 %
Качество трека 100.0 %
CRC теста 4A09910E
CRC копии 4A09910E
Копирование... OK
Трек 13
Имя файла C:\Sergei\новая папка\13 - Mon manege a moi - Эдит Пиаф.wav
Длина предзазора 0:00:02.81
Пиковый уровень 96.0 %
Качество трека 99.9 %
CRC теста 830F2647
CRC копии 830F2647
Копирование... OK
Трек 14
Имя файла C:\Sergei\новая папка\14 - Johnny tu n'es pas un ange - Эдит Пиаф.wav
Длина предзазора 0:00:02.45
Пиковый уровень 98.2 %
Качество трека 100.0 %
CRC теста 71F04A86
CRC копии 71F04A86
Копирование... OK
Трек 15
Имя файла C:\Sergei\новая папка\15 - Sous le ciel de Paris - Эдит Пиаф.wav
Длина предзазора 0:00:02.08
Пиковый уровень 85.3 %
Качество трека 100.0 %
CRC теста 72D88ECE
CRC копии 72D88ECE
Копирование... OK
Трек 16
Имя файла C:\Sergei\новая папка\16 - C'est a Hambourg - Эдит Пиаф.wav
Длина предзазора 0:00:02.81
Пиковый уровень 98.1 %
Качество трека 100.0 %
CRC теста 2470C8F5
CRC копии 2470C8F5
Копирование... OK
Трек 17
Имя файла C:\Sergei\новая папка\17 - Padam, Padam - Эдит Пиаф.wav
Длина предзазора 0:00:02.81
Пиковый уровень 96.2 %
Качество трека 100.0 %
CRC теста 688A33C8
CRC копии 688A33C8
Копирование... OK
Трек 18
Имя файла C:\Sergei\новая папка\18 - L'Accordeoniste - Эдит Пиаф.wav
Длина предзазора 0:00:02.82
Пиковый уровень 98.2 %
Качество трека 100.0 %
CRC теста 288ADD61
CRC копии 288ADD61
Копирование... OK
Трек 19
Имя файла C:\Sergei\новая папка\19 - Hymne a l'amour - Эдит Пиаф.wav
Длина предзазора 0:00:02.81
Пиковый уровень 92.4 %
Качество трека 99.9 %
CRC теста 5EA281A7
CRC копии 5EA281A7
Копирование... OK
Трек 20
Имя файла C:\Sergei\новая папка\20 - La Vie en rose - Эдит Пиаф.wav
Длина предзазора 0:00:02.52
Пиковый уровень 94.2 %
Качество трека 100.0 %
CRC теста 524034F8
CRC копии 524034F8
Копирование... OK
Ошибок не произошло
Конец отчёта
"Non-compilant CUE"
REM GENRE Instrumental
REM DATE 2011
REM DISCID 4D0FFF14
REM COMMENT "ExactAudioCopy v0.95b3"
PERFORMER "Various"
TITLE "Легенды французской и итальянской эстрады (CD1) - Мирей Матье и Эдит Пиаф (РД)"
FILE "01 - Mon credo - Мирей Матье.wav" WAVE
TRACK 01 AUDIO
TITLE "Мирей Матье"
PERFORMER "Mon credo"
INDEX 01 00:00:00
TRACK 02 AUDIO
TITLE "Мирей Матье"
PERFORMER "La demiere valse"
INDEX 00 02:51:15
FILE "02 - La demiere valse - Мирей Матье.wav" WAVE
INDEX 01 00:00:00
TRACK 03 AUDIO
TITLE "Мирей Матье"
PERFORMER "Acropolis adieu"
INDEX 00 03:06:48
FILE "03 - Acropolis adieu - Мирей Матье.wav" WAVE
INDEX 01 00:00:00
TRACK 04 AUDIO
TITLE "Мирей Матье"
PERFORMER "Santa Maria de la mer"
INDEX 00 03:26:45
FILE "04 - Santa Maria de la mer - Мирей Матье.wav" WAVE
INDEX 01 00:00:00
TRACK 05 AUDIO
TITLE "Мирей Матье"
PERFORMER "A Blue Bayou"
INDEX 00 03:37:39
FILE "05 - A Blue Bayou - Мирей Матье.wav" WAVE
INDEX 01 00:00:00
TRACK 06 AUDIO
TITLE "Мирей Матье"
PERFORMER "La Paloma adieu"
INDEX 00 03:58:58
FILE "06 - La Paloma adieu - Мирей Матье.wav" WAVE
INDEX 01 00:00:00
TRACK 07 AUDIO
TITLE "Мирей Матье"
PERFORMER "Amour defendu"
INDEX 00 03:50:40
FILE "07 - Amour defendu - Мирей Матье.wav" WAVE
INDEX 01 00:00:00
TRACK 08 AUDIO
TITLE "Мирей Матье"
PERFORMER "Made In France"
INDEX 00 03:27:07
FILE "08 - Made In France - Мирей Матье.wav" WAVE
INDEX 01 00:00:00
TRACK 09 AUDIO
TITLE "Мирей Матье"
PERFORMER "Une femme amoureuse"
INDEX 00 03:30:67
FILE "09 - Une femme amoureuse - Мирей Матье.wav" WAVE
INDEX 01 00:00:00
TRACK 10 AUDIO
TITLE "Мирей Матье"
PERFORMER "Trois milliards de gens sur terre"
INDEX 00 04:10:18
FILE "10 - Trois milliards de gens sur terre - Мирей Матье.wav" WAVE
INDEX 01 00:00:00
TRACK 11 AUDIO
TITLE "Эдит Пиаф"
PERFORMER "Non, je ne regrette rien"
INDEX 00 03:24:73
FILE "11 - Non, je ne regrette rien - Эдит Пиаф.wav" WAVE
INDEX 01 00:00:00
TRACK 12 AUDIO
TITLE "Эдит Пиаф"
PERFORMER "Milord"
INDEX 00 02:21:52
FILE "12 - Milord - Эдит Пиаф.wav" WAVE
INDEX 01 00:00:00
TRACK 13 AUDIO
TITLE "Эдит Пиаф"
PERFORMER "Mon manege a moi"
INDEX 00 04:29:24
FILE "13 - Mon manege a moi - Эдит Пиаф.wav" WAVE
INDEX 01 00:00:00
TRACK 14 AUDIO
TITLE "Эдит Пиаф"
PERFORMER "Johnny tu n'es pas un ange"
INDEX 00 03:00:62
FILE "14 - Johnny tu n'es pas un ange - Эдит Пиаф.wav" WAVE
INDEX 01 00:00:00
TRACK 15 AUDIO
TITLE "Эдит Пиаф"
PERFORMER "Sous le ciel de Paris"
INDEX 00 02:11:00
FILE "15 - Sous le ciel de Paris - Эдит Пиаф.wav" WAVE
INDEX 01 00:00:00
TRACK 16 AUDIO
TITLE "Эдит Пиаф"
PERFORMER "C'est a Hambourg"
INDEX 00 03:23:48
FILE "16 - C'est a Hambourg - Эдит Пиаф.wav" WAVE
INDEX 01 00:00:00
TRACK 17 AUDIO
TITLE "Эдит Пиаф"
PERFORMER "Padam, Padam"
INDEX 00 02:59:51
FILE "17 - Padam, Padam - Эдит Пиаф.wav" WAVE
INDEX 01 00:00:00
TRACK 18 AUDIO
TITLE "Эдит Пиаф"
PERFORMER "L'Accordeoniste"
INDEX 00 03:17:26
FILE "18 - L'Accordeoniste - Эдит Пиаф.wav" WAVE
INDEX 01 00:00:00
TRACK 19 AUDIO
TITLE "Эдит Пиаф"
PERFORMER "Hymne a l'amour"
INDEX 00 03:37:40
FILE "19 - Hymne a l'amour - Эдит Пиаф.wav" WAVE
INDEX 01 00:00:00
TRACK 20 AUDIO
TITLE "Эдит Пиаф"
PERFORMER "La Vie en rose"
INDEX 00 03:27:00
FILE "20 - La Vie en rose - Эдит Пиаф.wav" WAVE
INDEX 01 00:00:00REM GENRE Instrumental
REM DATE 2011
REM DISCID 4D0FFF14
REM COMMENT "ExactAudioCopy v0.95b3"
PERFORMER "Various"
TITLE "Легенды французской и итальянской эстрады (CD1) - Мирей Матье и Эдит Пиаф (РД)"
FILE "01 - Mon credo - Мирей Матье.wav" WAVE
TRACK 01 AUDIO
TITLE "Мирей Матье"
PERFORMER "Mon credo"
INDEX 01 00:00:00
TRACK 02 AUDIO
TITLE "Мирей Матье"
PERFORMER "La demiere valse"
INDEX 00 02:51:15
FILE "02 - La demiere valse - Мирей Матье.wav" WAVE
INDEX 01 00:00:00
TRACK 03 AUDIO
TITLE "Мирей Матье"
PERFORMER "Acropolis adieu"
INDEX 00 03:06:48
FILE "03 - Acropolis adieu - Мирей Матье.wav" WAVE
INDEX 01 00:00:00
TRACK 04 AUDIO
TITLE "Мирей Матье"
PERFORMER "Santa Maria de la mer"
INDEX 00 03:26:45
FILE "04 - Santa Maria de la mer - Мирей Матье.wav" WAVE
INDEX 01 00:00:00
TRACK 05 AUDIO
TITLE "Мирей Матье"
PERFORMER "A Blue Bayou"
INDEX 00 03:37:39
FILE "05 - A Blue Bayou - Мирей Матье.wav" WAVE
INDEX 01 00:00:00
TRACK 06 AUDIO
TITLE "Мирей Матье"
PERFORMER "La Paloma adieu"
INDEX 00 03:58:58
FILE "06 - La Paloma adieu - Мирей Матье.wav" WAVE
INDEX 01 00:00:00
TRACK 07 AUDIO
TITLE "Мирей Матье"
PERFORMER "Amour defendu"
INDEX 00 03:50:40
FILE "07 - Amour defendu - Мирей Матье.wav" WAVE
INDEX 01 00:00:00
TRACK 08 AUDIO
TITLE "Мирей Матье"
PERFORMER "Made In France"
INDEX 00 03:27:07
FILE "08 - Made In France - Мирей Матье.wav" WAVE
INDEX 01 00:00:00
TRACK 09 AUDIO
TITLE "Мирей Матье"
PERFORMER "Une femme amoureuse"
INDEX 00 03:30:67
FILE "09 - Une femme amoureuse - Мирей Матье.wav" WAVE
INDEX 01 00:00:00
TRACK 10 AUDIO
TITLE "Мирей Матье"
PERFORMER "Trois milliards de gens sur terre"
INDEX 00 04:10:18
FILE "10 - Trois milliards de gens sur terre - Мирей Матье.wav" WAVE
INDEX 01 00:00:00
TRACK 11 AUDIO
TITLE "Эдит Пиаф"
PERFORMER "Non, je ne regrette rien"
INDEX 00 03:24:73
FILE "11 - Non, je ne regrette rien - Эдит Пиаф.wav" WAVE
INDEX 01 00:00:00
TRACK 12 AUDIO
TITLE "Эдит Пиаф"
PERFORMER "Milord"
INDEX 00 02:21:52
FILE "12 - Milord - Эдит Пиаф.wav" WAVE
INDEX 01 00:00:00
TRACK 13 AUDIO
TITLE "Эдит Пиаф"
PERFORMER "Mon manege a moi"
INDEX 00 04:29:24
FILE "13 - Mon manege a moi - Эдит Пиаф.wav" WAVE
INDEX 01 00:00:00
TRACK 14 AUDIO
TITLE "Эдит Пиаф"
PERFORMER "Johnny tu n'es pas un ange"
INDEX 00 03:00:62
FILE "14 - Johnny tu n'es pas un ange - Эдит Пиаф.wav" WAVE
INDEX 01 00:00:00
TRACK 15 AUDIO
TITLE "Эдит Пиаф"
PERFORMER "Sous le ciel de Paris"
INDEX 00 02:11:00
FILE "15 - Sous le ciel de Paris - Эдит Пиаф.wav" WAVE
INDEX 01 00:00:00
TRACK 16 AUDIO
TITLE "Эдит Пиаф"
PERFORMER "C'est a Hambourg"
INDEX 00 03:23:48
FILE "16 - C'est a Hambourg - Эдит Пиаф.wav" WAVE
INDEX 01 00:00:00
TRACK 17 AUDIO
TITLE "Эдит Пиаф"
PERFORMER "Padam, Padam"
INDEX 00 02:59:51
FILE "17 - Padam, Padam - Эдит Пиаф.wav" WAVE
INDEX 01 00:00:00
TRACK 18 AUDIO
TITLE "Эдит Пиаф"
PERFORMER "L'Accordeoniste"
INDEX 00 03:17:26
FILE "18 - L'Accordeoniste - Эдит Пиаф.wav" WAVE
INDEX 01 00:00:00
TRACK 19 AUDIO
TITLE "Эдит Пиаф"
PERFORMER "Hymne a l'amour"
INDEX 00 03:37:40
FILE "19 - Hymne a l'amour - Эдит Пиаф.wav" WAVE
INDEX 01 00:00:00
TRACK 20 AUDIO
TITLE "Эдит Пиаф"
PERFORMER "La Vie en rose"
INDEX 00 03:27:00
FILE "20 - La Vie en rose - Эдит Пиаф.wav" WAVE
INDEX 01 00:00:00
"Лог Audiochecker"
AUDIOCHECKER v2.0 beta (build 457) - by Dester - [email protected]
~~~~~~~~~~~~~~~~~~~~~~~~~~~~~~~~~~
-=== НЕ РЕДАКТИРУЙТЕ ЭТОТ ФАЙЛ! ===-
Путь: ...\CD1 - Мирей Матье и Эдит Пиаф
01 -=- 01 - Mon credo - Мирей Матье.flac -=- CDDA (100%)
02 -=- 02 - La demiere valse - Мирей Матье.flac -=- CDDA (100%)
03 -=- 03 - Acropolis adieu - Мирей Матье.flac -=- CDDA (100%)
04 -=- 04 - Santa Maria de la mer - Мирей Матье.flac -=- CDDA (99%)
05 -=- 05 - A Blue Bayou - Мирей Матье.flac -=- CDDA (100%)
06 -=- 06 - La Paloma adieu - Мирей Матье.flac -=- CDDA (100%)
07 -=- 07 - Amour defendu - Мирей Матье.flac -=- CDDA (100%)
08 -=- 08 - Made In France - Мирей Матье.flac -=- MPEG (85%)
09 -=- 09 - Une femme amoureuse - Мирей Матье.flac -=- CDDA (100%)
10 -=- 10 - Trois milliards de gens sur terre - Мирей Матье.flac -=- CDDA (100%)
11 -=- 11 - Non, je ne regrette rien - Эдит Пиаф.flac -=- MPEG (95%)
12 -=- 12 - Milord - Эдит Пиаф.flac -=- MPEG (95%)
13 -=- 13 - Mon manege a moi - Эдит Пиаф.flac -=- MPEG (95%)
14 -=- 14 - Johnny tu n'es pas un ange - Эдит Пиаф.flac -=- CDDA (100%)
15 -=- 15 - Sous le ciel de Paris - Эдит Пиаф.flac -=- CDDA (94%)
16 -=- 16 - C'est a Hambourg - Эдит Пиаф.flac -=- CDDA (100%)
17 -=- 17 - Padam, Padam - Эдит Пиаф.flac -=- CDDA (100%)
18 -=- 18 - L'Accordeoniste - Эдит Пиаф.flac -=- CDDA (100%)
19 -=- 19 - Hymne a l'amour - Эдит Пиаф.flac -=- CDDA (49%)
20 -=- 20 - La Vie en rose - Эдит Пиаф.flac -=- CDDA (100%)
Сводка 78,60% CDDA
135576884
Трэклист
01 - Fatti mandare dalla mamma a prendere il latte - Джанни Моранди. (2:16)
02 - Non son degno di te - Джанни Моранди. (3:04)
03 - Se non avessi pju te - Джанни Моранди. (2:51)
04 - In ginocchio da te - Джанни Моранди. (3:12)
05 - Chimera - Джанни Моранди. (3:00)
06 - C'era un ragazzo che come me amava i Beatles e i Rolling Stones - Джанни Моранди. (3:09)
07 - Il giocattolo - Джанни Моранди. (2:37)
08 - Belinda - Джанни Моранди. (2:42)
09 - Scende la pioggia - Джанни Моранди. (2:31)
10 - Non voglio innamorarmi piu - Джанни Моранди. (2:43)
11 - Una lacrima sul viso - Бобби Соло. (3:08)
12 - Zingara - Бобби Соло. (2:43)
13 - San Francisco - Бобби Соло. (2:57)
14 - Quello sbagliato - Бобби Соло. (2:57)
15 - Cristina - Бобби Соло. (2:23)
16 - Se piagi, se ridi - Бобби Соло. (2:58)
17 - Dindi - Бобби Соло. (3:09)
18 - Non si cresce mai - Бобби Соло. (3:45)
19 - Barcarolo romano - Бобби Соло. (3:12)
20 - Fiori Trasteverini - Бобби Соло. (4:29)
”Отчет ЕАС”
Отчёт EAC об извлечении, выполненном 24. января 2013, 20:28 для диска:
Various / Легенды французской и итальянской эстрады (CD2) - Джанни Моранди и Бобби Соло (РД)
Дисковод: _NEC DVD_RW ND-4550A Adapter: 0 ID: 1
Режим чтения: Достоверный (C2: нет, Точный поток: да, Отключение кэша: да)
Коррекция смещения при чтении: 48
Способность читать области Lead-in и Lead-out : Нет
Выходной формат: C:\Program Files\FLAC\flac.exe (Пользовательский кодировщик)
128 kBit/s
Дополнительные параметры: -8 -V -T "ARTIST=%a" -T "TITLE=%t" -T "ALBUM=%g" -T "DATE=%y" -T "TRACKNUMBER=%n" -T "GENRE=%m" -T "COMMENT=EAC FLAC -8" %s
Другие параметры:
Заполнение пропущенных сэмплов тишиной : Да
Удаление блоков с тишиной в начале и конце : Нет
Встроенный Win32-интерфейс для Win NT/2000
Трек 1
Имя файла C:\Sergei\новая папка\01 - Fatti mandare dalla mamma a prendere il latte - Джанни Моранди.wav
Длина предзазора 0:00:02.00
Пиковый уровень 95.9 %
Качество трека 100.0 %
CRC теста 0F6B62D5
CRC копии 0F6B62D5
Копирование... OK
Трек 2
Имя файла C:\Sergei\новая папка\02 - Non son degno di te - Джанни Моранди.wav
Длина предзазора 0:00:02.82
Пиковый уровень 97.6 %
Качество трека 99.9 %
CRC теста 1F90A7C5
CRC копии 1F90A7C5
Копирование... OK
Трек 3
Имя файла C:\Sergei\новая папка\03 - Se non avessi pju te - Джанни Моранди.wav
Длина предзазора 0:00:02.81
Пиковый уровень 93.2 %
Качество трека 100.0 %
CRC теста CA0D34A1
CRC копии CA0D34A1
Копирование... OK
Трек 4
Имя файла C:\Sergei\новая папка\04 - In ginocchio da te - Джанни Моранди.wav
Длина предзазора 0:00:02.81
Пиковый уровень 93.7 %
Качество трека 100.0 %
CRC теста 588EABE0
CRC копии 588EABE0
Копирование... OK
Трек 5
Имя файла C:\Sergei\новая папка\05 - Chimera - Джанни Моранди.wav
Длина предзазора 0:00:02.81
Пиковый уровень 95.3 %
Качество трека 100.0 %
CRC теста 343C78A6
CRC копии 343C78A6
Копирование... OK
Трек 6
Имя файла C:\Sergei\новая папка\06 - C'era un ragazzo che come me amava i Beatles e i Rolling Stones - Джанни Моранди.wav
Длина предзазора 0:00:02.81
Пиковый уровень 96.2 %
Качество трека 100.0 %
CRC теста E20CA680
CRC копии E20CA680
Копирование... OK
Трек 7
Имя файла C:\Sergei\новая папка\07 - Il giocattolo - Джанни Моранди.wav
Длина предзазора 0:00:02.81
Пиковый уровень 97.7 %
Качество трека 100.0 %
CRC теста D756EB0C
CRC копии D756EB0C
Копирование... OK
Трек 8
Имя файла C:\Sergei\новая папка\08 - Belinda - Джанни Моранди.wav
Длина предзазора 0:00:02.81
Пиковый уровень 89.9 %
Качество трека 100.0 %
CRC теста 8F93D742
CRC копии 8F93D742
Копирование... OK
Трек 9
Имя файла C:\Sergei\новая папка\09 - Scende la pioggia - Джанни Моранди.wav
Длина предзазора 0:00:02.81
Пиковый уровень 92.6 %
Качество трека 100.0 %
CRC теста 852D87A9
CRC копии 852D87A9
Копирование... OK
Трек 10
Имя файла C:\Sergei\новая папка\10 - Non voglio innamorarmi piu - Джанни Моранди.wav
Длина предзазора 0:00:02.81
Пиковый уровень 92.5 %
Качество трека 100.0 %
CRC теста 90EC5AF1
CRC копии 90EC5AF1
Копирование... OK
Трек 11
Имя файла C:\Sergei\новая папка\11 - Una lacrima sul viso - Бобби Соло.wav
Длина предзазора 0:00:04.81
Пиковый уровень 77.3 %
Качество трека 99.9 %
CRC теста FE2120F1
CRC копии FE2120F1
Копирование... OK
Трек 12
Имя файла C:\Sergei\новая папка\12 - Zingara - Бобби Соло.wav
Длина предзазора 0:00:02.81
Пиковый уровень 81.2 %
Качество трека 100.0 %
CRC теста F95AC68A
CRC копии F95AC68A
Копирование... OK
Трек 13
Имя файла C:\Sergei\новая папка\13 - San Francisco - Бобби Соло.wav
Длина предзазора 0:00:02.81
Пиковый уровень 76.8 %
Качество трека 100.0 %
CRC теста BDA8FB45
CRC копии BDA8FB45
Копирование... OK
Трек 14
Имя файла C:\Sergei\новая папка\14 - Quello sbagliato - Бобби Соло.wav
Длина предзазора 0:00:02.81
Пиковый уровень 81.8 %
Качество трека 100.0 %
CRC теста 7671A4FD
CRC копии 7671A4FD
Копирование... OK
Трек 15
Имя файла C:\Sergei\новая папка\15 - Cristina - Бобби Соло.wav
Длина предзазора 0:00:02.81
Пиковый уровень 64.9 %
Качество трека 100.0 %
CRC теста 0D0BA5DF
CRC копии 0D0BA5DF
Копирование... OK
Трек 16
Имя файла C:\Sergei\новая папка\16 - Se piagi, se ridi - Бобби Соло.wav
Длина предзазора 0:00:02.81
Пиковый уровень 84.9 %
Качество трека 100.0 %
CRC теста 654D932A
CRC копии 654D932A
Копирование... OK
Трек 17
Имя файла C:\Sergei\новая папка\17 - Dindi - Бобби Соло.wav
Длина предзазора 0:00:03.52
Пиковый уровень 63.5 %
Качество трека 100.0 %
CRC теста 38C1EAEA
CRC копии 38C1EAEA
Копирование... OK
Трек 18
Имя файла C:\Sergei\новая папка\18 - Non si cresce mai - Бобби Соло.wav
Длина предзазора 0:00:02.81
Пиковый уровень 81.5 %
Качество трека 100.0 %
CRC теста DFE9705D
CRC копии DFE9705D
Копирование... OK
Трек 19
Имя файла C:\Sergei\новая папка\19 - Barcarolo romano - Бобби Соло.wav
Длина предзазора 0:00:02.81
Пиковый уровень 61.3 %
Качество трека 100.0 %
CRC теста 3BBB9075
CRC копии 3BBB9075
Копирование... OK
Трек 20
Имя файла C:\Sergei\новая папка\20 - Fiori Trasteverini - Бобби Соло.wav
Длина предзазора 0:00:02.81
Пиковый уровень 82.5 %
Качество трека 99.9 %
CRC теста 4463A629
CRC копии 4463A629
Копирование... OK
Ошибок не произошло
Конец отчёта
"Non-compilant CUE"
REM GENRE Instrumental
REM DATE 2011
REM DISCID 110E0B14
REM COMMENT "ExactAudioCopy v0.95b3"
PERFORMER "Various"
TITLE "Легенды французской и итальянской эстрады (CD2) - Джанни Моранди и Бобби Соло..."
FILE "01 - Fatti mandare dalla mamma a prendere il latte - Джанни Моранди.wav" WAVE
TRACK 01 AUDIO
TITLE "Джанни Моранди"
PERFORMER "Fatti mandare dalla mamma a prendere il latte"
INDEX 01 00:00:00
TRACK 02 AUDIO
TITLE "Джанни Моранди"
PERFORMER "Non son degno di te"
INDEX 00 02:13:26
FILE "02 - Non son degno di te - Джанни Моранди.wav" WAVE
INDEX 01 00:00:00
TRACK 03 AUDIO
TITLE "Джанни Моранди"
PERFORMER "Se non avessi pju te"
INDEX 00 03:02:09
FILE "03 - Se non avessi pju te - Джанни Моранди.wav" WAVE
INDEX 01 00:00:00
TRACK 04 AUDIO
TITLE "Джанни Моранди"
PERFORMER "In ginocchio da te"
INDEX 00 02:48:52
FILE "04 - In ginocchio da te - Джанни Моранди.wav" WAVE
INDEX 01 00:00:00
TRACK 05 AUDIO
TITLE "Джанни Моранди"
PERFORMER "Chimera"
INDEX 00 03:09:61
FILE "05 - Chimera - Джанни Моранди.wav" WAVE
INDEX 01 00:00:00
TRACK 06 AUDIO
TITLE "Джанни Моранди"
PERFORMER "C'era un ragazzo che come me amava i Beatles e i Rolling Stones"
INDEX 00 02:57:65
FILE "06 - C'era un ragazzo che come me amava i Beatles e i Rolling Stones - Джанни Моранди.wav" WAVE
INDEX 01 00:00:00
TRACK 07 AUDIO
TITLE "Джанни Моранди"
PERFORMER "Il giocattolo"
INDEX 00 03:06:29
FILE "07 - Il giocattolo - Джанни Моранди.wav" WAVE
INDEX 01 00:00:00
TRACK 08 AUDIO
TITLE "Джанни Моранди"
PERFORMER "Belinda"
INDEX 00 02:34:26
FILE "08 - Belinda - Джанни Моранди.wav" WAVE
INDEX 01 00:00:00
TRACK 09 AUDIO
TITLE "Джанни Моранди"
PERFORMER "Scende la pioggia"
INDEX 00 02:39:55
FILE "09 - Scende la pioggia - Джанни Моранди.wav" WAVE
INDEX 01 00:00:00
TRACK 10 AUDIO
TITLE "Джанни Моранди"
PERFORMER "Non voglio innamorarmi piu"
INDEX 00 02:28:63
FILE "10 - Non voglio innamorarmi piu - Джанни Моранди.wav" WAVE
INDEX 01 00:00:00
TRACK 11 AUDIO
TITLE "Бобби Соло"
PERFORMER "Una lacrima sul viso"
INDEX 00 02:38:54
FILE "11 - Una lacrima sul viso - Бобби Соло.wav" WAVE
INDEX 01 00:00:00
TRACK 12 AUDIO
TITLE "Бобби Соло"
PERFORMER "Zingara"
INDEX 00 03:05:33
FILE "12 - Zingara - Бобби Соло.wav" WAVE
INDEX 01 00:00:00
TRACK 13 AUDIO
TITLE "Бобби Соло"
PERFORMER "San Francisco"
INDEX 00 02:40:55
FILE "13 - San Francisco - Бобби Соло.wav" WAVE
INDEX 01 00:00:00
TRACK 14 AUDIO
TITLE "Бобби Соло"
PERFORMER "Quello sbagliato"
INDEX 00 02:54:57
FILE "14 - Quello sbagliato - Бобби Соло.wav" WAVE
INDEX 01 00:00:00
TRACK 15 AUDIO
TITLE "Бобби Соло"
PERFORMER "Cristina"
INDEX 00 02:54:28
FILE "15 - Cristina - Бобби Соло.wav" WAVE
INDEX 01 00:00:00
TRACK 16 AUDIO
TITLE "Бобби Соло"
PERFORMER "Se piagi, se ridi"
INDEX 00 02:20:37
FILE "16 - Se piagi, se ridi - Бобби Соло.wav" WAVE
INDEX 01 00:00:00
TRACK 17 AUDIO
TITLE "Бобби Соло"
PERFORMER "Dindi"
INDEX 00 02:55:31
FILE "17 - Dindi - Бобби Соло.wav" WAVE
INDEX 01 00:00:00
TRACK 18 AUDIO
TITLE "Бобби Соло"
PERFORMER "Non si cresce mai"
INDEX 00 03:06:36
FILE "18 - Non si cresce mai - Бобби Соло.wav" WAVE
INDEX 01 00:00:00
TRACK 19 AUDIO
TITLE "Бобби Соло"
PERFORMER "Barcarolo romano"
INDEX 00 03:43:09
FILE "19 - Barcarolo romano - Бобби Соло.wav" WAVE
INDEX 01 00:00:00
TRACK 20 AUDIO
TITLE "Бобби Соло"
PERFORMER "Fiori Trasteverini"
INDEX 00 03:09:29
FILE "20 - Fiori Trasteverini - Бобби Соло.wav" WAVE
INDEX 01 00:00:00
"Лог Audiochecker"
AUDIOCHECKER v2.0 beta (build 457) - by Dester - [email protected]
~~~~~~~~~~~~~~~~~~~~~~~~~~~~~~~~~~
-=== НЕ РЕДАКТИРУЙТЕ ЭТОТ ФАЙЛ! ===-
Путь: ...\CD2 - Джанни Моранди и Бобби Соло
01 -=- 01 - Fatti mandare dalla mamma a prendere il latte - Джанни Моранди.flac -=- CDDA (100%)
02 -=- 02 - Non son degno di te - Джанни Моранди.flac -=- CDDA (99%)
03 -=- 03 - Se non avessi pju te - Джанни Моранди.flac -=- CDDA (100%)
04 -=- 04 - In ginocchio da te - Джанни Моранди.flac -=- CDDA (100%)
05 -=- 05 - Chimera - Джанни Моранди.flac -=- CDDA (100%)
06 -=- 06 - C'era un ragazzo che come me amava i Beatles e i Rolling Stones - Джанни Моранди.flac -=- CDDA (100%)
07 -=- 07 - Il giocattolo - Джанни Моранди.flac -=- CDDA (100%)
08 -=- 08 - Belinda - Джанни Моранди.flac -=- CDDA (100%)
09 -=- 09 - Scende la pioggia - Джанни Моранди.flac -=- CDDA (100%)
10 -=- 10 - Non voglio innamorarmi piu - Джанни Моранди.flac -=- CDDA (100%)
11 -=- 11 - Una lacrima sul viso - Бобби Соло.flac -=- CDDA (100%)
12 -=- 12 - Zingara - Бобби Соло.flac -=- CDDA (99%)
13 -=- 13 - San Francisco - Бобби Соло.flac -=- CDDA (99%)
14 -=- 14 - Quello sbagliato - Бобби Соло.flac -=- CDDA (100%)
15 -=- 15 - Cristina - Бобби Соло.flac -=- CDDA (100%)
16 -=- 16 - Se piagi, se ridi - Бобби Соло.flac -=- CDDA (100%)
17 -=- 17 - Dindi - Бобби Соло.flac -=- CDDA (99%)
18 -=- 18 - Non si cresce mai - Бобби Соло.flac -=- CDDA (100%)
19 -=- 19 - Barcarolo romano - Бобби Соло.flac -=- CDDA (100%)
20 -=- 20 - Fiori Trasteverini - Бобби Соло.flac -=- CDDA (100%)
Сводка 99,80% CDDA
143567668
Трэклист
01 - Nel blu dipinto di blu (Volare) - Доменико Модуньо. (2:33)
02 - La donna riccia - , Доменико Модуньо. (2:34)
03 - Vecchio frack - Доменико Модуньо. (4:00)
04 - Resta cu'mme - Доменико Модуньо. (3:46)
05 - 'U pisci spada - , Доменико Модуньо. (3:13)
06 - Dio, come ti amo - Доменико Модуньо. (3:25)
07 - Io - Доменико Модуньо. (2:13)
08 - Il maestro di violino - Доменико Модуньо. (3:38)
09 - La Lontananza - Доменико Модуньо. (3:54)
10 - Piove (Ciao, ciao bambina) - Доменико Модуньо. (2:21)
11 - Ciao, ciao bambina - Далида. (2:58)
12 - Bambino - Далида. (3:35)
13 - Gondolier - Далида. (2:55)
14 - Come prima - Далида. (2:41)
15 - Il venait d'avoir 18 ans - Далида. (2:57)
16 - Paroles, paroles - Далида. (4:05)
17 - Gigi l'amoroso - Далида. (7:30)
18 - J'attendrai - Далида. (4:12)
19 - Salma Ya Salama - Далида. (3:05)
20 - Laissez-moi danser (Monday, Tuesday) - Далида. (3:48)
”Отчет ЕАС”
Отчёт EAC об извлечении, выполненном 25. января 2013, 14:20 для диска:
Various / Легенды французской и итальянской эстрады (CD3) - Доменико Модуньо и Далида (РД)
Дисковод: _NEC DVD_RW ND-4550A Adapter: 0 ID: 1
Режим чтения: Достоверный (C2: нет, Точный поток: да, Отключение кэша: да)
Коррекция смещения при чтении: 48
Способность читать области Lead-in и Lead-out : Нет
Выходной формат: C:\Program Files\FLAC\flac.exe (Пользовательский кодировщик)
128 kBit/s
Дополнительные параметры: -8 -V -T "ARTIST=%a" -T "TITLE=%t" -T "ALBUM=%g" -T "DATE=%y" -T "TRACKNUMBER=%n" -T "GENRE=%m" -T "COMMENT=EAC FLAC -8" %s
Другие параметры:
Заполнение пропущенных сэмплов тишиной : Да
Удаление блоков с тишиной в начале и конце : Нет
Встроенный Win32-интерфейс для Win NT/2000
Трек 1
Имя файла C:\Sergei\новая папка\01 - Nel blu dipinto di blu (Volare) - Доменико Модуньо.wav
Длина предзазора 0:00:02.00
Пиковый уровень 98.2 %
Качество трека 100.0 %
CRC теста 2F07C88F
CRC копии 2F07C88F
Копирование... OK
Трек 2
Имя файла C:\Sergei\новая папка\02 - La donna riccia - , Доменико Модуньо.wav
Пиковый уровень 88.7 %
Качество трека 100.0 %
CRC теста 39B2BB8F
CRC копии 39B2BB8F
Копирование... OK
Трек 3
Имя файла C:\Sergei\новая папка\03 - Vecchio frack - Доменико Модуньо.wav
Пиковый уровень 97.9 %
Качество трека 100.0 %
CRC теста 43815D8F
CRC копии 43815D8F
Копирование... OK
Трек 4
Имя файла C:\Sergei\новая папка\04 - Resta cu'mme - Доменико Модуньо.wav
Пиковый уровень 83.8 %
Качество трека 100.0 %
CRC теста C37845A5
CRC копии C37845A5
Копирование... OK
Трек 5
Имя файла C:\Sergei\новая папка\05 - 'U pisci spada - , Доменико Модуньо.wav
Пиковый уровень 96.5 %
Качество трека 99.8 %
CRC теста 97FC8FC7
CRC копии 97FC8FC7
Копирование... OK
Трек 6
Имя файла C:\Sergei\новая папка\06 - Dio, come ti amo - Доменико Модуньо.wav
Пиковый уровень 94.9 %
Качество трека 100.0 %
CRC теста 4CEF2494
CRC копии 4CEF2494
Копирование... OK
Трек 7
Имя файла C:\Sergei\новая папка\07 - Io - Доменико Модуньо.wav
Пиковый уровень 88.8 %
Качество трека 99.8 %
CRC теста 410FC846
CRC копии 410FC846
Копирование... OK
Трек 8
Имя файла C:\Sergei\новая папка\08 - Il maestro di violino - Доменико Модуньо.wav
Пиковый уровень 97.8 %
Качество трека 99.7 %
CRC теста FE224356
CRC копии FE224356
Копирование... OK
Трек 9
Имя файла C:\Sergei\новая папка\09 - La Lontananza - Доменико Модуньо.wav
Пиковый уровень 96.7 %
Качество трека 99.9 %
CRC теста B34D41C0
CRC копии B34D41C0
Копирование... OK
Трек 10
Имя файла C:\Sergei\новая папка\10 - Piove (Ciao, ciao bambina) - Доменико Модуньо.wav
Пиковый уровень 95.7 %
Качество трека 100.0 %
CRC теста 780B9382
CRC копии 780B9382
Копирование... OK
Трек 11
Имя файла C:\Sergei\новая папка\11 - Ciao, ciao bambina - Далида.wav
Пиковый уровень 87.4 %
Качество трека 100.0 %
CRC теста 4907316D
CRC копии 4907316D
Копирование... OK
Трек 12
Имя файла C:\Sergei\новая папка\12 - Bambino - Далида.wav
Пиковый уровень 84.0 %
Качество трека 100.0 %
CRC теста 3F92C2C9
CRC копии 3F92C2C9
Копирование... OK
Трек 13
Имя файла C:\Sergei\новая папка\13 - Gondolier - Далида.wav
Пиковый уровень 92.5 %
Качество трека 100.0 %
CRC теста 23F46BF1
CRC копии 23F46BF1
Копирование... OK
Трек 14
Имя файла C:\Sergei\новая папка\14 - Come prima - Далида.wav
Пиковый уровень 80.0 %
Качество трека 100.0 %
CRC теста AC17D580
CRC копии AC17D580
Копирование... OK
Трек 15
Имя файла C:\Sergei\новая папка\15 - Il venait d'avoir 18 ans - Далида.wav
Пиковый уровень 70.1 %
Качество трека 100.0 %
CRC теста 4A75024C
CRC копии 4A75024C
Копирование... OK
Трек 16
Имя файла C:\Sergei\новая папка\16 - Paroles, paroles - Далида.wav
Пиковый уровень 80.0 %
Качество трека 100.0 %
CRC теста 9A287364
CRC копии 9A287364
Копирование... OK
Трек 17
Имя файла C:\Sergei\новая папка\17 - Gigi l'amoroso - Далида.wav
Пиковый уровень 93.0 %
Качество трека 100.0 %
CRC теста 48083A7F
CRC копии 48083A7F
Копирование... OK
Трек 18
Имя файла C:\Sergei\новая папка\18 - J'attendrai - Далида.wav
Пиковый уровень 66.8 %
Качество трека 100.0 %
CRC теста F3EE94A4
CRC копии F3EE94A4
Копирование... OK
Трек 19
Имя файла C:\Sergei\новая папка\19 - Salma Ya Salama - Далида.wav
Пиковый уровень 81.3 %
Качество трека 99.9 %
CRC теста 2CF8D9F6
CRC копии 2CF8D9F6
Копирование... OK
Трек 20
Имя файла C:\Sergei\новая папка\20 - Laissez-moi danser (Monday, Tuesday) - Далида.wav
Пиковый уровень 84.8 %
Качество трека 100.0 %
CRC теста 360AEF81
CRC копии 360AEF81
Копирование... OK
Ошибок не произошло
Конец отчёта
"Non-compilant CUE"
REM GENRE Instrumental
REM DATE 2011
REM DISCID 14104C14
REM COMMENT "ExactAudioCopy v0.95b3"
PERFORMER "Various"
TITLE "Легенды французской и итальянской эстрады (CD3) - Доменико Модуньо и Далида (РД)"
FILE "01 - Nel blu dipinto di blu (Volare) - Доменико Модуньо.wav" WAVE
TRACK 01 AUDIO
TITLE "Доменико Модуньо"
PERFORMER "Nel blu dipinto di blu (Volare)"
INDEX 01 00:00:00
FILE "02 - La donna riccia - , Доменико Модуньо.wav" WAVE
TRACK 02 AUDIO
TITLE "/ Доменико Модуньо"
PERFORMER "La donna riccia"
INDEX 01 00:00:00
FILE "03 - Vecchio frack - Доменико Модуньо.wav" WAVE
TRACK 03 AUDIO
TITLE "Доменико Модуньо"
PERFORMER "Vecchio frack"
INDEX 01 00:00:00
FILE "04 - Resta cu'mme - Доменико Модуньо.wav" WAVE
TRACK 04 AUDIO
TITLE "Доменико Модуньо"
PERFORMER "Resta cu'mme"
INDEX 01 00:00:00
FILE "05 - 'U pisci spada - , Доменико Модуньо.wav" WAVE
TRACK 05 AUDIO
TITLE "/ Доменико Модуньо"
PERFORMER "'U pisci spada"
INDEX 01 00:00:00
FILE "06 - Dio, come ti amo - Доменико Модуньо.wav" WAVE
TRACK 06 AUDIO
TITLE "Доменико Модуньо"
PERFORMER "Dio, come ti amo"
INDEX 01 00:00:00
FILE "07 - Io - Доменико Модуньо.wav" WAVE
TRACK 07 AUDIO
TITLE "Доменико Модуньо"
PERFORMER "Io"
INDEX 01 00:00:00
FILE "08 - Il maestro di violino - Доменико Модуньо.wav" WAVE
TRACK 08 AUDIO
TITLE "Доменико Модуньо"
PERFORMER "Il maestro di violino"
INDEX 01 00:00:00
FILE "09 - La Lontananza - Доменико Модуньо.wav" WAVE
TRACK 09 AUDIO
TITLE "Доменико Модуньо"
PERFORMER "La Lontananza"
INDEX 01 00:00:00
FILE "10 - Piove (Ciao, ciao bambina) - Доменико Модуньо.wav" WAVE
TRACK 10 AUDIO
TITLE "Доменико Модуньо"
PERFORMER "Piove (Ciao, ciao bambina)"
INDEX 01 00:00:00
FILE "11 - Ciao, ciao bambina - Далида.wav" WAVE
TRACK 11 AUDIO
TITLE "Далида"
PERFORMER "Ciao, ciao bambina"
INDEX 01 00:00:00
FILE "12 - Bambino - Далида.wav" WAVE
TRACK 12 AUDIO
TITLE "Далида"
PERFORMER "Bambino"
INDEX 01 00:00:00
FILE "13 - Gondolier - Далида.wav" WAVE
TRACK 13 AUDIO
TITLE "Далида"
PERFORMER "Gondolier"
INDEX 01 00:00:00
FILE "14 - Come prima - Далида.wav" WAVE
TRACK 14 AUDIO
TITLE "Далида"
PERFORMER "Come prima"
INDEX 01 00:00:00
FILE "15 - Il venait d'avoir 18 ans - Далида.wav" WAVE
TRACK 15 AUDIO
TITLE "Далида"
PERFORMER "Il venait d'avoir 18 ans"
INDEX 01 00:00:00
FILE "16 - Paroles, paroles - Далида.wav" WAVE
TRACK 16 AUDIO
TITLE "Далида"
PERFORMER "Paroles, paroles"
INDEX 01 00:00:00
FILE "17 - Gigi l'amoroso - Далида.wav" WAVE
TRACK 17 AUDIO
TITLE "Далида"
PERFORMER "Gigi l'amoroso"
INDEX 01 00:00:00
FILE "18 - J'attendrai - Далида.wav" WAVE
TRACK 18 AUDIO
TITLE "Далида"
PERFORMER "J'attendrai"
INDEX 01 00:00:00
FILE "19 - Salma Ya Salama - Далида.wav" WAVE
TRACK 19 AUDIO
TITLE "Далида"
PERFORMER "Salma Ya Salama"
INDEX 01 00:00:00
FILE "20 - Laissez-moi danser (Monday, Tuesday) - Далида.wav" WAVE
TRACK 20 AUDIO
TITLE "Далида"
PERFORMER "Laissez-moi danser (Monday, Tuesday)"
INDEX 01 00:00:00
"Лог Audiochecker"
AUDIOCHECKER v2.0 beta (build 457) - by Dester - [email protected]
~~~~~~~~~~~~~~~~~~~~~~~~~~~~~~~~~~
-=== НЕ РЕДАКТИРУЙТЕ ЭТОТ ФАЙЛ! ===-
Путь: ...\CD3 - Доменико Модуньо и Далида
01 -=- 01 - Nel blu dipinto di blu (Volare) - Доменико Модуньо.flac -=- CDDA (99%)
02 -=- 02 - La donna riccia - , Доменико Модуньо.flac -=- CDDA (100%)
03 -=- 03 - Vecchio frack - Доменико Модуньо.flac -=- CDDA (100%)
04 -=- 04 - Resta cu'mme - Доменико Модуньо.flac -=- CDDA (100%)
05 -=- 05 - 'U pisci spada - , Доменико Модуньо.flac -=- CDDA (100%)
06 -=- 06 - Dio, come ti amo - Доменико Модуньо.flac -=- CDDA (100%)
07 -=- 07 - Io - Доменико Модуньо.flac -=- CDDA (100%)
08 -=- 08 - Il maestro di violino - Доменико Модуньо.flac -=- CDDA (100%)
09 -=- 09 - La Lontananza - Доменико Модуньо.flac -=- CDDA (100%)
10 -=- 10 - Piove (Ciao, ciao bambina) - Доменико Модуньо.flac -=- CDDA (100%)
11 -=- 11 - Ciao, ciao bambina - Далида.flac -=- CDDA (100%)
12 -=- 12 - Bambino - Далида.flac -=- CDDA (100%)
13 -=- 13 - Gondolier - Далида.flac -=- CDDA (100%)
14 -=- 14 - Come prima - Далида.flac -=- CDDA (100%)
15 -=- 15 - Il venait d'avoir 18 ans - Далида.flac -=- CDDA (100%)
16 -=- 16 - Paroles, paroles - Далида.flac -=- CDDA (100%)
17 -=- 17 - Gigi l'amoroso - Далида.flac -=- CDDA (100%)
18 -=- 18 - J'attendrai - Далида.flac -=- CDDA (100%)
19 -=- 19 - Salma Ya Salama - Далида.flac -=- CDDA (99%)
20 -=- 20 - Laissez-moi danser (Monday, Tuesday) - Далида.flac -=- CDDA (100%)
Сводка 99,90% CDDA
99032484
Трэклист
01 - Solo noi - Тото Кутуньо. (4:07)
02 - L'Italiano - Тото Кутуньо. (3:59)
03 - Serenata - Тото Кутуньо. (3:50)
04 - Mediterraneo - Тото Кутуньо. (4:39)
05 - Napoli - Тото Кутуньо. (4:24)
06 - Emozioni - Тото Кутуньо. (4:10)
07 - Et si tu n'existais pas - Тото Кутуньо. (4:22)
08 - L'ete indien - Тото Кутуньо. (5:01)
09 - Voici les cles - Тото Кутуньо. (4:09)
10 - Insieme- 1992 - Тото Кутуньо. (4:30)
11 - Canto di liberta - Аль Бано и Ромина Пауэр. (3:01)
12 - Arrivederci a bahia - Аль Бано и Ромина Пауэр. (3:07)
13 - Angeli - Аль Бано и Ромина Пауэр. (3:32)
14 - Che angelo sei (Amore mio) - Аль Бано и Ромина Пауэр. (3:33)
15 - Canzone blu - Аль Бано и Ромина Пауэр. (3:24)
16 - Felicita - Аль Бано и Ромина Пауэр. (2:41)
17 - Sharazan - Аль Бано и Ромина Пауэр. (4:27)
18 - Ci sara - Аль Бано и Ромина Пауэр. (3:28)
19 - Gli innamorati - Аль Бано и Ромина Пауэр. (2:54)
20 - Magic Oh Magic - Аль Бано и Ромина Пауэр. (3:37)
”Отчет ЕАС”
Отчёт EAC об извлечении, выполненном 25. января 2013, 15:24 для диска:
Various / Легенды французской и итальянской эстрады (CD4) - Тото Кутуньо и Аль Бано и Ромина Пауэр (РД)
Дисковод: _NEC DVD_RW ND-4550A Adapter: 0 ID: 1
Режим чтения: Достоверный (C2: нет, Точный поток: да, Отключение кэша: да)
Коррекция смещения при чтении: 48
Способность читать области Lead-in и Lead-out : Нет
Выходной формат: C:\Program Files\FLAC\flac.exe (Пользовательский кодировщик)
128 kBit/s
Дополнительные параметры: -8 -V -T "ARTIST=%a" -T "TITLE=%t" -T "ALBUM=%g" -T "DATE=%y" -T "TRACKNUMBER=%n" -T "GENRE=%m" -T "COMMENT=EAC FLAC -8" %s
Другие параметры:
Заполнение пропущенных сэмплов тишиной : Да
Удаление блоков с тишиной в начале и конце : Нет
Встроенный Win32-интерфейс для Win NT/2000
Трек 1
Имя файла C:\Sergei\новая папка\01 - Solo noi - Тото Кутуньо.wav
Длина предзазора 0:00:02.00
Пиковый уровень 97.2 %
Качество трека 100.0 %
CRC теста 968CFF61
CRC копии 968CFF61
Копирование... OK
Трек 2
Имя файла C:\Sergei\новая папка\02 - L'Italiano - Тото Кутуньо.wav
Длина предзазора 0:00:02.81
Пиковый уровень 96.9 %
Качество трека 100.0 %
CRC теста 2B4467E3
CRC копии 2B4467E3
Копирование... OK
Трек 3
Имя файла C:\Sergei\новая папка\03 - Serenata - Тото Кутуньо.wav
Длина предзазора 0:00:02.81
Пиковый уровень 98.2 %
Качество трека 99.9 %
CRC теста FB237D91
CRC копии FB237D91
Копирование... OK
Трек 4
Имя файла C:\Sergei\новая папка\04 - Mediterraneo - Тото Кутуньо.wav
Длина предзазора 0:00:02.81
Пиковый уровень 96.0 %
Качество трека 100.0 %
CRC теста 70D13C7A
CRC копии 70D13C7A
Копирование... OK
Трек 5
Имя файла C:\Sergei\новая папка\05 - Napoli - Тото Кутуньо.wav
Длина предзазора 0:00:02.81
Пиковый уровень 97.5 %
Качество трека 100.0 %
CRC теста 4E27DAB4
CRC копии 4E27DAB4
Копирование... OK
Трек 6
Имя файла C:\Sergei\новая папка\06 - Emozioni - Тото Кутуньо.wav
Длина предзазора 0:00:02.72
Пиковый уровень 98.2 %
Качество трека 100.0 %
CRC теста 4B53AA70
CRC копии 4B53AA70
Копирование... OK
Трек 7
Имя файла C:\Sergei\новая папка\07 - Et si tu n'existais pas - Тото Кутуньо.wav
Длина предзазора 0:00:02.81
Пиковый уровень 98.2 %
Качество трека 100.0 %
CRC теста 586036D0
CRC копии 586036D0
Копирование... OK
Трек 8
Имя файла C:\Sergei\новая папка\08 - L'ete indien - Тото Кутуньо.wav
Длина предзазора 0:00:01.66
Пиковый уровень 98.2 %
Качество трека 100.0 %
CRC теста 15F2FDB5
CRC копии 15F2FDB5
Копирование... OK
Трек 9
Имя файла C:\Sergei\новая папка\09 - Voici les cles - Тото Кутуньо.wav
Длина предзазора 0:00:02.81
Пиковый уровень 98.1 %
Качество трека 100.0 %
CRC теста B1DD83E9
CRC копии B1DD83E9
Копирование... OK
Трек 10
Имя файла C:\Sergei\новая папка\10 - Insieme- 1992 - Тото Кутуньо.wav
Длина предзазора 0:00:02.81
Пиковый уровень 98.2 %
Качество трека 99.9 %
CRC теста 7D42955A
CRC копии 7D42955A
Копирование... OK
Трек 11
Имя файла C:\Sergei\новая папка\11 - Canto di liberta - Аль Бано и Ромина Пауэр.wav
Длина предзазора 0:00:04.77
Пиковый уровень 93.3 %
Качество трека 100.0 %
CRC теста DA45C4B4
CRC копии DA45C4B4
Копирование... OK
Трек 12
Имя файла C:\Sergei\новая папка\12 - Arrivederci a bahia - Аль Бано и Ромина Пауэр.wav
Длина предзазора 0:00:02.81
Пиковый уровень 93.3 %
Качество трека 100.0 %
CRC теста 751E61D4
CRC копии 751E61D4
Копирование... OK
Трек 13
Имя файла C:\Sergei\новая папка\13 - Angeli - Аль Бано и Ромина Пауэр.wav
Длина предзазора 0:00:02.81
Пиковый уровень 85.9 %
Качество трека 100.0 %
CRC теста E7F6199F
CRC копии E7F6199F
Копирование... OK
Трек 14
Имя файла C:\Sergei\новая папка\14 - Che angelo sei (Amore mio) - Аль Бано и Ромина Пауэр.wav
Длина предзазора 0:00:02.81
Пиковый уровень 91.9 %
Качество трека 100.0 %
CRC теста 8A6004DB
CRC копии 8A6004DB
Копирование... OK
Трек 15
Имя файла C:\Sergei\новая папка\15 - Canzone blu - Аль Бано и Ромина Пауэр.wav
Длина предзазора 0:00:02.81
Пиковый уровень 92.4 %
Качество трека 100.0 %
CRC теста A68705EF
CRC копии A68705EF
Копирование... OK
Трек 16
Имя файла C:\Sergei\новая папка\16 - Felicita - Аль Бано и Ромина Пауэр.wav
Длина предзазора 0:00:02.81
Пиковый уровень 85.0 %
Качество трека 100.0 %
CRC теста 8CF0E5B1
CRC копии 8CF0E5B1
Копирование... OK
Трек 17
Имя файла C:\Sergei\новая папка\17 - Sharazan - Аль Бано и Ромина Пауэр.wav
Длина предзазора 0:00:01.82
Пиковый уровень 81.3 %
Качество трека 100.0 %
CRC теста A0DF4391
CRC копии A0DF4391
Копирование... OK
Трек 18
Имя файла C:\Sergei\новая папка\18 - Ci sara - Аль Бано и Ромина Пауэр.wav
Длина предзазора 0:00:02.81
Пиковый уровень 94.4 %
Качество трека 100.0 %
CRC теста E3C2BA96
CRC копии E3C2BA96
Копирование... OK
Трек 19
Имя файла C:\Sergei\новая папка\19 - Gli innamorati - Аль Бано и Ромина Пауэр.wav
Длина предзазора 0:00:02.56
Пиковый уровень 95.9 %
Качество трека 100.0 %
CRC теста 3AC75BE0
CRC копии 3AC75BE0
Копирование... OK
Трек 20
Имя файла C:\Sergei\новая папка\20 - Magic Oh Magic - Аль Бано и Ромина Пауэр.wav
Длина предзазора 0:00:02.81
Пиковый уровень 97.5 %
Качество трека 100.0 %
CRC теста E4AF7AD1
CRC копии E4AF7AD1
Копирование... OK
Ошибок не произошло
Конец отчёта
"Non-compilant CUE"
REM GENRE Instrumental
REM DATE 2011
REM DISCID 64121014
REM COMMENT "ExactAudioCopy v0.95b3"
PERFORMER "Various"
TITLE "Легенды французской и итальянской эстрады (CD4) - Тото Кутуньо и Аль Бано и Р..."
FILE "01 - Solo noi - Тото Кутуньо.wav" WAVE
TRACK 01 AUDIO
TITLE "Тото Кутуньо"
PERFORMER "Solo noi"
INDEX 01 00:00:00
TRACK 02 AUDIO
TITLE "Тото Кутуньо"
PERFORMER "L'Italiano"
INDEX 00 04:04:58
FILE "02 - L'Italiano - Тото Кутуньо.wav" WAVE
INDEX 01 00:00:00
TRACK 03 AUDIO
TITLE "Тото Кутуньо"
PERFORMER "Serenata"
INDEX 00 03:56:65
FILE "03 - Serenata - Тото Кутуньо.wav" WAVE
INDEX 01 00:00:00
TRACK 04 AUDIO
TITLE "Тото Кутуньо"
PERFORMER "Mediterraneo"
INDEX 00 03:47:21
FILE "04 - Mediterraneo - Тото Кутуньо.wav" WAVE
INDEX 01 00:00:00
TRACK 05 AUDIO
TITLE "Тото Кутуньо"
PERFORMER "Napoli"
INDEX 00 04:36:29
FILE "05 - Napoli - Тото Кутуньо.wav" WAVE
INDEX 01 00:00:00
TRACK 06 AUDIO
TITLE "Тото Кутуньо"
PERFORMER "Emozioni"
INDEX 00 04:21:37
FILE "06 - Emozioni - Тото Кутуньо.wav" WAVE
INDEX 01 00:00:00
TRACK 07 AUDIO
TITLE "Тото Кутуньо"
PERFORMER "Et si tu n'existais pas"
INDEX 00 04:07:60
FILE "07 - Et si tu n'existais pas - Тото Кутуньо.wav" WAVE
INDEX 01 00:00:00
TRACK 08 AUDIO
TITLE "Тото Кутуньо"
PERFORMER "L'ete indien"
INDEX 00 04:21:14
FILE "08 - L'ete indien - Тото Кутуньо.wav" WAVE
INDEX 01 00:00:00
TRACK 09 AUDIO
TITLE "Тото Кутуньо"
PERFORMER "Voici les cles"
INDEX 00 04:58:45
FILE "09 - Voici les cles - Тото Кутуньо.wav" WAVE
INDEX 01 00:00:00
TRACK 10 AUDIO
TITLE "Тото Кутуньо"
PERFORMER "Insieme: 1992"
INDEX 00 04:06:50
FILE "10 - Insieme- 1992 - Тото Кутуньо.wav" WAVE
INDEX 01 00:00:00
TRACK 11 AUDIO
TITLE "Аль Бано и Ромина Пауэр"
PERFORMER "Canto di liberta"
INDEX 00 04:25:65
FILE "11 - Canto di liberta - Аль Бано и Ромина Пауэр.wav" WAVE
INDEX 01 00:00:00
TRACK 12 AUDIO
TITLE "Аль Бано и Ромина Пауэр"
PERFORMER "Arrivederci a bahia"
INDEX 00 02:58:59
FILE "12 - Arrivederci a bahia - Аль Бано и Ромина Пауэр.wav" WAVE
INDEX 01 00:00:00
TRACK 13 AUDIO
TITLE "Аль Бано и Ромина Пауэр"
PERFORMER "Angeli"
INDEX 00 03:04:53
FILE "13 - Angeli - Аль Бано и Ромина Пауэр.wav" WAVE
INDEX 01 00:00:00
TRACK 14 AUDIO
TITLE "Аль Бано и Ромина Пауэр"
PERFORMER "Che angelo sei (Amore mio)"
INDEX 00 03:29:47
FILE "14 - Che angelo sei (Amore mio) - Аль Бано и Ромина Пауэр.wav" WAVE
INDEX 01 00:00:00
TRACK 15 AUDIO
TITLE "Аль Бано и Ромина Пауэр"
PERFORMER "Canzone blu"
INDEX 00 03:31:13
FILE "15 - Canzone blu - Аль Бано и Ромина Пауэр.wav" WAVE
INDEX 01 00:00:00
TRACK 16 AUDIO
TITLE "Аль Бано и Ромина Пауэр"
PERFORMER "Felicita"
INDEX 00 03:21:67
FILE "16 - Felicita - Аль Бано и Ромина Пауэр.wav" WAVE
INDEX 01 00:00:00
TRACK 17 AUDIO
TITLE "Аль Бано и Ромина Пауэр"
PERFORMER "Sharazan"
INDEX 00 02:40:03
FILE "17 - Sharazan - Аль Бано и Ромина Пауэр.wav" WAVE
INDEX 01 00:00:00
TRACK 18 AUDIO
TITLE "Аль Бано и Ромина Пауэр"
PERFORMER "Ci sara"
INDEX 00 04:24:28
FILE "18 - Ci sara - Аль Бано и Ромина Пауэр.wav" WAVE
INDEX 01 00:00:00
TRACK 19 AUDIO
TITLE "Аль Бано и Ромина Пауэр"
PERFORMER "Gli innamorati"
INDEX 00 03:25:45
FILE "19 - Gli innamorati - Аль Бано и Ромина Пауэр.wav" WAVE
INDEX 01 00:00:00
TRACK 20 AUDIO
TITLE "Аль Бано и Ромина Пауэр"
PERFORMER "Magic Oh Magic"
INDEX 00 02:51:19
FILE "20 - Magic Oh Magic - Аль Бано и Ромина Пауэр.wav" WAVE
INDEX 01 00:00:00
"Лог Audiochecker"
AUDIOCHECKER v2.0 beta (build 457) - by Dester - [email protected]
~~~~~~~~~~~~~~~~~~~~~~~~~~~~~~~~~~
-=== НЕ РЕДАКТИРУЙТЕ ЭТОТ ФАЙЛ! ===-
Путь: ...\CD4 - Тото Кутуньо и Аль Бано и Ромина Пауэр
01 -=- 01 - Solo noi - Тото Кутуньо.flac -=- CDDA (100%)
02 -=- 02 - L'Italiano - Тото Кутуньо.flac -=- CDDA (100%)
03 -=- 03 - Serenata - Тото Кутуньо.flac -=- CDDA (100%)
04 -=- 04 - Mediterraneo - Тото Кутуньо.flac -=- CDDA (100%)
05 -=- 05 - Napoli - Тото Кутуньо.flac -=- CDDA (100%)
06 -=- 06 - Emozioni - Тото Кутуньо.flac -=- CDDA (100%)
07 -=- 07 - Et si tu n'existais pas - Тото Кутуньо.flac -=- CDDA (100%)
08 -=- 08 - L'ete indien - Тото Кутуньо.flac -=- CDDA (100%)
09 -=- 09 - Voici les cles - Тото Кутуньо.flac -=- CDDA (100%)
10 -=- 10 - Insieme- 1992 - Тото Кутуньо.flac -=- CDDA (100%)
11 -=- 11 - Canto di liberta - Аль Бано и Ромина Пауэр.flac -=- CDDA (99%)
12 -=- 12 - Arrivederci a bahia - Аль Бано и Ромина Пауэр.flac -=- CDDA (100%)
13 -=- 13 - Angeli - Аль Бано и Ромина Пауэр.flac -=- CDDA (100%)
14 -=- 14 - Che angelo sei (Amore mio) - Аль Бано и Ромина Пауэр.flac -=- CDDA (100%)
15 -=- 15 - Canzone blu - Аль Бано и Ромина Пауэр.flac -=- CDDA (100%)
16 -=- 16 - Felicita - Аль Бано и Ромина Пауэр.flac -=- CDDA (100%)
17 -=- 17 - Sharazan - Аль Бано и Ромина Пауэр.flac -=- CDDA (100%)
18 -=- 18 - Ci sara - Аль Бано и Ромина Пауэр.flac -=- CDDA (100%)
19 -=- 19 - Gli innamorati - Аль Бано и Ромина Пауэр.flac -=- CDDA (100%)
20 -=- 20 - Magic Oh Magic - Аль Бано и Ромина Пауэр.flac -=- CDDA (100%)
Сводка 99,95% CDDA
184574260
Мы помогаем людям, чтобы они, в свою очередь, помогли нам; таким образом, наши услуги сводятся просто к благодеяниям, которые мы загодя оказываем самим себе. (Франсуа де Ларошфуко)
Download / Скачать

Хотите скачать бесплатно? Зарегистрируйтесь на сайте (ссылка на регистрацию). Pirat.ca - самый быстрый торрент трекер в рунете!

Как скачивать  ·   Что такое торрент  ·   Рейтинг и ограничения

Gyljaka

Корсар

Пост 29-Янв-2013 07:53 (спустя 6 часов)

[Q] 

CHARLI2236, хочу уточнить...
Это только музыка из этих песен (если я правильно понимаю термин Instrumental) или это сами песни?
Спрашиваю потому, что мне как раз нужна только музыка...
[Профиль]  [ЛС] 

CHARLI2236 ®

1212

Пост 29-Янв-2013 13:33 (спустя 5 часов)

[Q] 

314459CHARLI2236, хочу уточнить...
Это только музыка из этих песен (если я правильно понимаю термин Instrumental) или это сами песни?
Спрашиваю потому, что мне как раз нужна только музыка...
это песни со словами.... а тебе нужно искать минусовки...

_________________
[Профиль]  [ЛС] 

Gyljaka

Корсар

Пост 30-Янв-2013 14:11 (спустя 1 день)

[Q] 

это песни со словами.... а тебе нужно искать минусовки...
Понял, спасибо за подсказку.
[Профиль]  [ЛС] 

AnTonyO

Корсар

1075

Пост 30-Янв-2013 23:58 (спустя 9 часов)

[Q] 

CHARLI2236, хочу уточнить...
Это только музыка из этих песен (если я правильно понимаю термин Instrumental) или это сами песни?
Спрашиваю потому, что мне как раз нужна только музыка...
Если честно хотел спросить тоже самое)))

_________________
[Профиль]  [ЛС] 

ЬДим

Пост 07-Сен-2013 00:09 (спустя 7 месяцев 7 дней)

[Q] 

Буьду на раздаче !
[Профиль]  [ЛС] 

Voldemartop

Легенда

1579

Пост 01-Фев-2017 01:41 (спустя 3 года 4 месяца)

[Q] 

Благо Дарю CHARLI2236!!!
Автору респект!!! Лови бочку

_________________


МОИ РАЗДАЧИ
[Профиль]  [ЛС] 
Показать сообщения:    
Ответить на тему

Текущее время: Сегодня 02:45

Часовой пояс: GMT + 4



Вы не можете начинать темы
Вы не можете отвечать на сообщения
Вы не можете редактировать свои сообщения
Вы не можете удалять свои сообщения
Вы не можете голосовать в опросах
Вы не можете прикреплять файлы к сообщениям
Вы не можете скачивать файлы

Майнать ▼