На грани / The Edge (Ли Тамахори / Lee Tamahori) [1997 г., триллер, драма, приключения, BDRip, 720p] AVO (Гаврилов, Неизвестный, Живов, Кашкин)

Ответить на тему
 
Автор
Сообщение

Пост 05-Фев-2017 03:13

[Q] 

leha1975

Гроза морей

На грани / The Edge
Год выпуска: 1997
Производство: США
Жанр: триллер, драма, приключения
Продолжительность: 01:57:33
Перевод: Авторский (одноголосый, закадровый) Гаврилов, Неизвестный, Живов, Кашкин
Режиссер: Ли Тамахори / Lee Tamahori
В ролях: Энтони Хопкинс, Алек Болдуин, Эль Макферсон, Хэролд Перрино, Л. К. Джонс, Кэтлин Уилхойт, Дэвид Линдстед, Марк Кили, Эли Габэй, Ларри Муссер, Келса Кинсли, Гордон Тутусис, медведь Барт
Описание: Миллиардер Чарльз Морс отправляется со своей молодой женой, супермоделью Микки, на Аляску для фотосъемок. Модный профессиональный фотограф Роберт Грин убедил их, что именно там есть место, которое идеально подходит для съемок. В поисках они улетают намного дальше, чем предполагали. Их маленький самолет терпит крушение при столкновении с птицами и падает в озеро. Пилот погиб, остальные спаслись… Но как выжить вдали от цивилизации? Чтобы спастись в лесу, полном диких животных, они должны полагаться только друг на друга. До спасения остается недолго… Но Чарльз начинает подозревать свою жену в связи с Робертом.
Сэмпл , [img]https://rating.kinopoisk.ru/3775.gif[/img]
Качество видео: BDRip
Контейнер: MKV
Стандарт разрешения: 720p
Видео кодек: H.264
Аудио кодек: AC3
Видео: 4 500 kb/s, 1280*544 pixels, 2.35:1, 23.976
Аудио : AC3, 48.0 kHz, 448 kb/s, 6 channels - Гаврилов
Аудио #2: AC3, 48.0 kHz, 256 kb/s, 2 channels - Неизвестный
Аудио #3: AC3, 48.0 kHz, 384 kb/s, 6 channels - Живов
Аудио #4: AC3, 48.0 kHz, 192 kb/s, 2 channels - Кашкин
Неизвестный с моей VHS
E:\PIRAT.CA\РАЗДАЧИ\На грани. 1997. BDRip 720.mkv
General
Unique ID : 195608352401570756171850424354720535357 (0x9328CC5F1BD3CCD7A723325005C1533D)
Complete name : E:\PIRAT.CA\РАЗДАЧИ\На грани. 1997. BDRip 720.mkv
Format : Matroska
Format version : Version 2
File size : 4.74 GiB
Duration : 1h 57mn
Overall bit rate : 5 775 Kbps
Encoded date : UTC 2017-02-04 21:55:55
Writing application : mkvmerge v7.8.0 ('River Man') 32bit built on Apr 3 2015 12:11:22
Writing library : libebml v1.3.1 + libmatroska v1.4.2
Video #1
ID : 1
Format : AVC
Format/Info : Advanced Video Codec
Format profile : High@L4.1
Format settings, CABAC : Yes
Format settings, ReFrames : 12 frames
Codec ID : V_MPEG4/ISO/AVC
Duration : 1h 57mn
Bit rate : 4 500 Kbps
Width : 1 280 pixels
Height : 544 pixels
Display aspect ratio : 2.35:1
Frame rate : 23.976 fps
Color space : YUV
Chroma subsampling : 4:2:0
Bit depth : 8 bits
Scan type : Progressive
Bits/(Pixel*Frame) : 0.270
Stream size : 3.60 GiB (76%)
Writing library : x264 core 146 r2538 121396c
Encoding settings : cabac=1 / ref=12 / deblock=1:-3:-3 / analyse=0x3:0x133 / me=umh / subme=11 / psy=1 / psy_rd=1.00:0.15 / mixed_ref=1 / me_range=32 / chroma_me=1 / trellis=2 / 8x8dct=1 / cqm=0 / deadzone=21,11 / fast_pskip=0 / chroma_qp_offset=-3 / threads=12 / lookahead_threads=2 / sliced_threads=0 / nr=0 / decimate=0 / interlaced=0 / bluray_compat=0 / constrained_intra=0 / bframes=8 / b_pyramid=2 / b_adapt=2 / b_bias=0 / direct=3 / weightb=1 / open_gop=0 / weightp=2 / keyint=250 / keyint_min=23 / scenecut=40 / intra_refresh=0 / rc=2pass / mbtree=0 / bitrate=4500 / ratetol=1.0 / qcomp=0.60 / qpmin=0 / qpmax=69 / qpstep=4 / cplxblur=20.0 / qblur=0.5 / ip_ratio=1.40 / pb_ratio=1.30 / aq=1:1.00
Audio #2
ID : 2
Format : AC-3
Format/Info : Audio Coding 3
Mode extension : CM (complete main)
Codec ID : A_AC3
Duration : 1h 57mn
Bit rate mode : Constant
Bit rate : 448 Kbps
Channel(s) : 6 channels
Channel positions : Front: L C R, Side: L R, LFE
Sampling rate : 48.0 KHz
Bit depth : 16 bits
Compression mode : Lossy
Stream size : 377 MiB (8%)
Title : ГАВРИЛОВ
Language : Russian
Audio #3
ID : 3
Format : AC-3
Format/Info : Audio Coding 3
Mode extension : CM (complete main)
Codec ID : A_AC3
Duration : 1h 57mn
Bit rate mode : Constant
Bit rate : 256 Kbps
Channel(s) : 2 channels
Channel positions : Front: L R
Sampling rate : 48.0 KHz
Bit depth : 16 bits
Compression mode : Lossy
Stream size : 215 MiB (4%)
Title : НЕИЗВЕСТНЫЙ
Language : Russian
Audio #4
ID : 4
Format : AC-3
Format/Info : Audio Coding 3
Mode extension : CM (complete main)
Codec ID : A_AC3
Duration : 1h 57mn
Bit rate mode : Constant
Bit rate : 384 Kbps
Channel(s) : 6 channels
Channel positions : Front: L C R, Side: L R, LFE
Sampling rate : 48.0 KHz
Bit depth : 16 bits
Compression mode : Lossy
Stream size : 323 MiB (7%)
Title : ЖИВОВ
Language : Russian
Audio #5
ID : 5
Format : AC-3
Format/Info : Audio Coding 3
Mode extension : CM (complete main)
Codec ID : A_AC3
Duration : 1h 57mn
Bit rate mode : Constant
Bit rate : 192 Kbps
Channel(s) : 2 channels
Channel positions : Front: L R
Sampling rate : 48.0 KHz
Bit depth : 16 bits
Compression mode : Lossy
Stream size : 161 MiB (3%)
Title : КАШКИН
Language : Russian
avs4x26x.exe: -L x264_64.exe --pass 2 --bitrate 4500 --preset veryslow --tune film --profile high --level 4.1 --deblock -3:-3 --merange 32 --no-fast-pskip --no-dct-decimate --subme 11 --no-mbtree --psnr --ssim --sar 1:1 --stats "C:\Temp\0195.log" --output "C:\Temp\0195.264" "C:\Temp\0195.avs"
raw [info]: 1280x544p 1:1 @ 24000/1001 fps (cfr)
x264 [warning]: --psnr used with psy on: results will be invalid!
x264 [warning]: --tune psnr should be used if attempting to benchmark psnr!
x264 [info]: using SAR=1/1
x264 [info]: using cpu capabilities: MMX2 SSE2Fast SSSE3 SSE4.2 AVX
x264 [info]: profile High, level 4.1
x264 [info]: frame I:1105 Avg QP:17.14 size:102580 PSNR Mean Y:46.54 U:49.83 V:52.02 Avg:47.47 Global:46.94
x264 [info]: frame P:38537 Avg QP:19.71 size: 42878 PSNR Mean Y:44.30 U:48.58 V:52.15 Avg:45.38 Global:44.79
x264 [info]: frame B:129462 Avg QP:21.40 size: 16987 PSNR Mean Y:43.20 U:47.79 V:51.19 Avg:44.33 Global:43.77
x264 [info]: consecutive B-frames: 3.1% 4.6% 8.7% 14.6% 10.9% 49.2% 4.3% 1.8% 2.9%
x264 [info]: mb I I16..4: 8.2% 77.3% 14.5%
x264 [info]: mb P I16..4: 0.5% 21.1% 1.1% P16..4: 28.5% 31.9% 11.1% 1.5% 0.1% skip: 4.1%
x264 [info]: mb B I16..4: 0.1% 1.9% 0.1% B16..8: 35.8% 25.1% 4.3% direct: 8.9% skip:23.9% L0:42.4% L1:40.5% BI:17.1%
x264 [info]: 8x8 transform intra:91.3% inter:59.5%
x264 [info]: direct mvs spatial:98.9% temporal:1.1%
x264 [info]: coded y,uvDC,uvAC intra: 97.1% 90.1% 67.8% inter: 42.0% 39.5% 14.1%
x264 [info]: i16 v,h,dc,p: 23% 14% 12% 52%
x264 [info]: i8 v,h,dc,ddl,ddr,vr,hd,vl,hu: 7% 7% 7% 10% 15% 13% 14% 12% 14%
x264 [info]: i4 v,h,dc,ddl,ddr,vr,hd,vl,hu: 9% 8% 5% 8% 16% 15% 15% 11% 13%
x264 [info]: i8c dc,h,v,p: 45% 21% 16% 19%
x264 [info]: Weighted P-Frames: Y:20.9% UV:9.0%
x264 [info]: ref P L0: 41.1% 12.8% 17.7% 6.8% 5.6% 3.7% 3.5% 2.0% 1.9% 1.5% 1.5% 1.4% 0.4% 0.1%
x264 [info]: ref B L0: 74.9% 11.2% 4.7% 2.5% 1.9% 1.6% 1.2% 0.8% 0.7% 0.4% 0.2%
x264 [info]: ref B L1: 94.0% 6.0%
x264 [info]: SSIM Mean Y:0.9709080 (15.362db)
x264 [info]: PSNR Mean Y:43.470 U:47.980 V:51.417 Avg:44.591 Global:43.999 kb/s:4497.29
Download / Скачать

Хотите скачать бесплатно? Зарегистрируйтесь на сайте (ссылка на регистрацию). Pirat.ca - самый быстрый торрент трекер в рунете!

Как скачивать  ·   Что такое торрент  ·   Рейтинг и ограничения

Показать сообщения:    
Ответить на тему

Текущее время: Сегодня 18:47

Часовой пояс: GMT + 4



Вы не можете начинать темы
Вы не можете отвечать на сообщения
Вы не можете редактировать свои сообщения
Вы не можете удалять свои сообщения
Вы не можете голосовать в опросах
Вы не можете прикреплять файлы к сообщениям
Вы не можете скачивать файлы

Майнать ▼