Уважаемый Гость!
Вы можете поддержать проект и зарегистрироваться у наших партнеров - онлайн-стратегия MyLands. При регистрации в игре Вы получите код, который сможете активировать после регистрации на pirat.ca и получить 1000 дублонов.

Ваш код:
cbfc972db866f9f3df6a6fea4c2549cc4e2f5835
 
     

Простая формальность / Una pura formalità (Джузеппе Торнаторе / Giuseppe Tornatore) [1994 г., триллер, драма, криминал, детектив, BDRip, 720p] MVO + AVO (А. Гаврилов, В. Огородников) + Sub (Rus, Eng)

Ответить на тему
 
Автор
Сообщение

Пост 08-Фев-2017 02:41

[Q] 

somik

-Простая формальность / Una pura formalità-- Производство: Италия, Франция, Orly Films, Sidonie, TF1 Films Production
Год выпуска: 1994 г.
Жанр: триллер, драма, криминал, детектив
Продолжительность: 01:51:16
Мировая премьера: 15 мая 1994
Дата выхода DVD: 11 июня 2008, «Neoclassica»
Перевод 1: Профессиональный (многоголосый, закадровый) [R5]
Перевод 2: Авторский (одноголосый, закадровый) [А. Гаврилов]
Перевод 3: Авторский (одноголосый, закадровый) [В. Огородников]
Режиссер: Джузеппе Торнаторе / Giuseppe Tornatore-В ролях: Жерар Депардье, Роман Полански, Серджо Рубини, Никола Ди Пинто, Тано Чимароза, Паоло Ломбарди, Мария Роза Спаньоло, Альберто Сирони, Джованни Морриконе, Махди Крайем-Описание: Той ночью разразилась страшная гроза. Пытаясь спрятаться, он бежал по улицам, не зная куда, как вдруг путь ему преградили трое. Вскоре он был арестован. За что? В чем его преступление?-
Качество видео: BDRip
Контейнер: MKV
Стандарт разрешения: 720p
Видео кодек: MPEG4 AVC
Аудио кодек: AC3
Видео: 1280x544 at 23.976 fps, [email protected], 4800 kbps avg
Аудио #1: Russian: 48 kHz, AC3, 2/0 (L,R) ch, 192 kbps avg |Многоголосый закадровый, R5|
Аудио #2: Russian: 48 kHz, AC3, 2/0 (L,R) ch, 192 kbps avg |Авторский, А.Гаврилов|
Аудио #3: Russian: 48 kHz, AC3, 2/0 (L,R) ch, 256 kbps avg |Авторский, В.Огородников|
Cубтитры: Russian, English
Формат субтитров: softsub (SRT)
Доп. информация о субтитрах: включаемые
Это первый фильм, который поставил не Роман Полански, и в котором он сыграл одну из главных ролей.
Единственный фильм Джузеппе Торнаторе, где он выступил не только сценаристом и режиссёром, но ещё монтажёром, а также написал для него песню.
В фильме снялся Джованни Морриконе — сын известного композитора Эннио Морриконе.
«Давид» Донателло» за работу художника (Андреа Крисанти — Andrea Crisanti).
Каннский кинофестиваль, 1994 год
Номинации (1):
Золотая пальмовая ветвь
Депардье vs Поланский, г-н Онноф vs. ..
Вне всякого сомнения это один из лучших фильмов Торнаторе.
Его можно смотреть как отличный триллер, если бы не вполне экзистенциальная тревога, которая ощущается зрителем (и не зря!) почти с первого кадра, если бы не странный комиссар (Роман Поланский, и в этой роли никого другого представить теперь невозможно) со странными подручными, если бы не странный, изолированный от мира полицейский участок с дырявой крышей, и постоянно назойливо льющаяся с неба вода — символ многозначный, не только очищения и возрождения, но и символ бессознательного.
И потом, когда некоторый шок от неожиданного финала пройдет, многое встанет не свои места и странности обретут новое символическое звучание. В этом смысле фильм может даже выиграть при повторном просмотре, тем более, что это еще прекрасный пример камерного фильма — триллера, драмы, философской притчи одновременно. Тем более актерский дуэт Роман Поланский — Жерар Депардье заслуживает внимания.
Единственный недостаток — фильм очень литературный по форме, даже тяготеющий к литературе классической, но это не мешает его смотреть, а некоторым вполне придется по вкусу.
9 из 10
Общее
Уникальный идентификатор : 208456424822439745919659035573634070504 (0x9CD33F3FC0C7DF4EB16292F99B69F7E8)
Полное имя : J:\Простая формальность Una pura formalità (1994) BDRip 720p P, A\Простая формальность.1994.BDRip.720p.[pirat.ca].mkv
Формат : Matroska
Версия формата : Version 2
Размер файла : 4,33 Гбайт
Продолжительность : 1 ч. 51 м.
Общий поток : 5575 Кбит/сек
Дата кодирования : UTC 2017-02-07 22:06:09
Программа кодирования : mkvmerge v5.3.0 ('I could have danced') built on Feb 9 2012 10:38:07
Библиотека кодирования : libebml v1.2.3 + libmatroska v1.3.0
Видео
Идентификатор : 1
Формат : AVC
Формат/Информация : Advanced Video Codec
Профиль формата : [email protected]
Параметр CABAC формата : Да
Параметр ReFrames формата : 9 кадров
Идентификатор кодека : V_MPEG4/ISO/AVC
Продолжительность : 1 ч. 51 м.
Битрейт : 4824 Кбит/сек
Ширина : 1280 пикселей
Высота : 544 пикселя
Соотношение сторон : 2,35:1
Режим частоты кадров : Постоянный
Частота кадров : 23,976 (24000/1001) кадра/сек
Цветовое пространство : YUV
Субдискретизация насыщенности : 4:2:0
Битовая глубина : 8 бит
Тип развёртки : Прогрессивная
Бит/(Пиксели*Кадры) : 0.289
Размер потока : 3,75 Гбайт (87%)
Библиотека кодирования : x264 core 146 r2538 121396c
Настройки программы : cabac=1 / ref=9 / deblock=1:-3:-3 / analyse=0x3:0x113 / me=umh / subme=10 / psy=1 / psy_rd=1.00:0.15 / mixed_ref=1 / me_range=32 / chroma_me=1 / trellis=2 / 8x8dct=1 / cqm=0 / deadzone=21,11 / fast_pskip=1 / chroma_qp_offset=-3 / threads=6 / lookahead_threads=1 / sliced_threads=0 / nr=0 / decimate=1 / interlaced=0 / bluray_compat=0 / constrained_intra=0 / bframes=14 / b_pyramid=2 / b_adapt=2 / b_bias=0 / direct=1 / weightb=1 / open_gop=0 / weightp=2 / keyint=230 / keyint_min=23 / scenecut=40 / intra_refresh=0 / rc_lookahead=40 / rc=crf / mbtree=0 / crf=20.0 / qcomp=0.60 / qpmin=0 / qpmax=69 / qpstep=4 / vbv_maxrate=40000 / vbv_bufsize=50000 / crf_max=0.0 / nal_hrd=none / filler=0 / ip_ratio=1.40 / pb_ratio=1.30 / aq=1:1.00
Язык : French
Default : Да
Forced : Нет
Statistics Tags Issue : mkvmerge v8.2.0 ('World of Adventure') 64bit 2016-06-09 03:04:43 / mkvmerge v5.3.0 ('I could have danced') built on Feb 9 2012 10:38:07 2017-02-07 22:06:09
FromStats_BitRate : 4932185
FromStats_Duration : 01:51:16.670000000
FromStats_FrameCount : 160080
FromStats_StreamSize : 4116321570
Аудио #1
Идентификатор : 2
Формат : AC-3
Формат/Информация : Audio Coding 3
Расширение режима : CM (complete main)
Параметр Endianness формата : Big
Идентификатор кодека : A_AC3
Продолжительность : 1 ч. 51 м.
Вид битрейта : Постоянный
Битрейт : 192 Кбит/сек
Каналы : 2 канала
Расположение каналов : Front: L R
Частота : 48,0 КГц
Частота кадров : 31,250 кадров/сек (1536 spf)
Метод сжатия : С потерями
Размер потока : 153 Мбайт (3%)
Заголовок : MVO (R5)
Язык : Russian
Default : Да
Forced : Нет
Statistics Tags Issue : mkvmerge v8.2.0 ('World of Adventure') 64bit 2016-06-09 03:04:43 / mkvmerge v5.3.0 ('I could have danced') built on Feb 9 2012 10:38:07 2017-02-07 22:06:09
FromStats_BitRate : 192000
FromStats_Duration : 01:51:16.704000000
FromStats_FrameCount : 208647
FromStats_StreamSize : 160240896
Аудио #2
Идентификатор : 3
Формат : AC-3
Формат/Информация : Audio Coding 3
Расширение режима : CM (complete main)
Параметр Endianness формата : Big
Идентификатор кодека : A_AC3
Продолжительность : 1 ч. 51 м.
Вид битрейта : Постоянный
Битрейт : 192 Кбит/сек
Каналы : 2 канала
Расположение каналов : Front: L R
Частота : 48,0 КГц
Частота кадров : 31,250 кадров/сек (1536 spf)
Метод сжатия : С потерями
Размер потока : 153 Мбайт (3%)
Заголовок : AVO (Андрей Гаврилов)
Язык : Russian
Default : Нет
Forced : Нет
Statistics Tags Issue : mkvmerge v8.2.0 ('World of Adventure') 64bit 2016-06-09 03:04:43 / mkvmerge v5.3.0 ('I could have danced') built on Feb 9 2012 10:38:07 2017-02-07 22:06:09
FromStats_BitRate : 192000
FromStats_Duration : 01:51:16.704000000
FromStats_FrameCount : 208647
FromStats_StreamSize : 160240896
Аудио #3
Идентификатор : 4
Формат : AC-3
Формат/Информация : Audio Coding 3
Расширение режима : CM (complete main)
Параметр Endianness формата : Big
Идентификатор кодека : A_AC3
Продолжительность : 1 ч. 51 м.
Вид битрейта : Постоянный
Битрейт : 256 Кбит/сек
Каналы : 2 канала
Расположение каналов : Front: L R
Частота : 48,0 КГц
Частота кадров : 31,250 кадров/сек (1536 spf)
Метод сжатия : С потерями
Размер потока : 204 Мбайт (5%)
Заголовок : AVO (В. Огородников)
Язык : Russian
Default : Нет
Forced : Нет
Statistics Tags Issue : mkvmerge v8.2.0 ('World of Adventure') 64bit 2016-06-09 03:04:43 / mkvmerge v5.3.0 ('I could have danced') built on Feb 9 2012 10:38:07 2017-02-07 22:06:09
FromStats_BitRate : 256000
FromStats_Duration : 01:51:16.672000000
FromStats_FrameCount : 208646
FromStats_StreamSize : 213653504
Текст #1
Идентификатор : 5
Формат : UTF-8
Идентификатор кодека : S_TEXT/UTF8
Идентификатор кодека/Информация : UTF-8 Plain Text
Заголовок : русский
Язык : Russian
Default : Нет
Forced : Нет
Statistics Tags Issue : mkvmerge v8.2.0 ('World of Adventure') 64bit 2016-06-09 03:04:43 / mkvmerge v5.3.0 ('I could have danced') built on Feb 9 2012 10:38:07 2017-02-07 22:06:09
FromStats_BitRate : 81
FromStats_Duration : 01:47:28.197000000
FromStats_FrameCount : 1142
FromStats_StreamSize : 65942
Текст #2
Идентификатор : 6
Формат : UTF-8
Идентификатор кодека : S_TEXT/UTF8
Идентификатор кодека/Информация : UTF-8 Plain Text
Заголовок : английский
Язык : English
Default : Нет
Forced : Нет
Statistics Tags Issue : mkvmerge v8.2.0 ('World of Adventure') 64bit 2016-06-09 03:04:43 / mkvmerge v5.3.0 ('I could have danced') built on Feb 9 2012 10:38:07 2017-02-07 22:06:09
FromStats_BitRate : 56
FromStats_Duration : 01:46:22.172000000
FromStats_FrameCount : 1291
FromStats_StreamSize : 44775
Download / Скачать

Хотите скачать бесплатно? Зарегистрируйтесь на сайте (ссылка на регистрацию). Pirat.ca - самый быстрый торрент трекер в рунете!

Как скачивать  ·   Что такое торрент  ·   Рейтинг и ограничения

Показать сообщения:    
Ответить на тему

Текущее время: Сегодня 07:55

Часовой пояс: GMT + 4



Вы не можете начинать темы
Вы не можете отвечать на сообщения
Вы не можете редактировать свои сообщения
Вы не можете удалять свои сообщения
Вы не можете голосовать в опросах
Вы не можете прикреплять файлы к сообщениям
Вы не можете скачивать файлы

▼ Вниз