Шрек Третий / Shrek the Third (Крис Миллер, Раман Хьюи) [2007 г., фэнтези, комедия, мелодрама, приключения, семейный, BDRip-AVC] AVO (Гаврилов, Королев) + Subs (Rus)

Ответить на тему
 
Автор
Сообщение

Пост 21-Ноя-2011 12:54

[Q] 

anton966

Шрек Третий / Shrek the Third
«Да приидет царствие его»
- Год выпуска: 2007
Российская премьера: 17 Maя 2007 (Россия)
Производство: США
Жанр: фэнтези, комедия, мелодрама, приключения
Продолжительность: 01:32:47
Перевод: Авторский (одноголосый) Андрей Гаврилов, Владимир Королев
Субтитры: Русские (srt)
Режиссер: Крис Миллер, Раман Хуи / Chris Miller, Raman Hui
Персонажи:Майк Майерс ... Шрек (голос)
Эдди Мерфи ... Осел (голос)
Камерон Диас ... Принцесса Фиона (голос)
Антонио Бандерас ... Кот в сапогах (голос)
Джули Эндрюс ... Королева (голос)
Джон Клиз ... Король (голос)
Руперт Эверетт ... Prince Charming (голос)
Эрик Айдл ... Мерлин (голос)
Джастин Тимберлейк ... Арти (голос)
Сюзанна Блэйксли ... Evil Queen (голос)
Коди Камерон ... Буратино / Три свиньи (голос)
Ларри Кинг ... Дорис (голос)
Кристофер Найтс ... Слепые мыши / Heckler / Evil Tree # 2 / Guard # 2 (голос)
Джон Красински ... Ланселот (голос)
Ян МакШейн ... Капитан Крюк (голос)
Описание: Королем может быть не каждый — особенно если вы не очень симпатичный великан. Когда Шрэк женился на принцессе Фионе, он меньше всего на свете хотел управлять Далекой-Далекой страной. Такой он невластлюбивый. Однако отец Фионы, король Гарольд, внезапно умирает, и корону должен унаследовать именно Шрэк. Как-никак, он все-таки муж наследницы.
Однако Шрэк наотрез отказывается от бремени власти, и решает отправиться вместе со своими старыми друзьями Ослом и Котом в сапогах на поиски кандидата на трон. Если Шрэк не найдет себе подходящей замены, ему придется управлять сказочной страной самому… и это надолго. Похоже, что король Артур — тот, кто им нужен.
Однако в отсутствие великана его старый враг принц по имени Чарминг замышляет всякие пакости, для чего и возвращается в сказочную страну. Шрэку придется очень постараться, чтобы спасти страну от происков врагов и от возможного переворота...


Качество видео: BDRip-AVC
Контейнер: MKV
Видео кодек: MPEG4-AVC / H.264
Видео: 1152x648 / 2319 kbps / 23,976 fps / 16:9 / High Profile 4.1
Аудио #1: 48 kHz, AC3 Dolby Digital, 3/2 (L,C,R,l,r) + LFE ch, ~448 kbps - Гаврилов
Аудио #2: 48 kHz, AC3 Dolby Digital, 3/2 (L,C,R,l,r) + LFE ch, ~448 kbps - Королев
Формат : Matroska
Версия формата : Version 4 / Version 2
Размер файла : 2,09 Гбайт
Продолжительность : 1 ч. 32 м.
Общий поток : 3217 Кбит/сек
Название фильма : Shrek the Third.2007.BDRip-AVC.Gavrilov.Korolev.Subs -=anton966=-
Дата кодирования : UTC 2017-02-08 06:41:42
Программа кодирования : mkvmerge v8.3.0 ('Over the Horizon') 64bit
Библиотека кодирования : libebml v1.3.1 + libmatroska v1.4.2
Видео
Идентификатор : 1
Формат : AVC
Формат/Информация : Advanced Video Codec
Профиль формата : High@L4.1
Параметр CABAC формата : Да
Параметр ReFrames формата : 11 кадров
Идентификатор кодека : V_MPEG4/ISO/AVC
Продолжительность : 1 ч. 32 м.
Битрейт : 2319 Кбит/сек
Ширина : 1152 пикселя
Высота : 648 пикселей
Соотношение сторон : 16:9
Режим частоты кадров : Постоянный
Частота кадров : 23,976 (23976/1000) кадра/сек
Цветовое пространство : YUV
Субдискретизация насыщенности : 4:2:0
Битовая глубина : 8 бит
Тип развёртки : Прогрессивная
Бит/(Пиксели*Кадры) : 0.130
Размер потока : 1,50 Гбайт (72%)
Библиотека кодирования : x264 core 148 r2744kMod b97ae06
Настройки программы : cabac=1 / ref=11 / deblock=1:-3:-3 / analyse=0x3:0x113 / me=umh / subme=11 / psy=1 / fade_compensate=0.00 / psy_rd=1.05:0.20 / mixed_ref=1 / me_range=32 / chroma_me=1 / trellis=2 / 8x8dct=1 / cqm=0 / deadzone=21,11 / fast_pskip=1 / chroma_qp_offset=-3 / threads=8 / lookahead_threads=8 / sliced_threads=0 / nr=0 / decimate=1 / interlaced=0 / bluray_compat=0 / constrained_intra=0 / bframes=9 / b_pyramid=2 / b_adapt=2 / b_bias=0 / direct=1 / weightb=1 / open_gop=0 / weightp=2 / keyint=250 / keyint_min=23 / scenecut=40 / intra_refresh=0 / rc_lookahead=40 / rc=crf / mbtree=0 / crf=19.5000 / qcomp=0.60 / qpmin=0 / qpmax=69 / qpstep=4 / vbv_maxrate=50000 / vbv_bufsize=62500 / crf_max=0.0 / nal_hrd=none / filler=0 / ip_ratio=1.33 / pb_ratio=1.22 / aq=3:1.00
Язык : English
Default : Да
Forced : Нет
Цветовой диапазон : Limited
Основные цвета : BT.709
Характеристики трансфера : BT.709
Коэффициенты матрицы : BT.709
Аудио #1
Идентификатор : 2
Формат : AC-3
Формат/Информация : Audio Coding 3
Расширение режима : CM (complete main)
Параметр Endianness формата : Big
Идентификатор кодека : A_AC3
Продолжительность : 1 ч. 32 м.
Вид битрейта : Постоянный
Битрейт : 448 Кбит/сек
Каналы : 6 каналов
Расположение каналов : Front: L C R, Side: L R, LFE
Частота : 48,0 КГц
Частота кадров : 31,250 кадров/сек (1536 spf)
Битовая глубина : 16 бит
Метод сжатия : С потерями
Размер потока : 297 Мбайт (14%)
Заголовок : Gavrilov
Язык : Russian
Default : Да
Forced : Нет
Аудио #2
Идентификатор : 3
Формат : AC-3
Формат/Информация : Audio Coding 3
Расширение режима : CM (complete main)
Параметр Endianness формата : Big
Идентификатор кодека : A_AC3
Продолжительность : 1 ч. 32 м.
Вид битрейта : Постоянный
Битрейт : 448 Кбит/сек
Каналы : 6 каналов
Расположение каналов : Front: L C R, Side: L R, LFE
Частота : 48,0 КГц
Частота кадров : 31,250 кадров/сек (1536 spf)
Битовая глубина : 16 бит
Метод сжатия : С потерями
Размер потока : 297 Мбайт (14%)
Заголовок : Korolev
Язык : Russian
Default : Нет
Forced : Нет
Текст
Идентификатор : 4
Формат : UTF-8
Идентификатор кодека : S_TEXT/UTF8
Идентификатор кодека/Информация : UTF-8 Plain Text
Продолжительность : 1 ч. 24 м.
Битрейт : 92 бит/сек
Count of elements : 1067
Размер потока : 57,1 Кбайт (0%)
Язык : Russian
Default : Нет
Forced : Нет
Меню
00:00:00.000 : en:Dinner Theater
00:03:23.912 : en:Far Far Away
00:09:35.032 : en:The King Croaks
00:13:51.372 : en:Fairy Tale Villains Unite
00:17:31.341 : en:Shrek's Nightmare
00:25:15.889 : en:Find Arthur
00:32:16.100 : en:The Party's Over
00:38:35.730 : en:King Artie
00:41:17.016 : en:Mr. Merlin
00:49:15.577 : en:Rapunzel's Betrayal
00:51:55.237 : en:Magic Trip
00:56:51.157 : en:Go Go Away
00:59:24.310 : en:Captured
01:03:30.264 : en:The Queen Rocks
01:07:08.274 : en:Team Awesome
01:10:31.185 : en:Royal Showdown
01:19:44.279 : en:Happily Ever After, After All
01:22:24.773 : en:End Credits
avs [info]: 1152x648p 1:1 @ 2997/125 fps (cfr)
x264 [info]: using SAR=1/1
x264 [info]: using cpu capabilities: MMX2 SSE2Fast SSSE3 SSE4.2 AVX XOP FMA4 FMA3 LZCNT BMI1
x264 [info]: profile High, level 4.1
x264 [info]: cabac=1 ref=11 deblock=1:-3:-3 analyse=0x3:0x113 me=umh subme=11 psy=1 fade_compensate=0.00 psy_rd=1.05:0.20 mixed_ref=1 me_range=32 chroma_me=1 trellis=2 8x8dct=1 cqm=0 deadzone=21,11 fast_pskip=1 chroma_qp_offset=-3 threads=8 lookahead_threads=8 sliced_threads=0 nr=0 decimate=1 interlaced=0 bluray_compat=0 constrained_intra=0 bframes=9 b_pyramid=2 b_adapt=2 b_bias=0 direct=1 weightb=1 open_gop=0 weightp=2 keyint=250 keyint_min=23 scenecut=40 intra_refresh=0 rc_lookahead=40 rc=crf mbtree=0 crf=19.5000 qcomp=0.60 qpmin=0 qpmax=69 qpstep=4 vbv_maxrate=50000 vbv_bufsize=62500 crf_max=0.0 nal_hrd=none filler=0 ip_ratio=1.33 pb_ratio=1.22 aq=3:1.00
x264 [info]: frame I:1254 Avg QP:15.80 size:108710
x264 [info]: frame P:35530 Avg QP:18.26 size: 23320
x264 [info]: frame B:96710 Avg QP:20.34 size: 6710
x264 [info]: consecutive B-frames: 3.0% 7.6% 20.7% 22.9% 17.4% 25.8% 1.4% 0.5% 0.3% 0.4%
x264 [info]: mb I I16..4: 9.3% 71.0% 19.8%
x264 [info]: mb P I16..4: 0.5% 8.3% 1.2% P16..4: 24.2% 26.1% 11.1% 0.0% 0.0% skip:28.7%
x264 [info]: mb B I16..4: 0.1% 0.9% 0.1% B16..8: 24.2% 14.0% 2.4% direct: 3.2% skip:55.1% L0:38.2% L1:45.4% BI:16.4%
x264 [info]: 8x8 transform intra:81.0% inter:51.2%
x264 [info]: coded y,uvDC,uvAC intra: 91.0% 89.6% 72.4% inter: 12.7% 10.9% 2.9%
x264 [info]: i16 v,h,dc,p: 18% 6% 10% 66%
x264 [info]: i8 v,h,dc,ddl,ddr,vr,hd,vl,hu: 12% 10% 7% 9% 12% 12% 12% 12% 15%
x264 [info]: i4 v,h,dc,ddl,ddr,vr,hd,vl,hu: 13% 8% 6% 8% 15% 14% 13% 10% 12%
x264 [info]: i8c dc,h,v,p: 37% 24% 19% 20%
x264 [info]: Weighted P-Frames: Y:2.8% UV:2.2%
x264 [info]: ref P L0: 55.4% 9.9% 14.6% 5.0% 4.0% 2.9% 2.8% 1.5% 1.4% 1.2% 1.4% 0.1% 0.0%
x264 [info]: ref B L0: 81.7% 8.2% 3.9% 1.8% 1.2% 1.0% 1.0% 0.5% 0.4% 0.2%
x264 [info]: ref B L1: 96.2% 3.8%
x264 [info]: kb/s:2318.82
Download / Скачать

Хотите скачать бесплатно? Зарегистрируйтесь на сайте (ссылка на регистрацию). Pirat.ca - самый быстрый торрент трекер в рунете!

Как скачивать  ·   Что такое торрент  ·   Рейтинг и ограничения



Последний раз редактировалось: anton966 (2017-02-08 19:44), всего редактировалось 1 раз

anton966 ®

10851

Пост 08-Фев-2017 20:45 (спустя 5 лет 2 месяца)

[Q] 

.............

_________________
" ...потому что во многой мудрости много печали; и кто умножает познания, умножает скорбь" ( Еккл 1:17,18)
[Профиль]  [ЛС] 
Показать сообщения:    
Ответить на тему

Текущее время: Сегодня 14:56

Часовой пояс: GMT + 4



Вы не можете начинать темы
Вы не можете отвечать на сообщения
Вы не можете редактировать свои сообщения
Вы не можете удалять свои сообщения
Вы не можете голосовать в опросах
Вы не можете прикреплять файлы к сообщениям
Вы не можете скачивать файлы

Майнать ▼