Уважаемый Гость!
Вы можете поддержать проект и зарегистрироваться у наших партнеров - онлайн-стратегия MyLands. При регистрации в игре Вы получите код, который сможете активировать после регистрации на pirat.ca и получить 1000 дублонов.

Ваш код:
269c33af571d9140442bf2c089ea007adc65586e
 
     

Семь / Seven (Дэвид Финчер / David Fincher) [1995 г., Детектив, Триллер, BDRip, 720p] [Remastered] MVO + AVO (Сербин, Гаврилов, Визгунов, Рябов) + original (eng) + Sub (Rus)

Ответить на тему
 
Автор
Сообщение

Пост 07-Ноя-2014 20:43

[Q] 

gross1978

Семь / Seven
«Seven deadly sins. Seven ways to die. Seven ways to kill.»
- Год выпуска: 1995
Производство: США
Жанр: Детектив, Триллер
Продолжительность: 02:06:55
Перевод 1: Профессиональный (многоголосый закадровый) Позитив
Перевод 2: Профессиональный (многоголосый закадровый) FDV
Перевод 3: Профессиональный (многоголосый закадровый) CP Digital
Перевод 4: Профессиональный (многоголосый закадровый) Россия
Перевод 5: Авторский (одноголосый закадровый) Гаврилов
Перевод 6: Авторский (одноголосый закадровый) Сербин
Перевод 7: Авторский (одноголосый закадровый) Визгунов
Перевод 8: Авторский (одноголосый закадровый) Рябов
Оригинальный аудиопоток: английский
Субтитры: Русские (UTF-8)
Режиссер: Дэвид Финчер / David Fincher
В ролях: Брэд Питт / Brad Pitt, Морган Фримэн / Morgan Freeman, Гвинет Пэлтроу / Gwyneth Paltrow, Ричард Раундтри / Richard Roundtree, Р. Ли Эрми / R. Lee Ermey, Джон С. МакГинли / John C. McGinley, Джули Эраскодж, Марк Бун-младший / Mark Boone, Jr., Джон Кассини /John Cassini, Реджиналд И. Кэти / Rginald E. Cathey, Питер Кромби /Peter Crombie, Хоторн Джеймс /Hawthorne James, Кевин Спэйси /Kevin Spacey
Описание: Хемингуэй как-то сказал, что "мир замечательное место, и за него стоит сражаться". Со второй частью этого высказывания детектив Сомерсет (Фримэн) согласен. Он много чего повидал, и до пенсии остается всего несколько дней, когда ему и его напарнику Миллзу (Питт) достается страшное дело серийного убийцы (Спэйси), называющего каждый свой "шедевр" одним из семи смертных грехов. Я не буду рассказывать, как и какой ценой удалось детективам задержать убийцу - этого не позволяет мне сделать сюжетное построение фильма, так как, если вы будете это знать, смотреть будет менее интересно. Хочется заметить одно - все чаще и чаще появляются картины, констатирующие духовный конец американского общества и предвещающие в той или иной форме приход перемен. Особенно неприятно поражает (высказываемая в данном случае в косвенной форме) мысль о необходимости совершить столь ужасающие преступления, чтобы привлечь внимание общества и заставить человека задуматься. Зрителя оставляют в сомнениях: был этот человек безумен, или безумен мир, свыкшийся с тем, что в нем происходит. Болевой порог все выше поднимает планку. Целый ряд таких работ в кинематографе США не говорит о том, что плохо только там - эхо криков и выстрелов отдается и в нашем доме. Нужно только вчитаться с газетные строчки. (c) Иванов М.

Торрент заменен 27.02.2016.
Автор рипа:
Качество видео: BDRip, 720р
Контейнер: MKV
Видео кодек: MPEG4-AVC / H.264
Видео: MPEG4 Video (H264) 1280x536, 23.976fps, 4 031 Kbps, 0.245 bt/px
Аудио#1: 48 kHz, AC3 Dolby Digital, 3/2 (L,C,R,l,r) + LFE ch, ~448.00 kbps avg – Позитив
Аудио#2: 48 kHz, AC3 Dolby Digital, 3/2 (L,C,R,l,r) + LFE ch, ~448.00 kbps avg – FDV
Аудио#3: 48 kHz, AC3 Dolby Digital, 3/2 (L,C,R,l,r) + LFE ch, ~448.00 kbps avg – CP Digital
Аудио#4: 48 kHz, AC3 Dolby Digital, 2/0 (L,R) ~192.00 kbps avg – Россия
Аудио#5: 48 kHz, AC3 Dolby Digital, 3/2 (L,C,R,l,r) + LFE ch, ~448.00 kbps avg – Гаврилов
Аудио#6: 48 kHz, AC3 Dolby Digital, 3/2 (L,C,R,l,r) + LFE ch, ~448.00 kbps avg – Сербин
Аудио#7: 48 kHz, AC3 Dolby Digital, 3/2 (L,C,R,l,r) + LFE ch, ~384.00 kbps avg – Визгунов
Аудио#8: 48 kHz, AC3 Dolby Digital, 3/2 (L,C,R,l,r) + LFE ch, ~448.00 kbps avg – Рябов
Аудио#9: 48 kHz, AC3 Dolby Digital, 3/2 (L,C,R,l,r) + LFE ch, ~448.00 kbps avg – оригинал
Оформление релиза от Anton 966 СПАСИБО.
x264 [info]: frame I:1386 Avg QP:14.66 size:107124
x264 [info]: frame P:38099 Avg QP:15.97 size: 45319
x264 [info]: frame B:143090 Avg QP:19.00 size: 14743
x264 [info]: consecutive B-frames: 1.7% 2.2% 6.2% 13.6% 25.8% 43.5% 5.0% 1.2% 0.6% 0.3%
x264 [info]: mb I I16..4: 7.6% 79.3% 13.1%
x264 [info]: mb P I16..4: 0.3% 16.7% 1.0% P16..4: 25.9% 36.3% 16.1% 2.6% 0.2% skip: 0.9%
x264 [info]: mb B I16..4: 0.0% 2.2% 0.1% B16..8: 36.1% 23.4% 4.7% direct: 5.4% skip:28.1% L0:42.3% L1:45.0% BI:12.7%
x264 [info]: 8x8 transform intra:92.2% inter:52.5%
x264 [info]: coded y,uvDC,uvAC intra: 98.0% 79.2% 65.1% inter: 26.6% 11.9% 2.4%
x264 [info]: i16 v,h,dc,p: 6% 7% 23% 64%
x264 [info]: i8 v,h,dc,ddl,ddr,vr,hd,vl,hu: 9% 8% 18% 9% 12% 10% 11% 10% 12%
x264 [info]: i4 v,h,dc,ddl,ddr,vr,hd,vl,hu: 14% 8% 5% 10% 15% 13% 13% 11% 12%
x264 [info]: i8c dc,h,v,p: 41% 30% 16% 13%
x264 [info]: Weighted P-Frames: Y:11.9% UV:8.1%
x264 [info]: ref P L0: 41.0% 7.5% 19.3% 7.2% 6.7% 4.6% 4.6% 2.3% 2.4% 1.9% 2.1% 0.3% 0.0%
x264 [info]: ref B L0: 72.9% 11.2% 5.3% 3.0% 2.2% 1.9% 1.5% 1.0% 0.6% 0.4%
x264 [info]: ref B L1: 93.9% 6.1%
x264 [info]: kb/s:4186.
Общее
Уникальный идентификатор : 248950176769742638111752851712738573730 (0xBB4A0F5CD2FC3C638565A508CF6FBDA2)
Полное имя : G:\фильмы HD\! новое\Семь (Seven, 1995, BDRip, 720p) 4pm-Gavrilov-Serbin-Vizgunov-Ryabov-eng.mkv
Формат : Matroska
Версия формата : Version 2
Размер файла : 7,00 Гбайт
Продолжительность : 2 ч. 6 м.
Общий поток : 7901 Кбит/сек
Название фильма : rip by Gross
Дата кодирования : UTC 2016-02-18 16:14:49
Программа кодирования : mkvmerge v4.7.0 ('Just Like You Imagined') сборка от Apr 21 2011 01:13:14
Библиотека кодирования : libebml v1.2.0 + libmatroska v1.1.0
Обложка : Yes
Видео
Идентификатор : 1
Формат : AVC
Формат/Информация : Advanced Video Codec
Профиль формата : [email protected]
Параметр CABAC формата : Да
Параметр ReFrames формата : 11 кадров
Идентификатор кодека : V_MPEG4/ISO/AVC
Продолжительность : 2 ч. 6 м.
Битрейт : 4031 Кбит/сек
Ширина : 1280 пикселей
Высота : 536 пикселей
Соотношение сторон : 2,40:1
Режим частоты кадров : Постоянный
Частота кадров : 23,976 кадра/сек
Цветовое пространство : YUV
Субдискретизация насыщенности : 4:2:0
Битовая глубина : 8 бит
Тип развёртки : Прогрессивная
Бит/(Пиксели*Кадры) : 0.245
Размер потока : 3,57 Гбайт (51%)
Библиотека кодирования : x264 core 148 r2638kMod 7599210
Настройки программы : cabac=1 / ref=11 / deblock=1:-3:-3 / analyse=0x3:0x133 / me=umh / subme=11 / psy=1 / fade_compensate=0.00 / psy_rd=1.00:0.05 / mixed_ref=1 / me_range=32 / chroma_me=1 / trellis=2 / 8x8dct=1 / cqm=0 / deadzone=21,11 / fast_pskip=0 / chroma_qp_offset=-3 / threads=9 / lookahead_threads=2 / sliced_threads=0 / nr=0 / decimate=1 / interlaced=0 / bluray_compat=0 / constrained_intra=0 / fgo=0 / bframes=9 / b_pyramid=2 / b_adapt=2 / b_bias=0 / direct=1 / weightb=1 / open_gop=0 / weightp=2 / keyint=250 / keyint_min=23 / scenecut=40 / intra_refresh=0 / rc=crf / mbtree=0 / crf=17.5000 / qcomp=0.60 / qpmin=0 / qpmax=69 / qpstep=4 / ip_ratio=1.40 / pb_ratio=1.30 / aq=1:1.00
Язык : English
Default : Да
Forced : Нет
Аудио #1
Идентификатор : 2
Формат : AC-3
Формат/Информация : Audio Coding 3
Расширение режима : CM (complete main)
Параметр Endianness формата : Big
Идентификатор кодека : A_AC3
Продолжительность : 2 ч. 6 м.
Вид битрейта : Постоянный
Битрейт : 448 Кбит/сек
Каналы : 6 каналов
Расположение каналов : Front: L C R, Side: L R, LFE
Частота : 48,0 КГц
Битовая глубина : 16 бит
Метод сжатия : С потерями
Размер потока : 407 Мбайт (6%)
Заголовок : pm (Позитив)
Язык : Russian
Default : Да
Forced : Нет
Аудио #2
Идентификатор : 3
Формат : AC-3
Формат/Информация : Audio Coding 3
Расширение режима : CM (complete main)
Параметр Endianness формата : Big
Идентификатор кодека : A_AC3
Продолжительность : 2 ч. 6 м.
Вид битрейта : Постоянный
Битрейт : 448 Кбит/сек
Каналы : 6 каналов
Расположение каналов : Front: L C R, Side: L R, LFE
Частота : 48,0 КГц
Битовая глубина : 16 бит
Метод сжатия : С потерями
Размер потока : 407 Мбайт (6%)
Заголовок : pm (FDV)
Язык : Russian
Default : Нет
Forced : Нет
Аудио #3
Идентификатор : 4
Формат : AC-3
Формат/Информация : Audio Coding 3
Расширение режима : CM (complete main)
Параметр Endianness формата : Big
Идентификатор кодека : A_AC3
Продолжительность : 2 ч. 6 м.
Вид битрейта : Постоянный
Битрейт : 448 Кбит/сек
Каналы : 6 каналов
Расположение каналов : Front: L C R, Side: L R, LFE
Частота : 48,0 КГц
Битовая глубина : 16 бит
Метод сжатия : С потерями
Размер потока : 407 Мбайт (6%)
Заголовок : pm (CP Digital)
Язык : Russian
Default : Нет
Forced : Нет
Аудио #4
Идентификатор : 5
Формат : AC-3
Формат/Информация : Audio Coding 3
Расширение режима : CM (complete main)
Параметр Endianness формата : Big
Идентификатор кодека : A_AC3
Продолжительность : 2 ч. 6 м.
Вид битрейта : Постоянный
Битрейт : 192 Кбит/сек
Каналы : 2 канала
Расположение каналов : Front: L R
Частота : 48,0 КГц
Битовая глубина : 16 бит
Метод сжатия : С потерями
Размер потока : 174 Мбайт (2%)
Заголовок : pm (ТК Россия)
Язык : Russian
Default : Нет
Forced : Нет
Аудио #5
Идентификатор : 6
Формат : AC-3
Формат/Информация : Audio Coding 3
Расширение режима : CM (complete main)
Параметр Endianness формата : Big
Идентификатор кодека : A_AC3
Продолжительность : 2 ч. 6 м.
Вид битрейта : Постоянный
Битрейт : 448 Кбит/сек
Каналы : 6 каналов
Расположение каналов : Front: L C R, Side: L R, LFE
Частота : 48,0 КГц
Битовая глубина : 16 бит
Метод сжатия : С потерями
Размер потока : 407 Мбайт (6%)
Заголовок : A1 (Gavrilov)
Язык : Russian
Default : Нет
Forced : Нет
Аудио #6
Идентификатор : 7
Формат : AC-3
Формат/Информация : Audio Coding 3
Расширение режима : CM (complete main)
Параметр Endianness формата : Big
Идентификатор кодека : A_AC3
Продолжительность : 2 ч. 6 м.
Вид битрейта : Постоянный
Битрейт : 448 Кбит/сек
Каналы : 6 каналов
Расположение каналов : Front: L C R, Side: L R, LFE
Частота : 48,0 КГц
Битовая глубина : 16 бит
Метод сжатия : С потерями
Размер потока : 407 Мбайт (6%)
Заголовок : A1 (Serbin)
Язык : Russian
Default : Нет
Forced : Нет
Аудио #7
Идентификатор : 8
Формат : AC-3
Формат/Информация : Audio Coding 3
Расширение режима : CM (complete main)
Параметр Endianness формата : Big
Идентификатор кодека : A_AC3
Продолжительность : 2 ч. 6 м.
Вид битрейта : Постоянный
Битрейт : 384 Кбит/сек
Каналы : 6 каналов
Расположение каналов : Front: L C R, Side: L R, LFE
Частота : 48,0 КГц
Битовая глубина : 16 бит
Метод сжатия : С потерями
Размер потока : 349 Мбайт (5%)
Заголовок : A1 (Vizgunov)
Язык : Russian
Default : Нет
Forced : Нет
Аудио #8
Идентификатор : 9
Формат : AC-3
Формат/Информация : Audio Coding 3
Расширение режима : CM (complete main)
Параметр Endianness формата : Big
Идентификатор кодека : A_AC3
Продолжительность : 2 ч. 6 м.
Вид битрейта : Постоянный
Битрейт : 448 Кбит/сек
Каналы : 6 каналов
Расположение каналов : Front: L C R, Side: L R, LFE
Частота : 48,0 КГц
Битовая глубина : 16 бит
Метод сжатия : С потерями
Размер потока : 407 Мбайт (6%)
Заголовок : A1 (Ryabov)
Язык : Russian
Default : Нет
Forced : Нет
Аудио #9
Идентификатор : 10
Формат : AC-3
Формат/Информация : Audio Coding 3
Расширение режима : CM (complete main)
Параметр Endianness формата : Big
Идентификатор кодека : A_AC3
Продолжительность : 2 ч. 6 м.
Вид битрейта : Постоянный
Битрейт : 448 Кбит/сек
Каналы : 6 каналов
Расположение каналов : Front: L C R, Side: L R, LFE
Частота : 48,0 КГц
Битовая глубина : 16 бит
Метод сжатия : С потерями
Размер потока : 407 Мбайт (6%)
Заголовок : original
Язык : English
Default : Нет
Forced : Нет
Текст #1
Идентификатор : 11
Формат : UTF-8
Идентификатор кодека : S_TEXT/UTF8
Идентификатор кодека/Информация : UTF-8 Plain Text
Заголовок : Positive (Tol'ko nadpisi)
Язык : Russian
Default : Нет
Forced : Нет
Текст #2
Идентификатор : 12
Формат : UTF-8
Идентификатор кодека : S_TEXT/UTF8
Идентификатор кодека/Информация : UTF-8 Plain Text
Заголовок : Positiv
Язык : Russian
Default : Нет
Forced : Нет
Текст #3
Идентификатор : 13
Формат : UTF-8
Идентификатор кодека : S_TEXT/UTF8
Идентификатор кодека/Информация : UTF-8 Plain Text
Заголовок : CP Digital
Язык : Russian
Default : Нет
Forced : Нет
Текст #4
Идентификатор : 14
Формат : UTF-8
Идентификатор кодека : S_TEXT/UTF8
Идентификатор кодека/Информация : UTF-8 Plain Text
Заголовок : FDV
Язык : Russian
Default : Нет
Forced : Нет
Текст #5
Идентификатор : 15
Формат : UTF-8
Идентификатор кодека : S_TEXT/UTF8
Идентификатор кодека/Информация : UTF-8 Plain Text
Язык : English
Default : Нет
Forced : Нет
Текст #6
Идентификатор : 16
Формат : UTF-8
Идентификатор кодека : S_TEXT/UTF8
Идентификатор кодека/Информация : UTF-8 Plain Text
Заголовок : SDH
Язык : English
Default : Нет
Forced : Нет
Меню
00:00:00.000 : en:1. The Last Seven Days
00:04:11.251 : en:2. Main Titles
00:06:19.254 : en:3. Monday
00:07:33.745 : en:4. Gluttony
00:14:47.512 : en:5. Somerset Wants Out
00:17:07.443 : en:6. Tuesday
00:18:11.465 : en:7. Greed
00:21:42.176 : en:8. Seven Deadly Sins
00:24:26.757 : en:9. Hitting The Books
00:29:28.517 : en:10. Wednesday
00:30:27.034 : en:11. Close Quarters
00:33:13.158 : en:12. A Late Supper
00:37:28.455 : en:13. Forced Attrition
00:42:23.541 : en:14. Mrs. Gould
00:43:32.860 : en:15. Help Me
00:47:43.235 : en:16. Thursday
00:50:18.390 : en:17. Sloth
00:54:24.803 : en:18. Feeding Off His Emotions
00:57:28.195 : en:19. Friday
01:01:45.160 : en:20. Methodical, Exacting and Patient
01:04:19.606 : en:21. Who's Reading What
01:07:26.584 : en:22. John Doe
01:14:45.022 : en:23. A Reason to Knock
01:20:34.038 : en:24. "I Admire You"
01:24:07.251 : en:25. Saturday
01:25:04.141 : en:26. Lust
01:28:15.499 : en:27. Apathy is Easy
01:33:05.163 : en:28. Sunday; Pride
01:33:58.800 : en:29. Surrender
01:36:46.968 : en:30. The Deal
01:39:04.480 : en:31. Ready to Move
01:40:53.798 : en:32. "You Won't Miss a Thing"
01:44:05.030 : en:33. The Chosen One
01:50:53.856 : en:34. "It's Close"
01:53:06.196 : en:35. The Package
01:56:56.635 : en:36. Envy and Wrath
02:02:00.313 : en:37. End Credits
Приз Национального совета обозревателей за второплановую мужскую роль (Кевин Спейси — также за участие в фильме «Подозреваемые лица» / The Usual Suspects), «Голубая лента» за лучшую иностранную картину в Японии, главная премия и приз за сценарий на МКФ в Порту.
Оскар, 1996 год
Номинации (1):
Лучший монтаж
Премия канала «MTV», 1996 год
Победитель (3):
Лучший фильм
Самый желанный мужчина (Брэд Питт)
Лучший злодей (Кевин Спейси)
Номинации (1):
Лучший экранный дуэт (Брэд Питт, Морган Фриман)
Британская академия, 1996 год
Номинации (1):
Лучший оригинальный сценарий
Сатурн, 1996 год
Победитель (2):
Лучший сценарий
Лучший грим
Номинации (5):
Лучший режиссер (Дэвид Финчер)
Лучший актер (Морган Фриман)
Лучшая актриса второго плана (Гвинет Пэлтроу)
Лучшая музыка
Лучший приключенческий фильм или боевик
- -
Download / Скачать

Хотите скачать бесплатно? Зарегистрируйтесь на сайте (ссылка на регистрацию). Pirat.ca - самый быстрый торрент трекер в рунете!

Как скачивать  ·   Что такое торрент  ·   Рейтинг и ограничения



Последний раз редактировалось: gross1978 (2016-02-27 21:55), всего редактировалось 3 раз(а)

gross1978 ®

7580

Пост 27-Фев-2016 20:59 (спустя 1 год 3 месяца)

[Q] 

Торрент заменен 27.02.2016.
Выложил более лучший видеоряд.
Кому нужно скачайте заново торрент.
Спасибо.

_________________
Употребляйте правильно слова, и вы избавите мир от половины недоразумений (Р.Декарт).
Если у Вас есть переводы в авторском, которых нет в моих раздачах и желание ими поделиться, пишите, добавим:)
[Профиль]  [ЛС] 

videolover

Шкипер

4

Пост 01-Мар-2016 19:09 (спустя 2 дня 22 часа)

[Q] 

Символично: размер файла и название совпадают. Автору респект!!!
[Профиль]  [ЛС] 

Wolf_Larsen

Флибустьер

1305

Пост 01-Мар-2016 22:54 (спустя 3 часа)

[Q] 

737909Символично: размер файла и название совпадают. Автору респект!!!
Ну да не только у Семи семь гигов размер ещё и семь сидов ca просто мистика какая-то
[Профиль]  [ЛС] 

Hippopotam

Корсар

Пост 11-Фев-2017 14:30 (спустя 11 месяцев 9 дней)

[Q] 

Шедевр. Завидую тем, кто не видел Супер! Всем качать!!!
[Профиль]  [ЛС] 
Показать сообщения:    
Ответить на тему

Текущее время: Сегодня 08:43

Часовой пояс: GMT + 4



Вы не можете начинать темы
Вы не можете отвечать на сообщения
Вы не можете редактировать свои сообщения
Вы не можете удалять свои сообщения
Вы не можете голосовать в опросах
Вы не можете прикреплять файлы к сообщениям
Вы не можете скачивать файлы

▼ Вниз