Ледниковый Период / Ice Age (Крис Уэдж / Chris Wedge, Карлос Салдана / Carlos Saldanha) [2002 г., Мультик, DVD5] AVO (Гаврилов,Королев) + Original Eng

Ответить на тему
 
Автор
Сообщение

Пост 30-Окт-2011 22:56

[Q] 

edsz

Флибустьер

Ледниковый Период / Ice Age
Год выпуска: 2002
Страна: США
Жанр: Мультик
Продолжительность: 01:21:02
Перевод: Авторский А. Гаврилов + В. Королев + Original
Режиссер: Крис Уэдж / Chris Wedge, Карлос Салдана / Carlos Saldanha
В ролях: Рэй Романо / Ray Romano, Джон Легуизамо / John Leguizamo, Денис Лири / Denis Leary, Горан Вишнич / Goran Visnjic, Джек Блэк / Jack Black, Седрик «Развлекатель» / Cedric the Entertainer, Стивен Рут / Stephen Root
Описание: Веселые и опасные приключения героев. 22 тыс. лет назад. Чтобы избежать приближающегося из-за наступления ледникового периода холода, животные мигрируют на юг. Однако некоторые из них все-таки решают остаться — одинокий, угрюмый мамонт Манфред, а также бесшабашный ленивец Сид. Случайно эта парочка наталкивается на человеческого детеныша. Они решаются вернуть его людям и отправляются в путешествие. По пути они встречают саблезубого хитрого тигра. И теперь этой веселой компании предстоят забавные приключения!
Доп. информация: За Гаврилова, спасибо тов.Данхилл
Качество: DVD5
Формат: DVD Video
Видео кодек: MPEG2
Аудио кодек: AC3
Видео: NTSC 16:9 (720x480) VBR Auto Pan&Scan
Аудио #1: AC3, 3/2ch, 448Kbps, Delay 0 mSec - Гаврилов
Аудио #2: AC3, 3/2ch, 448Kbps, Delay 0 mSec - Королев
Аудио #3: AC3, 3/2ch, 448Kbps, Delay 0 mSec - English
Общее
Полное имя : F:\Cartoons\Ice Ige\VIDEO_TS\VTS_07_3.VOB
Формат : MPEG-PS
Размер файла : 1024 Мбайт
Продолжительность : 23 м.
Общий поток : 6010 Кбит/сек
Видео
Идентификатор : 224 (0xE0)
Формат : MPEG Video
Версия формата : Version 2
Профиль формата : [email protected]
Параметр BVOP формата : Да
Параметр матрицы формата : По умолчанию
Продолжительность : 23 м.
Вид битрейта : Переменный
Битрейт : 4546 Кбит/сек
Номинальный битрейт : 9800 Кбит/сек
Ширина : 720 пикс.
Высота : 480 пикс.
Соотношение сторон : 16:9
Частота кадров : 23,976 кадр/сек
Стандарт вещания : Component
Цветовое пространство : YUV
Подвыборка цветности : 4:2:0
Битовая глубина : 8 бит
Тип развёртки : Прогрессивная
Порядок развёртки : 2:3 Pulldown
Метод сжатия : С потерями
Бит/(Пиксели*Кадры) : 0.549
Размер потока : 775 Мбайт (76%)
Аудио #1
Идентификатор : 189 (0xBD)-128 (0x80)
Формат : AC-3
Формат/Информация : Audio Coding 3
Расширение режима : CM (complete main)
Режим смешивания : DVD-Video
Продолжительность : 23 м.
Вид битрейта : Постоянный
Битрейт : 448 Кбит/сек
Канал(ы) : 6 канала(ов)
Расположение каналов : Front: L C R, Side: L R, LFE
Частота : 48,0 КГц
Битовая глубина : 16 бит
Метод сжатия : С потерями
Задержка видео : -338 мс.
Размер потока : 76,3 Мбайт (7%)
Аудио #2
Идентификатор : 189 (0xBD)-129 (0x81)
Формат : AC-3
Формат/Информация : Audio Coding 3
Расширение режима : CM (complete main)
Режим смешивания : DVD-Video
Продолжительность : 23 м.
Вид битрейта : Постоянный
Битрейт : 448 Кбит/сек
Канал(ы) : 6 канала(ов)
Расположение каналов : Front: L C R, Side: L R, LFE
Частота : 48,0 КГц
Битовая глубина : 16 бит
Метод сжатия : С потерями
Задержка видео : -338 мс.
Размер потока : 76,3 Мбайт (7%)
Аудио #3
Идентификатор : 189 (0xBD)-130 (0x82)
Формат : AC-3
Формат/Информация : Audio Coding 3
Расширение режима : CM (complete main)
Режим смешивания : DVD-Video
Продолжительность : 23 м.
Вид битрейта : Постоянный
Битрейт : 448 Кбит/сек
Канал(ы) : 6 канала(ов)
Расположение каналов : Front: L C R, Side: L R, LFE
Частота : 48,0 КГц
Битовая глубина : 16 бит
Метод сжатия : С потерями
Задержка видео : -338 мс.
Размер потока : 76,3 Мбайт (7%)
Текст
Идентификатор : 224 (0xE0)-DVD-2
Формат : EIA-608
Режим смешивания : DVD-Video
Режим смешивания, доп. информаци : Muxed in Video #1
Размер потока : 0,00 байт (0%)
Меню



Download / Скачать

Хотите скачать бесплатно? Зарегистрируйтесь на сайте (ссылка на регистрацию). Pirat.ca - самый быстрый торрент трекер в рунете!

Как скачивать  ·   Что такое торрент  ·   Рейтинг и ограничения



Последний раз редактировалось: edsz (2011-11-04 14:04), всего редактировалось 2 раз(а)

Пост 31-Окт-2011 15:48 (спустя 16 часов)

Топик был перенесен из форума Фильмы с авторским переводом в форум DVD (Фильмы с авторским переводом)

anton966
 

audiolubitel

Корсар

Пост 01-Ноя-2011 22:06 (спустя 1 день 23 часа)

[Q] 

Спасибо!
[Профиль]  [ЛС] 

dunhill200

Корсар

Пост 01-Ноя-2011 22:54 (спустя 48 минут)

[Q] 

edsz,
Посмотрев мульт,настроение обеспечено на целый день
Спасибо за сборку
[Профиль]  [ЛС] 

edsz ®

Флибустьер

1461

Пост 01-Ноя-2011 23:18 (спустя 24 минуты)

[Q] 

audiolubitel,
Не зачто
dunhill200,
Спасибо за Гаврилова!

_________________
"Медведь ни у кого разрешения спрашивать не будет. Надеюсь это всем понятно"
[Профиль]  [ЛС] 

gastello liding

Штурман

Пост 03-Янв-2012 22:59 (спустя 2 месяца 1 день)

[Q] 

ЗУР РАХМАТ!!!!
[Профиль]  [ЛС] 

edsz ®

Флибустьер

1461

Пост 05-Янв-2012 12:41 (спустя 1 день 13 часов)

[Q] 

gastello liding,
И тебе пожалуста

_________________
"Медведь ни у кого разрешения спрашивать не будет. Надеюсь это всем понятно"
[Профиль]  [ЛС] 

ValeraTerechenko

Корсар

142

Пост 28-Фев-2012 18:58 (спустя 1 месяц 23 дня)

[Q] 

Качается медленно am Сидеры помогите))
[Профиль]  [ЛС] 

sode no shirayuki003

Корсар

Пост 01-Окт-2012 18:11 (спустя 7 месяцев 2 дня)

[Q] 


_________________
Пираты были отчаянные люди, известные подвигами, которым не хватало честности, чтобы стать героическими.
[Профиль]  [ЛС] 

svmaxus

Шкипер

Пост 01-Фев-2014 13:59 (спустя 1 год 3 месяца)

[Q] 

Спасибо большое, долго искал первую часть! Супер!
[Профиль]  [ЛС] 

dmitrizu

Морской Волк

Пост 28-Янв-2017 12:47 (спустя 2 года 11 месяцев)

[Q] 

Спасибо Спасибо!!!
[Профиль]  [ЛС] 

hooligan37

Морской Волк

Пост 13-Фев-2017 10:18 (спустя 15 дней)

[Q] 

Спасибо! Спасибо!!!
[Профиль]  [ЛС] 
Показать сообщения:    
Ответить на тему

Текущее время: Сегодня 17:48

Часовой пояс: GMT + 4



Вы не можете начинать темы
Вы не можете отвечать на сообщения
Вы не можете редактировать свои сообщения
Вы не можете удалять свои сообщения
Вы не можете голосовать в опросах
Вы не можете прикреплять файлы к сообщениям
Вы не можете скачивать файлы

Майнать ▼