ХХII Зимние Олимпийские Игры Сочи 2014 / Хоккей на льду, Плей-офф, полуфинал (1/2 финала) / Женщины / США - Швеция (XSPORT - Александр Сухманский) [17.02.2014 г., DVBRip, AVI, RU]

Ответить на тему
 
Автор
Сообщение

Пост 19-Фев-2014 01:00

[Q] 

UcrusPazzo

Хоккей на льду, Плей-офф, полуфинал (1/2 финала) / Женщины
США - Швеция
Жаркие. Зимние. Твои.Официальный сайт "Сочи 2014" -Год выпуска: 17.02.2014 г.
Вид спорта: Хоккей на льду
Участники: США - Швеция (Женщины)
Продолжительность: 01:49:40
Комментатор: Александр Сухманский
Язык комментариев: русский
Автор рипа / записи: tigerabbit-ТВ Канал: -Описание: Шайба (Сочи, Россия) 17 февраля 2014 года, понедельник. 16:30 МСК-Качество видео: DVBRip
Контейнер: AVI
Видео кодек: DivX
Аудио кодек: MP3
Видео: 704x400 (1.76:1), 25 fps, DivX Codec 6.8.5/6.9.1 ~1799 kbps avg, 0.26 bit/pixel
Аудио: 48 kHz, MPEG Layer 3, 2 ch, ~128.00 kbps avg
Хоккей на льду. Расписание и результаты. Скачать.
США: Джесси Веттер (Молли Шаус), Меган Бозек — Энн Шлепер — Келли Стэк — Хилари Найт — Алекс Карпентер, Гиги Марвин — Кейси Беллами — Брианна Декер — Кендалл Койн — Аманда Кессел, Мишель Пикар — Жозефин Пукки — Моник Ламуро — Меган Дугган — Жослин Ламуро, Ли Стеклейн — Джули Чу — Линдси Фрай.
Главный тренер: Кэти Стоун.-Швеция: Валентина Валльнер (Ким Мартин Хассон), Лина Беклин — Эмилия Андерссон — Йенни Ассерхольт — Лина Вестер — Пернилла Винберг, Йозефина Хольмгрен — Эмма Элиассон — Анна Боргквист — Эрика Грам — Эмма Нордин, София Энгстрём — Юханна Олофссон — Сесилия Эстберг — Мария Линд — Мишель Лёвенхильм, Линнеа Бекман — Фанни Раск — Эрика Уден Юханссон.
Главный тренер: Никлас Хёгберг.-Главный судья: Мелани Бордело (Канада).
Общее
Формат : AVI
Формат/Информация : Audio Video Interleave
Размер файла : 1,48 Гбайт
Продолжительность : 1 ч. 49 м.
Общий поток : 1938 Кбит/сек
Библиотека кодирования : VirtualDub build 32817/release
Видео
Идентификатор : 0
Формат : MPEG-4 Visual
Параметр BVOP формата : 1
Параметр QPel формата : Нет
Параметр GMC формата : Без точки перехода
Параметр матрицы формата : Default (H.263)
Режим смешивания : Сжатый битовый поток
Идентификатор кодека : DX50
Идентификатор кодека/Подсказка : DivX 5
Продолжительность : 1 ч. 49 м.
Битрейт : 1800 Кбит/сек
Ширина : 704 пикселя
Высота : 400 пикселей
Соотношение сторон : 16:9
Частота кадров : 25,000 кадров/сек
Цветовое пространство : YUV
Субдискретизация насыщенности : 4:2:0
Битовая глубина : 8 бит
Тип развёртки : Прогрессивная
Метод сжатия : С потерями
Бит/(Пиксели*Кадры) : 0.256
Размер потока : 1,38 Гбайт (93%)
Библиотека кодирования : DivX 6.8.5 (UTC 2009-08-20)
Аудио
Идентификатор : 1
Формат : MPEG Audio
Версия формата : Version 1
Профиль формата : Layer 3
Режим : Joint stereo
Расширение режима : MS Stereo
Идентификатор кодека : 55
Идентификатор кодека/Подсказка : MP3
Продолжительность : 1 ч. 49 м.
Вид битрейта : Постоянный
Битрейт : 128 Кбит/сек
Каналы : 2 канала
Частота : 48,0 КГц
Метод сжатия : С потерями
Размер потока : 100 Мбайт (7%)
Выравнивание : Разделение по промежуткам
Продолжительность промежутка : 40 мс. (1,00 видеокадр)
Время предзагрузки промежутка : 500 мс.
Download / Скачать

Хотите скачать бесплатно? Зарегистрируйтесь на сайте (ссылка на регистрацию). Pirat.ca - самый быстрый торрент трекер в рунете!

Как скачивать  ·   Что такое торрент  ·   Рейтинг и ограничения

Reno-19

Корсар

535

Пост 25-Окт-2014 17:30 (спустя 8 месяцев 6 дней)

[Q] 

Спасибо... Супер!
[Профиль]  [ЛС] 

hooligan37

Морской Волк

Пост 13-Фев-2017 10:42 (спустя 2 года 3 месяца)

[Q] 

Спасибо большое! if 32
[Профиль]  [ЛС] 
Показать сообщения:    
Ответить на тему

Текущее время: Сегодня 22:10

Часовой пояс: GMT + 4



Вы не можете начинать темы
Вы не можете отвечать на сообщения
Вы не можете редактировать свои сообщения
Вы не можете удалять свои сообщения
Вы не можете голосовать в опросах
Вы не можете прикреплять файлы к сообщениям
Вы не можете скачивать файлы

Майнать ▼