Korn ft Corey Taylor - A Different World [2016 г.] (Nu Metal, Alternative Metal) [DVDRip, NTSC, 480p]

Ответить на тему
 
Автор
Сообщение

Пост 14-Фев-2017 00:56

[Q] 

Дядя Вова

Гроза морей

-Korn ft Corey Taylor - A Different World-- Год выпуска: 2016 г.
Страна: Bakersfield, California, U.S.
Жанр: Nu Metal, Alternative Metal
Продолжительность: 00:03:22-Качество видео: DVDRip
Контейнер: MKV
Стандарт разрешения: 480p
Видео кодек: MPEG4 AVC
Аудио кодек: MP3
Видео: : 704 pixels х 480 pixels : 2 041 Kbps : 23.976 fps :
Формат DVD: NTSC
Аудио: : 272 Kbps : 2 channels : 44.1 KHz :-
1. A Different World
General
UniqueID : 236033429286038162890244009501928869567 (0xB192628B0628CA0AA475C90C8D324EBF)
Complete name : G:\Korn_ft_Corey_Taylor-A_Different_World-DVDRip-x264-2016-SRPx\korn_ft_corey_taylor-a_different_world-dvdrip-x264-2016-srpx.mkv
Format : Matroska
File size : 57.1 MiB
Duration : 3mn 22s
Overall bit rate : 2 360 Kbps
Encoded date : UTC 2017-02-10 03:22:13
Writing application : mkvmerge v9.6.0 ('Slave To Your Mind') 64bit
Writing library : libebml v1.3.4 + libmatroska v1.4.5
Video
ID : 1
Format : AVC
Format/Info : Advanced Video Codec
Format profile : [email protected]
Format settings, CABAC : Yes
Format settings, ReFrames : 5 frames
Codec ID : V_MPEG4/ISO/AVC
Duration : 3mn 22s
Bit rate : 2 041 Kbps
Width : 704 pixels
Height : 480 pixels
Display aspect ratio : 16:9
Original display aspect ratio : 16:9
Frame rate : 23.976 fps
Standard : NTSC
Color space : YUV
Chroma subsampling : 4:2:0
Bit depth : 8 bits
Scan type : Progressive
Bits/(Pixel*Frame) : 0.252
Stream size : 49.4 MiB (86%)
Writing library : x264 core 148 r2744 b97ae06
Encoding settings : cabac=1 / ref=5 / deblock=1:-1:-1 / analyse=0x1:0x131 / me=umh / subme=9 / psy=1 / psy_rd=1.00:0.00 / mixed_ref=1 / me_range=24 / chroma_me=1 / trellis=1 / 8x8dct=0 / cqm=0 / deadzone=21,11 / fast_pskip=0 / chroma_qp_offset=-2 / threads=12 / lookahead_threads=3 / sliced_threads=0 / nr=0 / decimate=1 / interlaced=0 / bluray_compat=0 / constrained_intra=0 / bframes=16 / b_pyramid=2 / b_adapt=2 / b_bias=0 / direct=3 / weightb=1 / open_gop=0 / weightp=2 / keyint=250 / keyint_min=23 / scenecut=40 / intra_refresh=0 / rc_lookahead=60 / rc=crf / mbtree=1 / crf=15.0 / qcomp=0.60 / qpmin=0 / qpmax=69 / qpstep=4 / ip_ratio=1.40 / aq=1:1.00
Language : English
Audio
ID : 2
Format : MPEG Audio
Format version : Version 1
Format profile : Layer 3
Mode : Joint stereo
Codec ID : A_MPEG/L3
Codec ID/Hint : MP3
Duration : 3mn 20s
Bit rate mode : Variable
Bit rate : 272 Kbps
Minimum bit rate : 32.0 Kbps
Channel(s) : 2 channels
Sampling rate : 44.1 KHz
Compression mode : Lossy
Video delay : 1s 442ms
Stream size : 6.52 MiB (11%)
Writing library : LAME3.98r
Encoding settings : -m j -V 0 -q 0 -lowpass 19.5 --vbr-new -b 32
Download / Скачать

Хотите скачать бесплатно? Зарегистрируйтесь на сайте (ссылка на регистрацию). Pirat.ca - самый быстрый торрент трекер в рунете!

Как скачивать  ·   Что такое торрент  ·   Рейтинг и ограничения

BilG

Флибустьер

Пост 14-Фев-2017 23:13 (спустя 22 часа)

[Q] 

Спасибо,
Дядя Вова !
Хороший клип. Мне понравилось

_________________
[Профиль]  [ЛС] 
Показать сообщения:    
Ответить на тему

Текущее время: Сегодня 01:37

Часовой пояс: GMT + 4



Вы не можете начинать темы
Вы не можете отвечать на сообщения
Вы не можете редактировать свои сообщения
Вы не можете удалять свои сообщения
Вы не можете голосовать в опросах
Вы не можете прикреплять файлы к сообщениям
Вы не можете скачивать файлы

Майнать ▼