Благая А.В. - Учебник китайского языка. Начальный курс. + Аудиокурс (MP3, WMA, 01:23:35) [2008 г., PDF, RUS]

Ответить на тему
 
Автор
Сообщение

Пост 17-Ноя-2013 14:53

[Q] 

Зоркий Пью

Морской Волк

-Учебник китайского языкаНачальный курс+ Аудиокурс-- Год выпуска: 2008 г.
Автор: Благая А.В.
Жанр: Учебник
Издательство: Цитадель-Трейд
ISBN: 978-5-7717-0045-8
Язык: Русский
Формат: PDF
Качество: Отсканированные страницы
Интерактивное оглавление: Нет
Количество страниц: 544
Аудиокурс: MP3, WMA, 128 kbps, 44 kHz, Stereo-Описание:-Начальный курс китайского языка. Учебник содержит 40 уроков - 3 предварительных и 37 основных. К книге прилагаются два аудио-диска в виде папок. В них содержится 40 аудио-файлов, которые соответствуют урокам книги. В первой папке (диске) аудио-файлы в формате mp3, во второй папке (диске) аудио-файлы в формате wma. Второй диск (папка) является продолжением первого.











Диск(папка) CD1
Продолжительность 00:41:49
Скорость потока 128 кбит в сек
Stereo
Размер 38,3 МБ
Тип элемента - звук в формате MP3
Количество элементов - 21

Общее
Полное имя : Благая-CD1-01.mp3
Формат : MPEG Audio
Размер файла : 7,14 Мбайт
Продолжительность : 7 м. 47 с.
Режим общего битрейта : Постоянный
Общий поток : 128 Кбит/сек
Альбом : No01
Трек : Track / No02
Трек/Положение : 1
Исполнитель : Track
Жанр : Unknown
Библиотека кодирования : LAME3.92
Аудио
Формат : MPEG Audio
Версия формата : Version 1
Профиль формата : Layer 3
Продолжительность : 7 м. 48 с.
Вид битрейта : Постоянный
Битрейт : 128 Кбит/сек
Каналы : 2 канала
Частота : 44,1 КГц
Метод сжатия : С потерями
Размер потока : 7,14 Мбайт (100%)
Библиотека кодирования : LAME3.92
Настройки программы : -m s -V 4 -q 5 -lowpass 13.8 -b 128

Диск (папка) CD2
Продолжительность 00:41:46
Скорость потока 128 кбит в сек
Stereo
Размер 38,5 МБ
Тип элемента - звук в формате WMA
Количество элементов - 19

Общее
Полное имя : CD2\Благая-CD2-01.wma
Формат : Windows Media
Размер файла : 1,88 Мбайт
Продолжительность : 2 м. 2 с.
Режим общего битрейта : Постоянный
Общий поток : 129 Кбит/сек
Максимальный общий битрейт : 129 Кбит/сек
Трек/Положение : 1
Исполнитель : Неизвестный исполнитель
Дата кодирования : UTC 2058-05-04 11:21:20 / UTC 2012-07-24 11:56:29.296
Аудио
Идентификатор : 1
Формат : WMA
Версия формата : Version 2
Идентификатор кодека : 161
Идентификатор кодека/Информация : Windows Media Audio
Описание кодека : Windows Media Audio 9 - 128 kbps, 44 kHz, stereo 1-pass CBR
Продолжительность : 2 м. 2 с.
Вид битрейта : Постоянный
Битрейт : 128 Кбит/сек
Каналы : 2 канала
Частота : 44,1 КГц
Битовая глубина : 16 бит
Размер потока : 1,87 Мбайт (99%)
Язык : English (US)
Download / Скачать

Хотите скачать бесплатно? Зарегистрируйтесь на сайте (ссылка на регистрацию). Pirat.ca - самый быстрый торрент трекер в рунете!

Как скачивать  ·   Что такое торрент  ·   Рейтинг и ограничения



Последний раз редактировалось: Зоркий Пью (2013-11-21 18:01), всего редактировалось 6 раз(а)

alina2001

Штурман

Пост 17-Ноя-2013 15:32 (спустя 38 минут)

[Q] 

Лови бочку спасибо
[Профиль]  [ЛС] 

Пост 26-Ноя-2013 16:10 (спустя 9 дней)

Топик был перенесен из форума Учебники и словари (Трюм) в форум Китайский язык
Эвакуация
 

vladimir_ai

Морской Волк

Пост 10-Апр-2015 17:33 (спустя 1 год 4 месяца)

[Q] 

Ку! Попробуем... однако.
[Профиль]  [ЛС] 

Sharifulla

Корсар

Пост 20-Фев-2017 23:36 (спустя 1 год 10 месяцев)

[Q] 

Объявляем Спасибо!!! благодарность автору
[Профиль]  [ЛС] 
Показать сообщения:    
Ответить на тему

Текущее время: Сегодня 13:17

Часовой пояс: GMT + 4



Вы не можете начинать темы
Вы не можете отвечать на сообщения
Вы не можете редактировать свои сообщения
Вы не можете удалять свои сообщения
Вы не можете голосовать в опросах
Вы не можете прикреплять файлы к сообщениям
Вы не можете скачивать файлы

Майнать ▼