Уважаемый Гость!
Вы можете поддержать проект и зарегистрироваться у наших партнеров - онлайн-стратегия MyLands. При регистрации в игре Вы получите код, который сможете активировать после регистрации на pirat.ca и получить 1000 дублонов.

Ваш код:
d23e35cc32311333deb9b06dcb56734ec3e547bf
 
     

Сквозь горизонт / Event Horizon (Пол В.С. Андерсон / Paul W.S. Anderson) [1997 г., ужасы, фантастика, BDRip, 720р] MVO (Superbit, STS) + DVO (Premier, Tycoon, Гланц и Королева) + AVO (Гаврилов, Живов, Горчаков, Визгунов, Неизвестный) + Original (Eng)

Ответить на тему
 
Автор
Сообщение

Пост 21-Дек-2014 16:09

[Q] 

gross1978

-Сквозь горизонт / Горизонт событий / Event Horizon -- Год выпуска: 1997
Производство: США, Великобритания
Жанр: ужасы, фантастика
Продолжительность: 1:35:57-Перевод 1: Профессиональный (многоголосый закадровый) Superbit
Перевод 2: Профессиональный (многоголосый закадровый) СТС
Перевод 3: Профессиональный (двухголосый закадровый) Премьер
Перевод 4: Профессиональный (двухголосый закадровый) Tycoon
Перевод 5: Профессиональный (двухголосый закадровый) Гланц и королева
Перевод 6: Авторский (одноголосый, закадровый) Гаврилов
Перевод 7: Авторский (одноголосый, закадровый) Живов
Перевод 8: Авторский (одноголосый, закадровый) Горчаков
Перевод 9: Авторский (одноголосый, закадровый) Визгунов
Перевод 10: Любительский (одноголосый, закадровый) Неизвестный
Оригинальный аудиопоток: Английский-Субтитры: Русские (Киномания, Тайкун), Английские
Режиссер: Пол В.С. Андерсон / Paul W.S. Anderson
В ролях: Лоренс Фишбёрн, Сэм Нил, Кэтлин Куинлен, Джоэли Ричардсон, Ричард Т. Джонс, Джек Ноузуорти, Джейсон Айзекс, Шон Пертуи, Питер Маринкер, Холли Чэнт--Описание: 2047 год. Спасательный космический корабль послан к границе Солнечной системы с целью выяснить, что произошло с экипажем первого звездолета, созданного для путешествий со сверхсветовой скоростью и бесследно исчезнувшего при первом же полете. Внезапно появившийся из ниоткуда, он был обнаружен возле далекой планеты Нептун.-- -
Качество видео: BDRip, 720р
Контейнер: MKV
Видео кодек: x.264
Аудио кодек: AC3
Видео: 1280x544, 23.976fps, ~6 005 kbps, 0.360 bit/pixel
Аудио #1: 48 kHz, AC3 Dolby Digital, 3/2 (L,C,R,l,r) + LFE ch, ~448 kbps - Superbit
Аудио #2: 48 kHz, AC3 Dolby Digital, 2/0 (L,R) ch, ~192 kbps - СТС
Аудио #3: 48 kHz, AC3 Dolby Digital, 3/2 (L,C,R,l,r) + LFE ch, ~384 kbps - Премьер
Аудио #4: 48 kHz, AC3 Dolby Digital, 3/2 (L,C,R,l,r) + LFE ch, ~448 kbps - Tycoon
Аудио #5: 48 kHz, AC3 Dolby Digital, 3/2 (L,C,R,l,r) + LFE ch, ~448 kbps - Гланц и Королева
Аудио #6: 48 kHz, AC3 Dolby Digital, 3/2 (L,C,R,l,r) + LFE ch, ~448 kbps - Гаврилов
Аудио #7: 48 kHz, AC3 Dolby Digital, 3/2 (L,C,R,l,r) + LFE ch, ~448 kbps - Живов
Аудио #8: 48 kHz, AC3 Dolby Digital, 3/2 (L,C,R,l,r) + LFE ch, ~448 kbps - Горчаков
Аудио #9: 48 kHz, AC3 Dolby Digital, 3/2 (L,C,R,l,r) + LFE ch, ~448 kbps - Визгунов
Аудио #10: 48 kHz, AC3 Dolby Digital, 2/0 (L,R) ch, ~192 kbps - Неизвестный
Аудио #11: 48 kHz, AC3 Dolby Digital, 3/2 (L,C,R,l,r) + LFE ch, ~640 kbps - оригинал
Формат субтитров: Softsub (SRT)
Торрент обновлен 26.12.2015
Автор рипа:
За дорогу Горчакова спасибо budulai-8,
за дорогу Визгунова спасибо 52246
За дорогу с неизвестным спасибо DeASS
За остальные дороги и исходник огромное спасибо MyxAmoP
За перевод Гаврилова большое спасибо пользователям форумов
hdtracker.org: _MyxAmoP_; Chistobaev; Xerman13; dunhill200; ZeRoNe; Pain_70; Role; kinobbk; Danil6300; Brown15; Denis1980; Dr. Destructo; Loki; shtift; Krasnovv; Отон; rydanes
и Е-180: DeASS; Gross1978; kondratzx; luka69; foxlight; saenwert; Andrey_Tula; michael_p2004; idalgo; kontr; dir; Werewolf77; Wolf_Larsen; Диммон; carnivale; Skoped; chontvari; motel; uchitel538
x264 [info]: frame I:1073 Avg QP:16.36 size:113939
x264 [info]: frame P:30539 Avg QP:17.51 size: 58199
x264 [info]: frame B:106420 Avg QP:20.07 size: 24178
x264 [info]: consecutive B-frames: 3.3% 3.3% 6.9% 12.3% 19.3% 42.5% 7.6% 1.9% 1.9% 1.0%
x264 [info]: mb I I16..4: 5.5% 84.3% 10.2%
x264 [info]: mb P I16..4: 0.2% 32.1% 1.2% P16..4: 21.4% 28.5% 13.3% 2.2% 0.1% skip: 1.0%
x264 [info]: mb B I16..4: 0.0% 6.1% 0.1% B16..8: 36.8% 23.4% 5.7% direct: 6.8% skip:21.0% L0:43.9% L1:43.1% BI:12.9%
x264 [info]: 8x8 transform intra:95.7% inter:56.0%
x264 [info]: coded y,uvDC,uvAC intra: 99.0% 84.5% 64.8% inter: 38.6% 20.8% 2.6%
x264 [info]: i16 v,h,dc,p: 13% 19% 20% 48%
x264 [info]: i8 v,h,dc,ddl,ddr,vr,hd,vl,hu: 8% 6% 19% 10% 13% 11% 11% 11% 12%
x264 [info]: i4 v,h,dc,ddl,ddr,vr,hd,vl,hu: 8% 8% 3% 10% 17% 16% 14% 12% 13%
x264 [info]: i8c dc,h,v,p: 44% 25% 17% 15%
x264 [info]: Weighted P-Frames: Y:32.1% UV:24.3%
x264 [info]: ref P L0: 40.8% 9.8% 17.6% 7.7% 6.4% 4.6% 4.2% 2.3% 2.2% 1.8% 1.9% 0.6% 0.1%
x264 [info]: ref B L0: 69.9% 11.6% 6.2% 3.6% 2.6% 2.2% 1.7% 1.2% 0.7% 0.3%
x264 [info]: ref B L1: 93.0% 7.0%
x264 [info]: kb/s:6215.03
encoded 138032 frames, 3.14 fps, 6215.03 kb/s
Общее
Уникальный идентификатор : 188861117803893630686302483312711487645 (0x8E155405A11A41179F59B1BC655ED09D)
Полное имя : F:\Фильмы архив\_старенькие-хитовые\Горизонт событий (Event Horizon, 1997, BDRip, 720p) 2pm-3p2-Gavrilov-Jivov-Gorchakov-Vizgunov-L1-eng.mkv
Формат : Matroska
Версия формата : Version 2
Размер файла : 7,21 Гбайт
Продолжительность : 1 ч. 35 м.
Общий поток : 10,8 Мбит/сек
Название фильма : rip by Gross
Дата кодирования : UTC 2015-06-09 18:03:22
Программа кодирования : mkvmerge v4.7.0 ('Just Like You Imagined') сборка от Apr 21 2011 01:13:14
Библиотека кодирования : libebml v1.2.0 + libmatroska v1.1.0
Видео
Идентификатор : 1
Формат : AVC
Формат/Информация : Advanced Video Codec
Профиль формата : [email protected]
Параметр CABAC формата : Да
Параметр ReFrames формата : 11 кадров
Идентификатор кодека : V_MPEG4/ISO/AVC
Продолжительность : 1 ч. 35 м.
Битрейт : 6005 Кбит/сек
Ширина : 1280 пикселей
Высота : 544 пикселя
Соотношение сторон : 2,35:1
Режим частоты кадров : Постоянный
Частота кадров : 23,976 кадра/сек
Цветовое пространство : YUV
Субдискретизация насыщенности : 4:2:0
Битовая глубина : 8 бит
Тип развёртки : Прогрессивная
Бит/(Пиксели*Кадры) : 0.360
Размер потока : 4,02 Гбайт (56%)
Библиотека кодирования : x264 core 142 r2431 ac76440
Настройки программы : cabac=1 / ref=11 / deblock=1:-3:-3 / analyse=0x3:0x133 / me=umh / subme=11 / psy=1 / psy_rd=1.00:0.05 / mixed_ref=1 / me_range=32 / chroma_me=1 / trellis=2 / 8x8dct=1 / cqm=0 / deadzone=21,11 / fast_pskip=0 / chroma_qp_offset=-3 / threads=9 / lookahead_threads=2 / sliced_threads=0 / nr=0 / decimate=1 / interlaced=0 / bluray_compat=0 / constrained_intra=0 / bframes=9 / b_pyramid=2 / b_adapt=2 / b_bias=0 / direct=1 / weightb=1 / open_gop=0 / weightp=2 / keyint=250 / keyint_min=23 / scenecut=40 / intra_refresh=0 / rc=crf / mbtree=0 / crf=18.0 / qcomp=0.60 / qpmin=0 / qpmax=69 / qpstep=4 / ip_ratio=1.40 / pb_ratio=1.30 / aq=1:1.00
Язык : English
Default : Да
Forced : Нет
Аудио #1
Идентификатор : 2
Формат : AC-3
Формат/Информация : Audio Coding 3
Расширение режима : CM (complete main)
Параметр Endianness формата : Big
Идентификатор кодека : A_AC3
Продолжительность : 1 ч. 35 м.
Вид битрейта : Постоянный
Битрейт : 448 Кбит/сек
Каналы : 6 каналов
Расположение каналов : Front: L C R, Side: L R, LFE
Частота : 48,0 КГц
Битовая глубина : 16 бит
Метод сжатия : С потерями
Размер потока : 307 Мбайт (4%)
Заголовок : pm (Superbit)
Язык : Russian
Default : Да
Forced : Да
Аудио #2
Идентификатор : 3
Формат : AC-3
Формат/Информация : Audio Coding 3
Расширение режима : CM (complete main)
Параметр Endianness формата : Big
Идентификатор кодека : A_AC3
Продолжительность : 1 ч. 35 м.
Вид битрейта : Постоянный
Битрейт : 192 Кбит/сек
Каналы : 2 канала
Расположение каналов : Front: L R
Частота : 48,0 КГц
Битовая глубина : 16 бит
Метод сжатия : С потерями
Размер потока : 132 Мбайт (2%)
Заголовок : pm (STS)
Язык : Russian
Default : Нет
Forced : Нет
Аудио #3
Идентификатор : 4
Формат : AC-3
Формат/Информация : Audio Coding 3
Расширение режима : CM (complete main)
Параметр Endianness формата : Big
Идентификатор кодека : A_AC3
Продолжительность : 1 ч. 35 м.
Вид битрейта : Постоянный
Битрейт : 384 Кбит/сек
Каналы : 6 каналов
Расположение каналов : Front: L C R, Side: L R, LFE
Частота : 48,0 КГц
Битовая глубина : 16 бит
Метод сжатия : С потерями
Размер потока : 264 Мбайт (4%)
Заголовок : p2 (Premier)
Язык : Russian
Default : Нет
Forced : Нет
Аудио #4
Идентификатор : 5
Формат : AC-3
Формат/Информация : Audio Coding 3
Расширение режима : CM (complete main)
Параметр Endianness формата : Big
Идентификатор кодека : A_AC3
Продолжительность : 1 ч. 35 м.
Вид битрейта : Постоянный
Битрейт : 448 Кбит/сек
Каналы : 6 каналов
Расположение каналов : Front: L C R, Side: L R, LFE
Частота : 48,0 КГц
Битовая глубина : 16 бит
Метод сжатия : С потерями
Размер потока : 307 Мбайт (4%)
Заголовок : p2 (Tycoon)
Язык : Russian
Default : Нет
Forced : Нет
Аудио #5
Идентификатор : 6
Формат : AC-3
Формат/Информация : Audio Coding 3
Расширение режима : CM (complete main)
Параметр Endianness формата : Big
Идентификатор кодека : A_AC3
Продолжительность : 1 ч. 35 м.
Вид битрейта : Постоянный
Битрейт : 448 Кбит/сек
Каналы : 6 каналов
Расположение каналов : Front: L C R, Side: L R, LFE
Частота : 48,0 КГц
Битовая глубина : 16 бит
Метод сжатия : С потерями
Размер потока : 307 Мбайт (4%)
Заголовок : p2 (Glanz i Korileva)
Язык : Russian
Default : Нет
Forced : Нет
Аудио #6
Идентификатор : 7
Формат : AC-3
Формат/Информация : Audio Coding 3
Расширение режима : CM (complete main)
Параметр Endianness формата : Big
Идентификатор кодека : A_AC3
Продолжительность : 1 ч. 35 м.
Вид битрейта : Постоянный
Битрейт : 448 Кбит/сек
Каналы : 6 каналов
Расположение каналов : Front: L C R, Side: L R, LFE
Частота : 48,0 КГц
Битовая глубина : 16 бит
Метод сжатия : С потерями
Размер потока : 307 Мбайт (4%)
Заголовок : A1 (Gavrilov)
Язык : Russian
Default : Нет
Forced : Нет
Аудио #7
Идентификатор : 8
Формат : AC-3
Формат/Информация : Audio Coding 3
Расширение режима : CM (complete main)
Параметр Endianness формата : Big
Идентификатор кодека : A_AC3
Продолжительность : 1 ч. 35 м.
Вид битрейта : Постоянный
Битрейт : 448 Кбит/сек
Каналы : 6 каналов
Расположение каналов : Front: L C R, Side: L R, LFE
Частота : 48,0 КГц
Битовая глубина : 16 бит
Метод сжатия : С потерями
Размер потока : 307 Мбайт (4%)
Заголовок : A1 (Jivov)
Язык : Russian
Default : Нет
Forced : Нет
Аудио #8
Идентификатор : 9
Формат : AC-3
Формат/Информация : Audio Coding 3
Расширение режима : CM (complete main)
Параметр Endianness формата : Big
Идентификатор кодека : A_AC3
Продолжительность : 1 ч. 35 м.
Вид битрейта : Постоянный
Битрейт : 448 Кбит/сек
Каналы : 6 каналов
Расположение каналов : Front: L C R, Side: L R, LFE
Частота : 48,0 КГц
Битовая глубина : 16 бит
Метод сжатия : С потерями
Размер потока : 307 Мбайт (4%)
Заголовок : A1 (Gorchakov)
Язык : Russian
Default : Нет
Forced : Нет
Аудио #9
Идентификатор : 10
Формат : AC-3
Формат/Информация : Audio Coding 3
Расширение режима : CM (complete main)
Параметр Endianness формата : Big
Идентификатор кодека : A_AC3
Продолжительность : 1 ч. 35 м.
Вид битрейта : Постоянный
Битрейт : 448 Кбит/сек
Каналы : 6 каналов
Расположение каналов : Front: L C R, Side: L R, LFE
Частота : 48,0 КГц
Битовая глубина : 16 бит
Метод сжатия : С потерями
Размер потока : 307 Мбайт (4%)
Заголовок : A1 (Vizgunov)
Язык : Russian
Default : Нет
Forced : Нет
Аудио #10
Идентификатор : 11
Формат : AC-3
Формат/Информация : Audio Coding 3
Расширение режима : CM (complete main)
Параметр Endianness формата : Big
Идентификатор кодека : A_AC3
Продолжительность : 1 ч. 35 м.
Вид битрейта : Постоянный
Битрейт : 192 Кбит/сек
Каналы : 2 канала
Расположение каналов : Front: L R
Частота : 48,0 КГц
Битовая глубина : 16 бит
Метод сжатия : С потерями
Размер потока : 132 Мбайт (2%)
Заголовок : L1 (Unknoun)
Язык : Russian
Default : Нет
Forced : Нет
Аудио #11
Идентификатор : 12
Формат : AC-3
Формат/Информация : Audio Coding 3
Расширение режима : CM (complete main)
Параметр Endianness формата : Big
Идентификатор кодека : A_AC3
Продолжительность : 1 ч. 35 м.
Вид битрейта : Постоянный
Битрейт : 640 Кбит/сек
Каналы : 6 каналов
Расположение каналов : Front: L C R, Side: L R, LFE
Частота : 48,0 КГц
Битовая глубина : 16 бит
Метод сжатия : С потерями
Размер потока : 439 Мбайт (6%)
Заголовок : original
Язык : English
Default : Нет
Forced : Нет
Текст #1
Идентификатор : 13
Формат : UTF-8
Идентификатор кодека : S_TEXT/UTF8
Идентификатор кодека/Информация : UTF-8 Plain Text
Заголовок : Киномания
Язык : Russian
Default : Нет
Forced : Нет
Текст #2
Идентификатор : 14
Формат : UTF-8
Идентификатор кодека : S_TEXT/UTF8
Идентификатор кодека/Информация : UTF-8 Plain Text
Заголовок : Tycoon
Язык : Russian
Default : Нет
Forced : Нет
Текст #3
Идентификатор : 15
Формат : UTF-8
Идентификатор кодека : S_TEXT/UTF8
Идентификатор кодека/Информация : UTF-8 Plain Text
Язык : English
Default : Нет
Forced : Нет
- -
Download / Скачать

Хотите скачать бесплатно? Зарегистрируйтесь на сайте (ссылка на регистрацию). Pirat.ca - самый быстрый торрент трекер в рунете!

Как скачивать  ·   Что такое торрент  ·   Рейтинг и ограничения



Последний раз редактировалось: gross1978 (2015-12-27 00:42), всего редактировалось 6 раз(а)

Master Chief

Корсар

581

Пост 21-Дек-2014 19:25 (спустя 3 часа)

[Q] 

Старенький фильмец. Но думаю что можно глянуть еще разок. Автору респект!!! Лови бочку

_________________
[Профиль]  [ЛС] 

RedHawk

Флибустьер

Пост 21-Дек-2014 20:00 (спустя 34 минуты)

[Q] 

старенький, но прикольный...
[Профиль]  [ЛС] 

aleks45k

Штурман

Пост 21-Дек-2014 21:20 (спустя 1 час 20 минут)

[Q] 

я посмотрел бы да скорость маленькая 5дней качать!!!
[Профиль]  [ЛС] 

hads0n

Лоцман

Пост 21-Дек-2014 21:50 (спустя 29 минут)

[Q] 

очень достойный кин!
Рекомендую!
[Профиль]  [ЛС] 

Незнайка

Флибустьер

Пост 21-Дек-2014 22:04 (спустя 13 минут)

[Q] 

спасибо Спасибо!!!
[Профиль]  [ЛС] 

AnastasWolf

3508

Пост 21-Дек-2014 22:55 (спустя 51 минута)

[Q] 

Благодарю! Наконец узнала название интересовавшего фильма. Автору респект!!!

_________________
[Профиль]  [ЛС] 

EDVAR

Легенда

Пост 21-Дек-2014 23:32 (спустя 36 минут)

[Q] 

Спасибо!!!

_________________
"Как других судить-вы судьи.Как себя-вы адвокаты"
[Профиль]  [ЛС] 

nikolass1989

Корсар

91

Пост 22-Дек-2014 00:22 (спустя 50 минут)

[Q] 

.............. Спасибо!!! ..........
[Профиль]  [ЛС] 

Antarres

Легенда

Пост 22-Дек-2014 09:08 (спустя 8 часов)

[Q] 

Thanks!

_________________
[Профиль]  [ЛС] 

gross1978 ®

7598

Пост 07-Июн-2015 12:12 (спустя 5 месяцев 16 дней)

[Q] 

Хотел похэшировать и стать на раздачу, хэш почему то не совпал и файл стал качаться заново, заменив старый. Помогите кто скачать, потерял файл ak

_________________
Употребляйте правильно слова, и вы избавите мир от половины недоразумений (Р.Декарт).
Если у Вас есть переводы в авторском, которых нет в моих раздачах и желание ими поделиться, пишите, добавим:)
[Профиль]  [ЛС] 

gross1978 ®

7598

Пост 07-Июн-2015 18:29 (спустя 6 часов)

[Q] 

Разобрался чего слетел хэш. у меня оказывается в последней версии на 2 перевода больше было.....
СПАСИБО!!!!

_________________
Употребляйте правильно слова, и вы избавите мир от половины недоразумений (Р.Декарт).
Если у Вас есть переводы в авторском, которых нет в моих раздачах и желание ими поделиться, пишите, добавим:)
[Профиль]  [ЛС] 

Юрай

Флибустьер

2724

Пост 07-Июн-2015 21:13 (спустя 2 часа 44 минуты)

[Q] 

Мы, старались!
[Профиль]  [ЛС] 

Barafu

Лоцман

Пост 27-Ноя-2015 11:27 (спустя 5 месяцев 19 дней)

[Q] 

Плин, зачем выкинул английскую дорогу? Токма не говори - место сэкономить. фу
[Профиль]  [ЛС] 

gross1978 ®

7598

Пост 26-Дек-2015 23:59 (спустя 29 дней)

[Q] 

Нечего тут фукать.....
Добавлено спустя 2 минуты 50 секунд:
По просьбе телезрителей релиз обновил.
Какие изменения:
1) добавлены дороги: СТС, Премьер и оригинальная, так ожидаемая отдельными пользователями.
2) заменен рип. качество рипа значительно улучшено.

_________________
Употребляйте правильно слова, и вы избавите мир от половины недоразумений (Р.Декарт).
Если у Вас есть переводы в авторском, которых нет в моих раздачах и желание ими поделиться, пишите, добавим:)
[Профиль]  [ЛС] 

rebel2

Корсар

Пост 27-Дек-2015 00:56 (спустя 57 минут)

[Q] 

Спасибо!
[Профиль]  [ЛС] 

iwaness09

Лоцман

Пост 27-Дек-2015 13:27 (спустя 12 часов)

[Q] 

............. Спасибо!!! .............
[Профиль]  [ЛС] 

Jey1980

Морской Волк

Пост 27-Дек-2015 15:21 (спустя 1 час 53 минуты)

[Q] 

Приятный фильмец! Ностальгия, блин... Спасибо!
[Профиль]  [ЛС] 

Dommi

Морской Волк

Пост 06-Янв-2016 00:39 (спустя 9 дней)

[Q] 

Супер! 1111111111111111111111
[Профиль]  [ЛС] 

dl22

Морской Волк

Пост 22-Авг-2016 12:17 (спустя 7 месяцев 16 дней)

[Q] 

Старая добрая фантастика УЖАСТИК!!! ag Пиратка рулез!!!
[Профиль]  [ЛС] 

Hippopotam

Корсар

Пост 22-Фев-2017 02:13 (спустя 5 месяцев 30 дней)

[Q] 

Галиматья, а не фильм Отказать
[Профиль]  [ЛС] 
Показать сообщения:    
Ответить на тему

Текущее время: Сегодня 07:59

Часовой пояс: GMT + 4



Вы не можете начинать темы
Вы не можете отвечать на сообщения
Вы не можете редактировать свои сообщения
Вы не можете удалять свои сообщения
Вы не можете голосовать в опросах
Вы не можете прикреплять файлы к сообщениям
Вы не можете скачивать файлы

▼ Вниз