Stand Up / Сезон: 03 / Серии: 05 (2015.10.11) (Руслан Белый) [2015 г., Юмористическое шоу, SATRip]

Ответить на тему
 
Автор
Сообщение

Пост 12-Окт-2015 11:28

[Q] 

nbdjod

Флибустьер

-Stand Up-- Производство: Россия, ТНТ
Жанр: Юмористическое шоу
Год выпуска: 2015 г.
Продолжительность: 00:46:19
Мировая премьера: 22 сентября 2013
Перевод: Не требуется
Оригинальный аудиопоток: русский
Режиссер: Руслан Белый-В ролях: Руслан Белый, Слава Комиссаренко, Юлия Ахмедова, Дмитрий Романов, Стас Старовойтов, Тимур Каргинов, Виктор Комаров, Александр Шаляпин-Описание: Stand Up - это взгляд на наши жизненные повседневные ситуации. Это история, которую рассказывает человек на сцене, - обычно очень откровенную. Это правда жизни. Это что-то современное, что-то новое. Это что-то невообразимо оригинальное, яркое, интересное и обязательно смешное. Встречайте...- Качество видео: SATRip
Контейнер: AVI
Видео кодек: XviD
Аудио кодек: MP3
Видео: 1799 Кбит/сек, 720х400, 25,000 кадров/сек
Аудио: 128 Кбит/сек, 2 канала, 48,0 КГц
Cубтитры: отсутствуют
Интересная и смешная ТВ-передача!Здравствуйте! «Stand Up» — это модный жанр в юморе, в котором комик выходит на сцену и рассказывает смешно о вполне обычных вещах, с которыми мы сталкиваемся в повседневной жизни. «Stand up» передачи уже давно существуют на западе, но наконец-то добрались и до нас. Если кто-то плохо понимает, что это за юмор, то могу сказать, что хорошо всем знакомый Павел Воля выступает как раз в этом жанре.
В программе «Stand up» на ТНТ выступает несколько комиков. Причём, что не мало важно, они выступают каждый на свою общую тематику. К примеру там есть следующие персонажи: еврей, который рассказывает о своей жизни и о евреях в целом, примерный семьянин, который повествует о семейной жизни, битбоксер, который рассказывает истории, используя свои навыки, женщина, которая повествует о женских проблемах — этих и других комиков возглавляет Руслан Белый.
Мне очень понравилась данная передача. Люди в ней разговаривают на интересные темы, получается очень смешно, лишь иногда попадаются не сильные выступления, но в своём большинстве — всё очень смешно и интересно. Передачу «Stand Up» хорошо оценят, прежде всего, люди, которым нравится «Comedy Club», ну или хотя бы выступления Павла Воли. А если вы знакомы с данным жанром, то эта программа для вас. Спасибо за внимание!8 из 10
Код:
Общее
Формат                                   : AVI
Формат/Информация                        : Audio Video Interleave
Размер файла                             : 630 Мбайт
Продолжительность                        : 45 м.
Общий поток                              : 1937 Кбит/сек
Библиотека кодирования                   : VirtualDub build 32817/release
Видео
Идентификатор                            : 0
Формат                                   : MPEG-4 Visual
Профиль формата                          : Advanced [email protected]
Параметр BVOP формата                    : 2
Параметр QPel формата                    : Нет
Параметр GMC формата                     : Без точки перехода
Параметр матрицы формата                 : Default (MPEG)
Идентификатор кодека                     : XVID
Идентификатор кодека/Подсказка           : XviD
Продолжительность                        : 45 м.
Битрейт                                  : 1799 Кбит/сек
Ширина                                   : 720 пикселей
Высота                                   : 400 пикселей
Соотношение сторон                       : 16:9
Частота кадров                           : 25,000 кадров/сек
Цветовое пространство                    : YUV
Субдискретизация насыщенности            : 4:2:0
Битовая глубина                          : 8 бит
Тип развёртки                            : Прогрессивная
Метод сжатия                             : С потерями
Бит/(Пиксели*Кадры)                      : 0.250
Размер потока                            : 585 Мбайт (93%)
Библиотека кодирования                   : XviD 1.2.1 (UTC 2008-12-04)
Аудио
Идентификатор                            : 1
Формат                                   : MPEG Audio
Версия формата                           : Version 1
Профиль формата                          : Layer 3
Режим                                    : Joint stereo
Идентификатор кодека                     : 55
Идентификатор кодека/Подсказка           : MP3
Продолжительность                        : 45 м.
Вид битрейта                             : Постоянный
Битрейт                                  : 128 Кбит/сек
Каналы                                   : 2 канала
Частота                                  : 48,0 КГц
Метод сжатия                             : С потерями
Размер потока                            : 41,7 Мбайт (7%)
Выравнивание                             : Разделение по промежуткам
Продолжительность промежутка             : 40  мс. (1,00 видеокадр)
Время предзагрузки промежутка            : 500  мс.
Библиотека кодирования                   : LAME3.99r
Настройки программы                      : -m j -V 4 -q 2 -lowpass 17 -b 128
Download / Скачать

Хотите скачать бесплатно? Зарегистрируйтесь на сайте (ссылка на регистрацию). Pirat.ca - самый быстрый торрент трекер в рунете!

Как скачивать  ·   Что такое торрент  ·   Рейтинг и ограничения

Пост 12-Окт-2015 23:28 (спустя 12 часов)

Топик был перенесен из форума Развлекательные передачи, шоу, юмор (Трюм) в форум Развлекательные передачи и тв-шоу
Андря
 

olmed

Гроза морей

Пост 22-Фев-2017 15:24 (спустя 1 год 4 месяца)

[Q] 

Спасибо!!! Автору респект!!!
[Профиль]  [ЛС] 
Показать сообщения:    
Ответить на тему

Текущее время: Сегодня 21:37

Часовой пояс: GMT + 4



Вы не можете начинать темы
Вы не можете отвечать на сообщения
Вы не можете редактировать свои сообщения
Вы не можете удалять свои сообщения
Вы не можете голосовать в опросах
Вы не можете прикреплять файлы к сообщениям
Вы не можете скачивать файлы

Майнать ▼