[hentai]Oni Chichi: Re-born / 鬼父 Re-born (Нобитомэ Ёта / Nobitome Youta) [OVA (OAV)] [1 из 1] [cen] [2011 г.] [хентай, инцест] [DVDRip] [RUS]

Ответить на тему
 
Автор
Сообщение

Пост 20-Мар-2012 18:46

[Q] 

ara1205

Oni Chichi: Re-born鬼父 Re-born Год выпуска: 2011
Страна: Япония
Жанр: хентай, инцест
Продолжительность: 00:30:07
Тип: OVA (OAV)
Озвучка: Любительская (одноголосая, закадровая) от Alekseevi4 специально для (PIRAT.CA)
Субтитры: отсутствуют
Цензура: Есть
Режиссер: Нобитомэ Ёта / Nobitome Youta
Студия
Описание: Продолжение хентай эпопеи о сексуальных отношениях между похотливым папашей и двумя его дочерьми.

Источник: DVDRip
Формат: AVI
Видео кодек: XviD
Видео: 704х396, 23,976 кадр/сек, 1209 Кбит/сек
Аудио RUS: MP3 2 канала, 48,0 КГц, 192 Кбит/сек
General
Complete name : C:\Users\Юличка\Documents\пиратка\Oni Chichi Re-born\Oni_Chichi_Re-born_[pirat.ca].avi
Format : AVI
Format/Info : Audio Video Interleave
File size : 304 MiB
Duration : 30mn 7s
Overall bit rate : 1 411 Kbps
Video
Format : MPEG-4 Visual
Format profile : Streaming [email protected]
Format settings, BVOP : No
Format settings, QPel : No
Format settings, GMC : No warppoints
Format settings, Matrix : Default
Codec ID : XVID
Codec ID/Hint : XviD
Duration : 30mn 7s
Bit rate : 1 209 Kbps
Width : 704 pixels
Height : 396 pixels
Display aspect ratio : 16/9
Frame rate : 23.976 fps
Original frame rate : 23.975 fps
Resolution : 24 bits
Colorimetry : 4:2:0
Scan type : Progressive
Bits/(Pixel*Frame) : 0.181
Stream size : 261 MiB (86%)
Writing library : XviD 62
Audio
Format : MPEG Audio
Format version : Version 1
Format profile : Layer 3
Codec ID : 55
Codec ID/Hint : MP3
Duration : 30mn 7s
Bit rate mode : Constant
Bit rate : 192 Kbps
Channel(s) : 2 channels
Sampling rate : 48.0 KHz
Resolution : 16 bits
Stream size : 41.4 MiB (14%)
Alignment : Split accross interleaves
Interleave, duration : 42 ms (1.00 video frame)
Writing library : LAMELAME_MAJOR_VERSI
1-эпизод
Download / Скачать

Хотите скачать бесплатно? Зарегистрируйтесь на сайте (ссылка на регистрацию). Pirat.ca - самый быстрый торрент трекер в рунете!

Как скачивать  ·   Что такое торрент  ·   Рейтинг и ограничения



Последний раз редактировалось: ara1205 (2012-04-03 14:29), всего редактировалось 1 раз

Пост 20-Мар-2012 20:43 (спустя 1 час 57 минут)

Топик был перенесен из форума Аниме (Видео) в форум Хентай (Основной раздел)

bota_nik
 

borzuhan

Лоцман

Пост 01-Май-2012 17:57 (спустя 1 месяц 10 дней)

[Q] 

[Профиль]  [ЛС] 

tyulen29

Шкипер

Пост 14-Сен-2013 15:44 (спустя 1 год 4 месяца)

[Q] 

Жаль что с цензурой,всего 3 сцены....
[Профиль]  [ЛС] 

bota_nik

351

Пост 14-Сен-2013 19:24 (спустя 3 часа)

[Q] 

Ньюфагам не понять ценность цензуры :3

_________________
Паранойя - чрезвычайно утешительное состояние ума. Если вам кажется, что против вас что-то замышляют - значит вы что-то да стоите!(с)
[Профиль]  [ЛС] 

s.v.l

Корсар

Пост 01-Мар-2017 21:13 (спустя 3 года 5 месяцев)

[Q] 

tyulen29,
Полностью поддерживаю вас про цензуру. Сомоё печальное это САМОЦЕНЗУРА.
Но я не об этом, а простите о том как ваша аватарка смотрится в эротической ветке пусть и мультяшной...
Ещё раз, tyulen29, простите меня ну не мог удержаться от сорказма...
[Профиль]  [ЛС] 
Показать сообщения:    
Ответить на тему

Текущее время: Сегодня 16:03

Часовой пояс: GMT + 4



Вы не можете начинать темы
Вы не можете отвечать на сообщения
Вы не можете редактировать свои сообщения
Вы не можете удалять свои сообщения
Вы не можете голосовать в опросах
Вы не можете прикреплять файлы к сообщениям
Вы не можете скачивать файлы

Майнать ▼