Уважаемый Гость!
Вы можете поддержать проект и зарегистрироваться у наших партнеров - онлайн-стратегия MyLands. При регистрации в игре Вы получите код, который сможете активировать после регистрации на pirat.ca и получить 1000 дублонов.

Ваш код:
d23e35cc32311333deb9b06dcb56734ec3e547bf
 
     

Walking On Cars - We Dont Eat - Taratata [2016 г.] (Indie Rock, Alternative Rock) [TVRip, 720p]

Ответить на тему
 
Автор
Сообщение

Пост 08-Мар-2017 00:55

[Q] 

Дядя Вова

Гроза морей

-Walking On Cars - We Dont Eat - Taratata-- Год выпуска: 2016 г.
Страна: Dingle, County Kerry, Ireland
Жанр: Indie Rock, Alternative Rock
Студия: Taratata
Продолжительность: 00:01:45-Качество видео: TVRip
Контейнер: MKV
Стандарт разрешения: 720p
Видео кодек: MPEG4 AVC
Аудио кодек: AC-3
Видео: : 1 280 pixels x 720 pixels : 4 348 Kbps : 25.000 fps :
Аудио: : 192 Kbps : 2 channels : 48.0 KHz :-
1. We Dont Eat
General
UniqueID : 193746311383250935050926678274724272117 (0x91C22EA94BDF25A89EC0CEB807EB17F5)
Complete name : G:\Walking_On_Cars-Taratata_(2016-12-16)-720p-x264-2016-SRP\02-walking_on_cars-we_dont_eat.mkv
Format : Matroska
File size : 58.2 MiB
Duration : 1mn 45s
Overall bit rate : 4 632 Kbps
Encoded date : UTC 2017-03-07 11:09:31
Writing application : mkvmerge v9.8.0 ('Kuglblids') 64bit
Writing library : libebml v1.3.4 + libmatroska v1.4.5
Video
ID : 1
Format : AVC
Format/Info : Advanced Video Codec
Format profile : [email protected]
Format settings, CABAC : Yes
Format settings, ReFrames : 5 frames
Format settings, GOP : M=6, N=16
Codec ID : V_MPEG4/ISO/AVC
Duration : 1mn 45s
Bit rate : 4 348 Kbps
Width : 1 280 pixels
Height : 720 pixels
Display aspect ratio : 16:9
Frame rate : 25.000 fps
Color space : YUV
Chroma subsampling : 4:2:0
Bit depth : 8 bits
Scan type : Progressive
Bits/(Pixel*Frame) : 0.189
Stream size : 54.6 MiB (94%)
Writing library : x264 core 148 r2744 b97ae06
Encoding settings : cabac=1 / ref=5 / deblock=1:-1:-1 / analyse=0x3:0x113 / me=umh / subme=9 / psy=1 / psy_rd=1.00:0.00 / mixed_ref=1 / me_range=24 / chroma_me=1 / trellis=2 / 8x8dct=1 / cqm=0 / deadzone=21,11 / fast_pskip=1 / chroma_qp_offset=-2 / threads=12 / lookahead_threads=1 / sliced_threads=0 / nr=0 / decimate=1 / interlaced=0 / bluray_compat=0 / constrained_intra=0 / bframes=16 / b_pyramid=2 / b_adapt=1 / b_bias=0 / direct=3 / weightb=1 / open_gop=0 / weightp=2 / keyint=250 / keyint_min=25 / scenecut=40 / intra_refresh=0 / rc_lookahead=50 / rc=crf / mbtree=1 / crf=18.0 / qcomp=0.60 / qpmin=0 / qpmax=69 / qpstep=4 / ip_ratio=1.40 / aq=1:1.00
Audio
ID : 2
Format : AC-3
Format/Info : Audio Coding 3
Mode extension : CM (complete main)
Codec ID : A_AC3
Duration : 1mn 45s
Bit rate mode : Constant
Bit rate : 192 Kbps
Channel(s) : 2 channels
Channel positions : Front: L R
Sampling rate : 48.0 KHz
Bit depth : 16 bits
Compression mode : Lossy
Stream size : 2.41 MiB (4%)
Language : French
Download / Скачать

Хотите скачать бесплатно? Зарегистрируйтесь на сайте (ссылка на регистрацию). Pirat.ca - самый быстрый торрент трекер в рунете!

Как скачивать  ·   Что такое торрент  ·   Рейтинг и ограничения

Показать сообщения:    
Ответить на тему

Текущее время: Сегодня 08:02

Часовой пояс: GMT + 4



Вы не можете начинать темы
Вы не можете отвечать на сообщения
Вы не можете редактировать свои сообщения
Вы не можете удалять свои сообщения
Вы не можете голосовать в опросах
Вы не можете прикреплять файлы к сообщениям
Вы не можете скачивать файлы

▼ Вниз