(Post-hardcore) Asking Alexandria - Reckless & Relentless (Best Buy Edition) - 2011 [FLAC, tracks+.cue, lossless]

Ответить на тему
 
Автор
Сообщение

Пост 19-Фев-2013 21:14

[Q] 

Wolf

- Asking Alexandria - Reckless & Relentless (Best Buy Edition) -- Год издания: 2011
Страна: USA
Жанр: Post-hardcore
Продолжительность: 1:03:55-Лейбл издания: Sumerian
Источник (релизер): what.cd-Формат: FLAC
Битрейт аудио: lossless
Тип рипа: tracks+.cue
Наличие сканов в содержимом раздачи: нет-
Original Tracks:
01. Welcome (1:49)
02. Dear Insanity (3:10)
03. Closure (3:58)
04. A Lesson Never Learned (3:55)
05. To The Stage (3:31)
06. Dedication (1:03)
07. Someone, Somewhere (3:37)
08. Breathless (4:10)
09. The Match (4:16)
10. Another Bottle Down (3:34)
11. Reckless & Relentless (4:08)
12. Morte Et Dabo (5:15)
Best Buy Bonus Tracks:
13. When Everyday's The Weekend (Big Chocolate Remix) (3:51)
14. Nobody Don't Dance No More (Noah D Remix) (3:49)
15. If You Can't Ride Two Horses At Once...You Should Get Out Of The Circus (Noah D Remix) (3:53)
16. I Was Once, Possibly, Maybe, Perhaps A Cowboy King (Robotsonics Remix) (5:31)
17. A Prophecy (Big Chocolate Remix) (4:26)
-
Exact Audio Copy V1.0 beta 1 from 15. November 2010
EAC extraction logfile from 13. April 2011, 18:55
Asking Alexandria / Reckless & Relentless
Used drive : TSSTcorpCD/DVDW SH-S182D Adapter: 1 ID: 1
Read mode : Secure
Utilize accurate stream : Yes
Defeat audio cache : Yes
Make use of C2 pointers : No
Read offset correction : 6
Overread into Lead-In and Lead-Out : No
Fill up missing offset samples with silence : Yes
Delete leading and trailing silent blocks : No
Null samples used in CRC calculations : Yes
Used interface : Native Win32 interface for Win NT & 2000
Gap handling : Appended to previous track
Used output format : User Defined Encoder
Selected bitrate : 1024 kBit/s
Quality : High
Add ID3 tag : No
Command line compressor : C:\Program Files (x86)\Exact Audio Copy\Flac\flac.exe
Additional command line options : -V -8 -T "artist=%a" -T "title=%t" -T "album=%g" -T "date=%y" -T "tracknumber=%n" -T "genre=%m" %s
TOC of the extracted CD
Track | Start | Length | Start sector | End sector
---------------------------------------------------------
1 | 0:00.00 | 1:49.08 | 0 | 8182
2 | 1:49.08 | 3:09.43 | 8183 | 22400
3 | 4:58.51 | 3:58.12 | 22401 | 40262
4 | 8:56.63 | 3:54.58 | 40263 | 57870
5 | 12:51.46 | 3:30.46 | 57871 | 73666
6 | 16:22.17 | 1:03.04 | 73667 | 78395
7 | 17:25.21 | 3:36.48 | 78396 | 94643
8 | 21:01.69 | 4:09.74 | 94644 | 113392
9 | 25:11.68 | 4:15.62 | 113393 | 132579
10 | 29:27.55 | 3:34.14 | 132580 | 148643
11 | 33:01.69 | 4:08.14 | 148644 | 167257
12 | 37:10.08 | 5:14.73 | 167258 | 190880
13 | 42:25.06 | 3:51.18 | 190881 | 208223
14 | 46:16.24 | 3:48.39 | 208224 | 225362
15 | 50:04.63 | 3:52.62 | 225363 | 242824
16 | 53:57.50 | 5:30.69 | 242825 | 267643
17 | 59:28.44 | 4:26.09 | 267644 | 287602
Track 1
Filename C:\Users\Derek\Desktop\EACRIP\Asking Alexandria - 2011 - Reckless & Relentless\01 - Welcome.wav
Pre-gap length 0:00:02.00
Peak level 96.6 %
Extraction speed 2.1 X
Track quality 100.0 %
Test CRC 4E710AAE
Copy CRC 4E710AAE
Track not present in AccurateRip database
Copy OK
Track 2
Filename C:\Users\Derek\Desktop\EACRIP\Asking Alexandria - 2011 - Reckless & Relentless\02 - Dear Insanity.wav
Peak level 96.6 %
Extraction speed 2.2 X
Track quality 99.9 %
Test CRC 7ED2C4D6
Copy CRC 7ED2C4D6
Track not present in AccurateRip database
Copy OK
Track 3
Filename C:\Users\Derek\Desktop\EACRIP\Asking Alexandria - 2011 - Reckless & Relentless\03 - Closure.wav
Peak level 96.7 %
Extraction speed 2.9 X
Track quality 100.0 %
Test CRC F05C5ECF
Copy CRC F05C5ECF
Track not present in AccurateRip database
Copy OK
Track 4
Filename C:\Users\Derek\Desktop\EACRIP\Asking Alexandria - 2011 - Reckless & Relentless\04 - A Lesson Never Learned.wav
Peak level 97.1 %
Extraction speed 2.7 X
Track quality 99.9 %
Test CRC A2377CB9
Copy CRC A2377CB9
Track not present in AccurateRip database
Copy OK
Track 5
Filename C:\Users\Derek\Desktop\EACRIP\Asking Alexandria - 2011 - Reckless & Relentless\05 - To the Stage.wav
Peak level 97.8 %
Extraction speed 3.3 X
Track quality 100.0 %
Test CRC FF8AA661
Copy CRC FF8AA661
Track not present in AccurateRip database
Copy OK
Track 6
Filename C:\Users\Derek\Desktop\EACRIP\Asking Alexandria - 2011 - Reckless & Relentless\06 - Dedication.wav
Peak level 96.6 %
Extraction speed 2.5 X
Track quality 100.0 %
Test CRC 2F8EEE50
Copy CRC 2F8EEE50
Track not present in AccurateRip database
Copy OK
Track 7
Filename C:\Users\Derek\Desktop\EACRIP\Asking Alexandria - 2011 - Reckless & Relentless\07 - Someone, Somewhere.wav
Peak level 96.6 %
Extraction speed 3.5 X
Track quality 100.0 %
Test CRC 9778E81C
Copy CRC 9778E81C
Track not present in AccurateRip database
Copy OK
Track 8
Filename C:\Users\Derek\Desktop\EACRIP\Asking Alexandria - 2011 - Reckless & Relentless\08 - Breathless.wav
Peak level 96.6 %
Extraction speed 3.8 X
Track quality 100.0 %
Test CRC D5E0CC15
Copy CRC D5E0CC15
Track not present in AccurateRip database
Copy OK
Track 9
Filename C:\Users\Derek\Desktop\EACRIP\Asking Alexandria - 2011 - Reckless & Relentless\09 - The Match.wav
Peak level 98.6 %
Extraction speed 4.1 X
Track quality 100.0 %
Test CRC 9C6DEC8E
Copy CRC 9C6DEC8E
Track not present in AccurateRip database
Copy OK
Track 10
Filename C:\Users\Derek\Desktop\EACRIP\Asking Alexandria - 2011 - Reckless & Relentless\10 - Another Bottle Down.wav
Peak level 97.8 %
Extraction speed 3.6 X
Track quality 99.9 %
Test CRC 36403398
Copy CRC 36403398
Track not present in AccurateRip database
Copy OK
Track 11
Filename C:\Users\Derek\Desktop\EACRIP\Asking Alexandria - 2011 - Reckless & Relentless\11 - Reckless & Relentless.wav
Peak level 96.6 %
Extraction speed 4.4 X
Track quality 100.0 %
Test CRC D99C1E0C
Copy CRC D99C1E0C
Track not present in AccurateRip database
Copy OK
Track 12
Filename C:\Users\Derek\Desktop\EACRIP\Asking Alexandria - 2011 - Reckless & Relentless\12 - Morte et Dabo.wav
Peak level 96.6 %
Extraction speed 4.7 X
Track quality 100.0 %
Test CRC 2B4860C6
Copy CRC 2B4860C6
Track not present in AccurateRip database
Copy OK
Track 13
Filename C:\Users\Derek\Desktop\EACRIP\Asking Alexandria - 2011 - Reckless & Relentless\13 - When Everyday's the Weekend (Big Chocolate Remix).wav
Peak level 96.6 %
Extraction speed 4.7 X
Track quality 100.0 %
Test CRC C2920C36
Copy CRC C2920C36
Track not present in AccurateRip database
Copy OK
Track 14
Filename C:\Users\Derek\Desktop\EACRIP\Asking Alexandria - 2011 - Reckless & Relentless\14 - Nobody Don't Dance No More (Noah D Remix).wav
Peak level 96.6 %
Extraction speed 4.8 X
Track quality 100.0 %
Test CRC 5616114A
Copy CRC 5616114A
Track not present in AccurateRip database
Copy OK
Track 15
Filename C:\Users\Derek\Desktop\EACRIP\Asking Alexandria - 2011 - Reckless & Relentless\15 - If You Can't Ride Two Horses at Once, You Should Get Out of the Circus (Noah D Remix).wav
Peak level 96.6 %
Extraction speed 5.0 X
Track quality 100.0 %
Test CRC 5B72EB75
Copy CRC 5B72EB75
Track not present in AccurateRip database
Copy OK
Track 16
Filename C:\Users\Derek\Desktop\EACRIP\Asking Alexandria - 2011 - Reckless & Relentless\16 - I Was Once Possibly Maybe Perhaps a Cowboy King (Robotsonics Remix).wav
Peak level 96.6 %
Extraction speed 5.4 X
Track quality 100.0 %
Test CRC C9C5A9CB
Copy CRC C9C5A9CB
Track not present in AccurateRip database
Copy OK
Track 17
Filename C:\Users\Derek\Desktop\EACRIP\Asking Alexandria - 2011 - Reckless & Relentless\17 - A Prophecy (Big Chocolate Remix).wav
Peak level 96.6 %
Extraction speed 5.4 X
Track quality 100.0 %
Test CRC E7BA4B6F
Copy CRC E7BA4B6F
Track not present in AccurateRip database
Copy OK
None of the tracks are present in the AccurateRip database
No errors occurred
End of status report
REM GENRE Hardcore
REM DATE 2011
REM DISCID E80EFA11
REM COMMENT "ExactAudioCopy v1.0b1"
FILE "Asking Alexandria - 2011 - Reckless & Relentless\01 - Welcome.wav" WAVE
TRACK 01 AUDIO
INDEX 01 00:00:00
FILE "Asking Alexandria - 2011 - Reckless & Relentless\02 - Dear Insanity.wav" WAVE
TRACK 02 AUDIO
INDEX 01 00:00:00
FILE "Asking Alexandria - 2011 - Reckless & Relentless\03 - Closure.wav" WAVE
TRACK 03 AUDIO
INDEX 01 00:00:00
FILE "Asking Alexandria - 2011 - Reckless & Relentless\04 - A Lesson Never Learned.wav" WAVE
TRACK 04 AUDIO
INDEX 01 00:00:00
FILE "Asking Alexandria - 2011 - Reckless & Relentless\05 - To the Stage.wav" WAVE
TRACK 05 AUDIO
INDEX 01 00:00:00
FILE "Asking Alexandria - 2011 - Reckless & Relentless\06 - Dedication.wav" WAVE
TRACK 06 AUDIO
INDEX 01 00:00:00
FILE "Asking Alexandria - 2011 - Reckless & Relentless\07 - Someone, Somewhere.wav" WAVE
TRACK 07 AUDIO
INDEX 01 00:00:00
FILE "Asking Alexandria - 2011 - Reckless & Relentless\08 - Breathless.wav" WAVE
TRACK 08 AUDIO
INDEX 01 00:00:00
FILE "Asking Alexandria - 2011 - Reckless & Relentless\09 - The Match.wav" WAVE
TRACK 09 AUDIO
INDEX 01 00:00:00
FILE "Asking Alexandria - 2011 - Reckless & Relentless\10 - Another Bottle Down.wav" WAVE
TRACK 10 AUDIO
INDEX 01 00:00:00
FILE "Asking Alexandria - 2011 - Reckless & Relentless\11 - Reckless & Relentless.wav" WAVE
TRACK 11 AUDIO
INDEX 01 00:00:00
FILE "Asking Alexandria - 2011 - Reckless & Relentless\12 - Morte et Dabo.wav" WAVE
TRACK 12 AUDIO
INDEX 01 00:00:00
FILE "Asking Alexandria - 2011 - Reckless & Relentless\13 - When Everyday's the Weekend (Big Chocolate Remix).wav" WAVE
TRACK 13 AUDIO
INDEX 01 00:00:00
FILE "Asking Alexandria - 2011 - Reckless & Relentless\14 - Nobody Don't Dance No More (Noah D Remix).wav" WAVE
TRACK 14 AUDIO
INDEX 01 00:00:00
FILE "Asking Alexandria - 2011 - Reckless & Relentless\15 - If You Can't Ride Two Horses at Once, You Should Get Out of the Circus (Noah D Remix).wav" WAVE
TRACK 15 AUDIO
INDEX 01 00:00:00
FILE "Asking Alexandria - 2011 - Reckless & Relentless\16 - I Was Once Possibly Maybe Perhaps a Cowboy King (Robotsonics Remix).wav" WAVE
TRACK 16 AUDIO
INDEX 01 00:00:00
FILE "Asking Alexandria - 2011 - Reckless & Relentless\17 - A Prophecy (Big Chocolate Remix).wav" WAVE
TRACK 17 AUDIO
INDEX 01 00:00:00
Текущий состав
Бен Брюс (англ. Ben Bruce) — соло-гитара, программирование, бэк-вокал (с 2007)
Джеймс Касселлс (англ. James Cassells) — ударные (с 2007)
Кэмерон Лидделл (англ. Cameron Liddell) — ритм-гитара (c 2007)
Дэнни Уорсноп (англ. Danny Worsnop) — вокал, клавишные, программирование (c 2007)
Сэм Беттли (англ. Sam Bettley) — бас-гитара (с 2009)
Старый состав (на The Irony Of Your Perfection)
Джеймс Мюррей (англ. James Murray) — вокал, элетроника
Бен Брюс (англ. Ben Bruce) — лидирующая гитара, бэк-вокал
Лукас Браун (англ. Lucas Brown) — бас-гитара
Робин Эверетт (англ. Robin Everett) — ритм-гитара
Хитеш Гандхи (англ. Hitesh Gandhi) — барабаны
Asking Alexandria — британская музыкальная группа, играющая в жанре пост-хардкор, в прошлом играли скримо (свой стиль члены группы определяют как синткор ).Основана группа в 2006 году в Дубае гитаристом Беном Брюсом.
В августе 2006 они подписали соглашение с лейблом Sonicwave International, а к январю 2007 — с лейблом Hangmans Joke. Вскоре после этого группа выпускает полный альбом под названием The Irony of Your Perfection, который принес им известность в Европе. Однако группа вскоре распалась, так и не отыграв ни одного концерта за пределами Дубая.
В 2008 году Бен Брюс вернулся в родную Англию, но это не означало его желание положить гитару на полку. Вскоре после он начинает заново, с обновленной командой, но старым именем. Это уже совершенно другая группа, и единственное, что их связывает, это Бен Брюс.
С момента основания новой Asking Alexandria в составе произошли некоторые изменения, так в 2007 году её покинул клавишник Райн Биннс (обязанность клавишника на себя частично возложил вокалист Дэнни Уорсноп), а в 2009 басист Джо Ланкастер был заменён на Сэма Беттли.
В июне 2009 Asking Alexandria выпускает свой дебютный альбом под названием «Stand Up and Scream» и сразу же подписывает контракт с Sumerian Records. Альбом приносит им бешеную популярность и известность, ребята ездят в тур по Америке с Alesana, Enter Shikari, Evergreen Terrace и такими же успешными группами. Так же, в декабре 2009 года у Asking Alexandria выходит клип на песню «The Final Episode (Let’s Change The Channel)».
В 2010 году кавер на песню Akon — Right Now, который входит в сборник «Punk Goes Pop 3». Также был выпущен клип на песню «If You Can’t Ride Two Horses at Once… You Should Get Out of the Circus». В декабре этого года вышел клип на песню «A Prophecy».
Их второй студийный альбом «Reckless and Relentless» вышел 5 апреля 2011 года.
В том же 2011 году выходят клипы на песни «Closure», «Not The American Average» и «To The Stage», который вскоре оказался вторым клипом в мини-фильме «Through Sin + Self-Destruction». В 2012 году вышел видеоматериал, где Дэнни Уорсноп, Бен Брюс и Камерон Лидделл исполнили акустическую версию песни «Someone, Somewhere». 15 мая 2012 года вышел мини-фильм «Through Sin + Self-Destruction». В июле этого года выходит клип на песню «Breathless». 8 августа 2012 года группа презентовала сингл «Run Free» с еще не вышедшего альбома.
Согласно информации журнала "RockSound" новый, еще не получивший названия, альбом выйдет в 2013 году.
--
Download / Скачать

Хотите скачать бесплатно? Зарегистрируйтесь на сайте (ссылка на регистрацию). Pirat.ca - самый быстрый торрент трекер в рунете!

Как скачивать  ·   Что такое торрент  ·   Рейтинг и ограничения

BilG

Флибустьер

Пост 13-Мар-2017 13:34 (спустя 4 года)

[Q] 

Сердечно благодарю !

_________________
[Профиль]  [ЛС] 
Показать сообщения:    
Ответить на тему

Текущее время: Сегодня 17:25

Часовой пояс: GMT + 4



Вы не можете начинать темы
Вы не можете отвечать на сообщения
Вы не можете редактировать свои сообщения
Вы не можете удалять свои сообщения
Вы не можете голосовать в опросах
Вы не можете прикреплять файлы к сообщениям
Вы не можете скачивать файлы

Майнать ▼