(Progressive Rock) Pink Floyd - Студийная дискография (неремастеры) (1967-1994) - 14 альбомов (50/7 изданий), FLAC (image+.cue), lossless

Ответить на тему
 
Автор
Сообщение

Пост 03-Фев-2013 22:47

[Q] 

Kote Makaradze

Pink Floyd
студийная дискография (первопрессы/неремастеры)
(1967-1994)
- Жанр: Progressive / Psychedelic Rock
Производитель: Europe/Japan/USA
Аудио кодек: FLAC
Тип рипа: image+.cue
Битрейт аудио: lossless
Сканы: +
-
The Piper at the Gates of Dawn- Производство: UK, EMI/Harvest, CDP 7 46384 2, (1987, 1st U.K. issue)
Мастеринг: EMI / Nimbus (U.K.) mastering
Продолжительность: 41:56
Peak Levels: 94.3 / 91.6 / 100 / 100 / 98.4 / 100 / 100 / 81.7 / 81.8 / 69.4 / 95.1
Подробная информация: http://pinkfloydarchives.com/DUKCDPF.htm#Piper1-Tracklist:
1. Astronomy Domine 4:12
2. Lucifer Sam 3:07
3. Matilda Mother 3:07
4. Flaming 2:45
5. Pow R. Toc H. 4:26
6. Take Up Thy Stethoscope And Walk 3:06
7. Interstellar Overdrive 9:41
8. The Gnome 2:13
9. Chapter 24 3:41
10. Scarecrow 2:10
11. Bike 3:22
-
The Piper at the Gates of Dawn- Производство: UK, EMI/Harvest, CDP 7 46384 2, (1987, 2nd U.K. issue)
Мастеринг: EMI / Nimbus (U.K.) mastering
Продолжительность: 41:56
Peak Levels: 94.3 / 91.6 / 100 / 100 / 98.4 / 100 / 100 / 81.7 / 81.8 / 69.4 / 95.1
Подробная информация: http://pinkfloydarchives.com/DUKCDPF.htm#Piper2-Tracklist:
1. Astronomy Domine 4:12
2. Lucifer Sam 3:07
3. Matilda Mother 3:07
4. Flaming 2:45
5. Pow R. Toc H. 4:26
6. Take Up Thy Stethoscope And Walk 3:06
7. Interstellar Overdrive 9:41
8. The Gnome 2:13
9. Chapter 24 3:41
10. Scarecrow 2:10
11. Bike 3:22
-
The Piper at the Gates of Dawn- Производство: Japan, Toshiba-EMI, CP32-5269, (1988, 2nd Japan issue)
Мастеринг: EMI / Nimbus (U.K.) mastering
Продолжительность: 41:56
Peak Levels: 94.3 / 91.6 / 100 / 100 / 98.4 / 100 / 100 / 81.7 / 81.8 / 69.4 / 95.1
Подробная информация: http://pinkfloydarchives.com/DJaCDPF.htm#Piper2-Tracklist:
1. Astronomy Domine 4:12
2. Lucifer Sam 3:07
3. Matilda Mother 3:07
4. Flaming 2:45
5. Pow R. Toc H. 4:26
6. Take Up Thy Stethoscope And Walk 3:06
7. Interstellar Overdrive 9:41
8. The Gnome 2:13
9. Chapter 24 3:41
10. Scarecrow 2:10
11. Bike 3:22
-

-
Syd Barrett - vocals, guitar
Roger Waters – bass guitar, vocals
Richard Wright – farfisa and hammond organs, piano, vocals
Nick Mason – drums, percussion
Produced by Norman Smith
Recording Engineer Peter Brown
-
a saucerful of secrets- Производство: UK, EMI/Harvest, CDP 7 46383 2, (1987, 1st U.K. issue)
Мастеринг: EMI / Nimbus (U.K.) mastering
Продолжительность: 39:27
Peak Levels: 88.7 / 72.4 / 84.7 / 88.8 / 88.7 / 91.3 / 55.7
Подробная информация: http://pinkfloydarchives.com/DUKCDPF.htm#SOS1-Tracklist:
1. Let There Be More Light 5:38
2. Remember A Day 4:33
3. Set The Controls For The Heart Of The Sun 5:27
4. Corporal Clegg 4:12
5. A Saucerful Of Secrets 11:59
6. See Saw 4:36
7. Jugband Blues 3:00
a saucerful of secrets- Производство: Japan, EMI/Toshiba, CP32-5272, (1987, 1st Japan issue)
Мастеринг: EMI / Nimbus (U.K.) mastering - the same, as first british CDP 7 46383 2
Продолжительность: 39:27
Peak Levels: 88.7 / 72.4 / 84.7 / 88.8 / 88.7 / 91.3 / 55.7
Подробная информация: http://pinkfloydarchives.com/DJaCDPF.htm#SOS1-Tracklist:
1. Let There Be More Light 5:38
2. Remember A Day 4:33
3. Set The Controls For The Heart Of The Sun 5:27
4. Corporal Clegg 4:12
5. A Saucerful Of Secrets 11:59
6. See Saw 4:36
7. Jugband Blues 3:00
a saucerful of secrets- Производство: Japan, EMI/Toshiba, CP32-5272, (1988, 3rd Japan issue)
Мастеринг: completely different mastering than the first (Nimbus mastered) issue
Продолжительность: 39:27
Peak Levels: 70.8 / 41.5 / 62.3 / 77.5 / 65.1 / 66.6 / 37.9
Подробная информация: http://pinkfloydarchives.com/DJaCDPF.htm#SOS3
(Although the CD looks identical to the first issue, this one has a completely different mastering than the first (Nimbus mastered) issue.)-Tracklist:
1. Let There Be More Light 5:37
2. Remember A Day 4:33
3. Set The Controls For The Heart Of The Sun 5:27
4. Corporal Clegg 4:12
5. A Saucerful Of Secrets 11:57
6. See Saw 4:35
7. Jugband Blues 3:00

-
Syd Barrett – guitar, acoustic guitar, vocals
Roger Waters – bass guitar, percussion, vocals
Richard Wright – piano, organ, mellotron, vibraphone, vocals
Nick Mason – drums, percussion, vocals
David Gilmour – guitar, vocals, kazoo
Recorded at EMI Studios, Abbey Road, from January to April 1968
Produced by Norman Smith
-
MORE- Производство: West Germany, EMI, CDP 7 46386 2, (1985?, 1st West German issue)
Мастеринг: Sonopress Mastering
Продолжительность: 45:00
Peak Levels: 72.3 / 95.1 / 40.0 / 100 / 62.4 / 75.4 / 71.3 / 100 / 83.8 / 87.0 / 60.4 / 96.1 / 87.9
Подробная информация: http://pinkfloydarchives.com/DGerCDPF.htm#More-Tracklist:
1. Cirrus Minor 5:15
2. The Nile Song 3:25
3. Crying Song 3:34
4. Up The Khyber 2:13
5. Green Is The Colour 2:58
6. Cymbaline 4:49
7. Party Sequence 1:10
8. Main Theme 5:31
9. Ibiza Bar 3:16
10. More Blues 2:12
11. Quicksilver 7:10
12. A Spanish Theme 1:05
13. Dramatic Theme 2:16
MORE- Производство: USA, Capitol, CDP 7 46386 2, (1987, 1st US issue)
Мастеринг: Sony, Japan
Продолжительность: 45:00
Peak Levels: 47.7 / 62.8 / 26.4 / 66.0 / 41.2 / 49.8 / 47.1 / 66.0 / 55.3 / 57.5 / 39.9 / 63.5 / 58.0
Подробная информация: http://pinkfloydarchives.com/DUSCDPF.htm#More1-Tracklist:
1. Cirrus Minor 5:15
2. The Nile Song 3:25
3. Crying Song 3:34
4. Up The Khyber 2:13
5. Green Is The Colour 2:58
6. Cymbaline 4:49
7. Party Sequence 1:10
8. Main Theme 5:31
9. Ibiza Bar 3:16
10. More Blues 2:12
11. Quicksilver 7:10
12. A Spanish Theme 1:05
13. Dramatic Theme 2:16
-
MORE- Производство: Japan, Toshiba-EMI, CP32-5273, (1987, 2nd japanese issue 1988)
Мастеринг: Sonopress Mastering
Продолжительность: 45:00 ?
Peak Levels: 72.3 / 95.1 / 40.0 / 100 / 62.4 / 75.4 / 71.3 / 100 / 83.8 / 87.0 / 60.4 / 96.1 / 87.9
Подробная информация: http://pinkfloydarchives.com/DJaCDPF.htm#More2-Tracklist:
1. Cirrus Minor 5:15
2. The Nile Song 3:25
3. Crying Song 3:34
4. Up The Khyber 2:13
5. Green Is The Colour 2:58
6. Cymbaline 4:49
7. Party Sequence 1:10
8. Main Theme 5:41
9. Ibiza Bar 3:16
10. More Blues 2:12
11. Quicksilver 7:10
12. A Spanish Theme 1:05
13. Dramatic Theme 2:16
-
-
Roger Waters – bass guitar, guitar, tape and birdsong effects, bongos, gong, vocals
Nick Mason – percussion, drums, bongos
Richard Wright – Hammond and Farfisa organs, piano, vibraphone, bongos
David Gilmour – acoustic, electric, slide, and Flamenco guitars, tape effects, bongos, vocals
Produced by Pink Floyd
-
UMMAGUMMA- Производство: UK, EMI/Harvest, CDP 7 46404 2, (1987, 2nd U.K. issue)
Мастеринг: EMI mastering
Продолжительность: 39:38+47:05
Peak Levels: Disc 1 - 90.5 / 100 / 86.1 / 83.9; Disc 2 - 98.8 / 76.4 / 74.7 / 97.9 / 100 / 79.0 / 75.9 / 99.5 / 89.7 / 71.5 / 99.8 / 43.2
Подробная информация: http://pinkfloydarchives.com/DUKCDPF.htm#Umma2-Tracklist:
1-1. Pink Floyd - Astronomy Domine 8:31
1-2. Pink Floyd - Careful With That Axe, Eugene 8:50
1-3. Pink Floyd - Set The Controls For The Heart Of The Sun 9:26
1-4. Pink Floyd - A Saucerful Of Secrets 12:49-2-1. Richard Wright - Sysyphus Part 1 1:08
2-2. Richard Wright - Sysyphus Part 2 3:30
2-3. Richard Wright - Sysyphus Part 3 1:49
2-4. Richard Wright - Sysyphus Part 4 6:59
2-5. Roger Waters - Grantchester Meadows 7:28
2-6. Roger Waters - Several Species Of Small Furry Animals Gathered Together In A Cave And Grooving With A Pict 5:01
2-7. David Gilmour - The Narrow Way Part 1 3:29
2-8. David Gilmour - The Narrow Way Part 2 2:54
2-9. David Gilmour - The Narrow Way Part 3 5:58
2-10. Nick Mason - The Grand Vizier's Garden Party Part 1: Entrance 0:59
2-11. Nick Mason - The Grand Vizier's Garden Party Part 2: Entertainment 7:06
2-12. Nick Mason - The Grand Vizier's Garden Party Part 3: Exit 0:40
-
UMMAGUMMA- Производство: Japan, Toshiba-EMI, CP28-5270/71, (1987, 2nd Japanese issue 1988)
Мастеринг: West German mastering
Продолжительность: 39:38+47:05
Peak Levels: Disc 1 - 90.5 / 100 / 86.1 / 83.9; Disc 2 - 98.8 / 76.4 / 74.7 / 97.9 / 100 / 79.0 / 75.9 / 99.5 / 89.7 / 71.5 / 99.8 / 43.2
Подробная информация: http://pinkfloydarchives.com/DJaCDPF.htm#Umma2
(отличается от первого издания 1987 г. тем, что на заднике не указана цена. )-Tracklist:
1-1. Pink Floyd - Astronomy Domine 8:31
1-2. Pink Floyd - Careful With That Axe, Eugene 8:50
1-3. Pink Floyd - Set The Controls For The Heart Of The Sun 9:26
1-4. Pink Floyd - A Saucerful Of Secrets 12:49-2-1. Richard Wright - Sysyphus Part 1 1:08
2-2. Richard Wright - Sysyphus Part 2 3:30
2-3. Richard Wright - Sysyphus Part 3 1:49
2-4. Richard Wright - Sysyphus Part 4 6:59
2-5. Roger Waters - Grantchester Meadows 7:28
2-6. Roger Waters - Several Species Of Small Furry Animals Gathered Together In A Cave And Grooving With A Pict 5:01
2-7. David Gilmour - The Narrow Way Part 1 3:29
2-8. David Gilmour - The Narrow Way Part 2 2:53
2-9. David Gilmour - The Narrow Way Part 3 5:58
2-10. Nick Mason - The Grand Vizier's Garden Party Part 1: Entrance 0:59
2-11. Nick Mason - The Grand Vizier's Garden Party Part 2: Entertainment 7:06
2-12. Nick Mason - The Grand Vizier's Garden Party Part 3: Exit 0:40
-
UMMAGUMMA- Производство: USA, Capitol, CDPB 7 46404 2, (1989, 3rd US issue), re-issue 199?
Мастеринг: JVC mastering - EMI revision level 0
Продолжительность: 39:39+47:06
Peak Levels: Disc 1 - 90.5 / 100 / 86.1 / 83.9; Disc 2 - 98.8 / 76.4 / 74.7 / 97.9 / 100 / 79.0 / 75.9 / 99.5 / 89.7 / 71.5 / 99.8 / 43.2
Подробная информация: http://pinkfloydarchives.com/DUSCDPF.htm#Umma3-Tracklist:
1-1. Pink Floyd - Astronomy Domine 8:31
1-2. Pink Floyd - Careful With That Axe, Eugene 8:50
1-3. Pink Floyd - Set The Controls For The Heart Of The Sun 9:26
1-4. Pink Floyd - A Saucerful Of Secrets 12:49-2-1. Richard Wright - Sysyphus Part 1 1:08
2-2. Richard Wright - Sysyphus Part 2 3:30
2-3. Richard Wright - Sysyphus Part 3 1:49
2-4. Richard Wright - Sysyphus Part 4 6:59
2-5. Roger Waters - Grantchester Meadows 7:28
2-6. Roger Waters - Several Species Of Small Furry Animals Gathered Together In A Cave And Grooving With A Pict 5:01
2-7. David Gilmour - The Narrow Way Part 1 3:29
2-8. David Gilmour - The Narrow Way Part 2 2:54
2-9. David Gilmour - The Narrow Way Part 3 5:58
2-10. Nick Mason - The Grand Vizier's Garden Party Part 1: Entrance 0:59
2-11. Nick Mason - The Grand Vizier's Garden Party Part 2: Entertainment 7:06
2-12. Nick Mason - The Grand Vizier's Garden Party Part 3: Exit 0:40
-
-
David Gilmour - Guitar & Vocals
Roger Waters - Bass Guitar & Vocals
Nick Mason - Percussion
Richard Wright - Keyboards
Engineer - Peter Mew, Brian Humphries
Producer - Norman Smith, Pink Floyd
Live Album credits - Engineered by Brian Humphries
Recorded at - Mothers, Birmingham, on April 27, 1969 & Manchester College of Commerce, on May 2, 1969
Produced by - Pink Floyd & Brian Humphries
Engineered by - Peter Mew
Studio Album Produced by - Norman Smith
Engineered by - Peter Mew
-
Atom Heart Mother- Производство: Japan, EMI/Toshiba, CP32-5274, (1987, 1st Japan issue)
Мастеринг: West German Mastering
Продолжительность: 52:10
Peak Levels: 85.2 / 59.2 / 90.1 / 66.1 / 78.2
Подробная информация: http://pinkfloydarchives.com/DJaCDPF.htm#AHM1-Tracklist:
1. Atom Heart Mother 23:45
2. If 4:31
3. Summer '68 5:28
4. Fat Old Sun 5:23
5. Alan's Psychedelic Breakfast 13:01
-
Atom Heart Mother- Производство: UK, EMI, CDP 7 46381 2, (1987, 1st Italy issue)
Мастеринг: EMI mastering
Продолжительность: 52:10
Peak Levels: 83.2 / 57.8 / 88.1 / 64.6 / 76.4
Подробная информация: http://pinkfloydarchives.com/DItCDPF.htm#AHM1
(ничем не отличается от такого же британского, кроме загадочной надписи на диске - "Made in Italy" )-Tracklist:
1. Atom Heart Mother 23:45
2. If 4:31
3. Summer '68 5:28
4. Fat Old Sun 5:23
5. Alan's Psychedelic Breakfast 13:01
-
Atom Heart Mother- Производство: USA/(Japan), Capitol, CDP 7 46381 2 (DIDX 1186), (1988, 1st US issue)
Мастеринг: Sony mastering
Продолжительность: 52:01
Peak Levels: 85.6 / 55.7 / 91.5 / 76.8 / 84.7
Подробная информация: http://pinkfloydarchives.com/DUSCDPF.htm#AHM1-Tracklist:
1. Atom Heart Mother 23:39
2. If 4:3
3. Summer '68 5:28
4. Fat Old Sun 5:23
5. Alan's Psychedelic Breakfast 12:59
-

-
David Gilmour - Vocals & Guitar
Richard Wright - Vocals & Keyboards
Roger Waters - Vocals & Bass
Nick Mason - Drums
John Aldiss Choir
Recorded at EMI Studios - Abbey Road, London, England
Engineer - Peter Bown, Alan Parsons
Produced by Pink Floyd
Executive Producer - Norman Smith
-
MEDDLE- Производство: Japan, Toshiba-EMI, CP32-5032, (1985, 1st Japan issue)
Мастеринг: Sony (Japan) mastering
Продолжительность: 46:51
Peak Levels: 54.3 / 38.2 / 68.8 / 62.5 / 28.2 / 53.3
Подробная информация: http://pinkfloydarchives.com/DJaCDPF.htm#Med1-Tracklist:
1. One Of These Days (5:57)
2. A Pillow Of Winds (5:11)
3. Fearless (6:09)
4. San Tropez (3:44)
5. Seamus (2:16)
6. Echoes (23:32)
-
MEDDLE- Производство: UK (Japan), EMI/Harvest, CDP 7 46034 2, (1986, 1st U.K. issue)
Мастеринг: Sony (Japan) mastering
Продолжительность: 46:51
Peak Levels: 54.3 / 38.2 / 68.8 / 62.5 / 28.2 / 53.3
Подробная информация: http://pinkfloydarchives.com/DUKCDPF.htm#Med1-Tracklist:
1. One Of These Days (5:57)
2. A Pillow Of Winds (5:11)
3. Fearless (6:09)
4. San Tropez (3:44)
5. Seamus (2:16)
6. Echoes (23:32)
-
MEDDLE- Производство: UK, EMI/Harvest, CDP 7 46034 2, (1987, 3rd U.K. issue)
Мастеринг: EMI mastering
Продолжительность: 46:49
Peak Levels: 84.1 / 57.8 / 100 / 99.0 / 43.8 / 100
Подробная информация: http://pinkfloydarchives.com/DUKCDPF.htm#Med3-Tracklist:
1. One Of These Days (5:58)
2. A Pillow Of Winds (5:11)
3. Fearless (6:09)
4. San Tropez (3:44)
5. Seamus (2:16)
6. Echoes (23:31)
-

-
Roger Waters - Bass Guitar & Vocals
Nick Mason - Percussion
David Gilmour - Guitar & Vocals
Richard Wright - Keyboards & Vocals
All Material Composed and Produced by Pink Floyd
Recorded at - Air Studios, EMI Studios, Abbey Road, Morgan Studios, London 1971
Engineers - Peter Brown, John Leckie, Rob Black and Roger Quested
Album Cover Designed by Pink Floyd
Outer Sleeve Photos by Bob Dowling
Inner Sleeve Photos by Tony May
Band Photos by Hipgnosis
Words and Music Pink Floyd Music Publishers LTD
Fearless Includes - You'll Never Walk Alone (Rodgers Hammerstein II)
-
Obscured by Clouds- Производство: West Germany, EMI, CDP 7 46385 2, (1986, 1st West German issue)
Мастеринг: West German mastering
Продолжительность: 40:26
Peak Levels: 59.6 / 95.5 / 66.6 / 98.8 / 90.6 / 100 / 100 / 94.5 / 73.3 / 94.9
Подробная информация: http://www.pinkfloydarchives.com/DGerCDPF.htm#OBC-Tracklist:
1 Obscured By Clouds 3:05
2 When You're In 2:27
3 Burning Bridges 3:29
4 The Gold It's In The... 3:07
5 Wots...Uh The Deal 5:09
6 Mudmen 4:20
7 Childhood's End 4:34
8 Free Four 4:15
9 Stay 4:06
10 Absolutely Curtains 5:52
-
Obscured by Clouds- Производство: Japan, Toshiba-EMI, CP32-5275, (1987, 2nd Japan issue)
Мастеринг: West German mastering
Продолжительность: 40:27
Peak Levels: 59.6 / 95.5 / 66.6 / 98.8 / 90.6 / 100 / 100 / 94.5 / 73.3 / 94.9
Подробная информация: http://pinkfloydarchives.com/DJaCDPF.htm#OBC2-Tracklist:
1 Obscured By Clouds 3:05
2 When You're In 2:27
3 Burning Bridges 3:29
4 The Gold It's In The... 3:07
5 Wots...Uh The Deal 5:09
6 Mudmen 4:20
7 Childhood's End 4:34
8 Free Four 4:15
9 Stay 4:06
10 Absolutely Curtains 5:52
-

-
David Gilmour – guitars, vocals, VCS3
Nick Mason – drums, percussion
Roger Waters – bass guitar, vocals, VCS3
Richard Wright – keyboards, vocals, VCS3
Music Composed and Produced by Pink Floyd
-
THE DARK SIDE OF THE MOON- Производство: Japan, Toshiba-EMI, CP35-3017, (1983, 1st Japan issue)
Мастеринг: Sony (Japan) mastering
Продолжительность: 42:56
Peak Levels: 39.9 / 43.3 / 70.1 / 55.2 / 72.3 / 44.5 / 53.9 / 54.6 / 61.2
Подробная информация: http://pinkfloydarchives.com/DJaCDPF.htm#DSOTM1-Tracklist:
1. Speak To Me / Breathe In The Air 3:57
2. On The Run 3:31
3. Time 7:05
4. The Great Gig In The Sky 4:47
5. Money 6:23
6. Us And Them 7:48
7. Any Colour You Like 3:25
8. Brain Damage 3:50
9. Eclipse 2:06
-
REM GENRE "Progressive Rock"REM DATE 1973REM DISCID 680A1009REM COMMENT "ExactAudioCopy v0.99pb5"PERFORMER "Pink Floyd"TITLE "Dark Side of the Moon.CP35-3017.Japan"FILE "Pink Floyd - Dark Side of the Moon.CP35-3017.Japan.flac" WAVE TRACK 01 AUDIO TITLE "Speak to Me - Breathe In the Air" PERFORMER "Pink Floyd" FLAGS PRE INDEX 01 00:00:00 TRACK 02 AUDIO TITLE "On the Run" PERFORMER "Pink Floyd" FLAGS PRE INDEX 01 03:57:35 TRACK 03 AUDIO TITLE "Time" PERFORMER "Pink Floyd" FLAGS PRE INDEX 01 07:29:32 TRACK 04 AUDIO TITLE "The Great Gig in the Sky" PERFORMER "Pink Floyd" FLAGS PRE INDEX 01 14:34:42 TRACK 05 AUDIO TITLE "Money" PERFORMER "Pink Floyd" FLAGS PRE INDEX 01 19:21:47 TRACK 06 AUDIO TITLE "Us and Them" PERFORMER "Pink Floyd" FLAGS PRE INDEX 01 25:45:12 TRACK 07 AUDIO TITLE "Any Colour You Like" PERFORMER "Pink Floyd" FLAGS PRE INDEX 01 33:34:02 TRACK 08 AUDIO TITLE "Brain Damage" PERFORMER "Pink Floyd" FLAGS PRE INDEX 01 36:59:47 TRACK 09 AUDIO TITLE "Eclipse" PERFORMER "Pink Floyd" FLAGS PRE INDEX 01 40:50:05
THE DARK SIDE OF THE MOON- Производство: UK (Japan), EMI/Harvest, CDP 7 46001 2, (1984, 1st U.K. issue)
Мастеринг: Sony (Japan) mastering
Продолжительность: 42:56
Peak Levels: 39.9 / 43.3 / 70.1 / 55.2 / 72.3 / 44.5 / 53.9 / 54.6 / 61.2
Подробная информация: http://pinkfloydarchives.com/DUKCDPF.htm#DSOTM1-Tracklist:
1. Speak To Me / Breathe In The Air 3:57
2. On The Run 3:31
3. Time 7:05
4. The Great Gig In The Sky 4:47
5. Money 6:23
6. Us And Them 7:48
7. Any Colour You Like 3:25
8. Brain Damage 3:50
9. Eclipse 2:06
-
REM GENRE "Progressive Rock"REM DATE 1973REM DISCID 680A1009REM COMMENT "ExactAudioCopy v0.99pb5"PERFORMER "Pink Floyd"TITLE "Dark Side of the Moon.Black Face.Harvest.Japan"FILE "Pink Floyd - Dark Side of the Moon.Black Face.Harvest.Japan.wav" WAVETRACK 01 AUDIOTITLE "Speak to Me - Breathe In the Air"PERFORMER "Pink Floyd"FLAGS PREINDEX 01 00:00:00TRACK 02 AUDIOTITLE "On the Run"PERFORMER "Pink Floyd"FLAGS PREINDEX 01 03:57:35TRACK 03 AUDIOTITLE "Time"PERFORMER "Pink Floyd"FLAGS PREINDEX 01 07:29:32TRACK 04 AUDIOTITLE "The Great Gig in the Sky"PERFORMER "Pink Floyd"FLAGS PREINDEX 01 14:34:42TRACK 05 AUDIOTITLE "Money"PERFORMER "Pink Floyd"FLAGS PREINDEX 01 19:21:47TRACK 06 AUDIOTITLE "Us and Them"PERFORMER "Pink Floyd"FLAGS PREINDEX 01 25:45:12TRACK 07 AUDIOTITLE "Any Colour You Like"PERFORMER "Pink Floyd"FLAGS PREINDEX 01 33:34:02TRACK 08 AUDIOTITLE "Brain Damage"PERFORMER "Pink Floyd"FLAGS PREINDEX 01 36:59:47TRACK 09 AUDIOTITLE "Eclipse"PERFORMER "Pink Floyd"FLAGS PREINDEX 01 40:50:05
THE DARK SIDE OF THE MOON- Производство: Japan, Toshiba-EMI, CP35-3017, (1986, 3rd Japan issue)
Мастеринг: EMI mastering - EMI revision level 0
Продолжительность: 42:54
Peak Levels: 87.8 / 94.7 / 100 / 97.2 / 100 / 99.1 / 100 / 96.1 / 100
Подробная информация: http://www.pinkfloydarchives.com/DJaCDPF.htm#DSOTM3-Tracklist:
1. Speak To Me / Breathe In The Air 3:57
2. On The Run 3:34
3. Time 7:05
4. The Great Gig In The Sky 4:47
5. Money 6:22
6. Us And Them 7:50
7. Any Colour You Like 3:25
8. Brain Damage 3:50
9. Eclipse 2:01
-
THE DARK SIDE OF THE MOON- Производство: UK, EMI/Harvest, CDP 7 46001 2, (1986, 5th U.K. issue)
Мастеринг: EMI mastering
Продолжительность: 42:54
Peak Levels: 87.8 / 94.7 / 100 / 97.2 / 100 / 99.1 / 100 / 96.1 / 100
Подробная информация: http://pinkfloydarchives.com/DUKCDPF.htm#DSOTM5-Tracklist:
1. Speak To Me / Breathe In The Air 3:57
2. On The Run 3:34
3. Time 7:05
4. The Great Gig In The Sky 4:47
5. Money 6:22
6. Us And Them 7:50
7. Any Colour You Like 3:25
8. Brain Damage 3:50
9. Eclipse 2:01
-
THE DARK SIDE OF THE MOON- Производство: USA, Capitol, CDP 7 46001 2 (DIDX-00226), (1984?, 6th USA issue)
Мастеринг: Sony (U.S.) mastering
Продолжительность: 42:54
Peak Levels: 46.8 / 48.2 / 49.3 / 51.0 / 72.5 / 63.3 / 67.1 / 58.8 / 62.7
Подробная информация: http://pinkfloydarchives.com/DUSCDPF.htm#DSOTM6-Tracklist:
1. Speak To Me / Breathe In The Air 3:53
2. On The Run 3:34
3. Time 7:05
4. The Great Gig In The Sky 4:42
5. Money 6:24
6. Us And Them 7:49
7. Any Colour You Like 3:26
8. Brain Damage 3:50
9. Eclipse 2:06
THE DARK SIDE OF THE MOON- Производство: USA, Capitol, CDP 7 46001 2 (C 246001 2), (1987?, 15th USA issue)
Мастеринг: EMI mastering - EMI revision level 1
Продолжительность: 42:54
Peak Levels: 83.8 / 90.4 / 95.5 / 92.8 / 95.5 / 94.6 / 95.5 / 91.7 / 95.5
Подробная информация: http://pinkfloydarchives.com/DUSCDPF.htm#DSOTM15-Tracklist:
1. Speak To Me / Breathe In The Air 3:58
2. On The Run 3:35
3. Time 7:05
4. The Great Gig In The Sky 4:47
5. Money 6:22
6. Us And Them 7:50
7. Any Colour You Like 3:26
8. Brain Damage 3:50
9. Eclipse 2:01

-
David Gilmour - Guitar, Vocals & VCS3
Roger Waters - Bass Guitar,Vocals, VCS3 & Tape Effects
Nick Mason - Percussion & Tape Effects
Richard Wright - Keyboards Vocals & VCS3

Saxophone on 'Us and Them' and 'Money' by - Dick Parry
Vocals on 'The Great Gig In The Sky' by - Clare Torry
Backing Vocals by - Doris Troy, Leslie Duncan, Liza Strike, Barry St.John
Lyrics - Roger Waters
Produced by - PINK FLOYD
Recorded at - Abbey Road Studios, London
Between June 1972 and January 1973
Engineer - Alan Parsons
Assistant - Peter James
Mixing Supervised by - Chris Thomas
-
WISH YOU WERE HERE- Производство: Japan, CBS/Sony, 35DP 4, (1983, 2nd Japan issue)
Мастеринг: Sony (Japan) mastering
Продолжительность: 44:13
Peak Levels: 69.5 / 83.6
Подробная информация: http://pinkfloydarchives.com/DJaCDPF.htm#WYWH2-Tracklist:
1. Shine On You Crazy Diamond (Parts 1-5) / Welcome To The Machine 21:02
2. Have A Cigar / Wish You Were Here / Shine On You Crazy Diamond (Parts 6-9) 32:10
-
REM GENRE "Progressive Rock"REM DATE 1975REM DISCID 0F0A5D02REM COMMENT "ExactAudioCopy v0.99pb5"PERFORMER "Pink Floyd"TITLE "Wish You Were Here.35DP-4.Japan"FILE "Pink Floyd - Wish You Were Here.35DP-4.Japan.flac" WAVE TRACK 01 AUDIO TITLE "Shine On You Crazy Diamond (Parts 1-5) - Welcome To The Machine" PERFORMER "Pink Floyd" FLAGS PRE INDEX 01 00:00:00 INDEX 02 13:29:00 TRACK 02 AUDIO TITLE "Have A Cigar - Wish You Were Here - Shine On You Crazy Diamond (Parts 6-9)" PERFORMER "Pink Floyd" FLAGS PRE INDEX 00 21:00:12 INDEX 01 21:02:60 INDEX 02 26:09:37 INDEX 03 31:46:00
WISH YOU WERE HERE- Производство: Japan, EMI/Harvest, CDP 7 46035 2, (1984, 1st U.K. issue)
Мастеринг: Sony (West German) mastering
Продолжительность: 44:10
Peak Levels: 94.9 / 100.0 / 95.1 / 90.5 / 88.5
Подробная информация: http://pinkfloydarchives.com/DUKCDPF.htm#WYWH1-Tracklist:
1. Shine On You Crazy Diamond (Part 1) 13:33
2. Welcome To The Machine 7:26
3. Have A Cigar 5:08
4. Wish You Were Here 5:40
5. Shine On You Crazy Diamond (Part 2) 12:22
-
WISH YOU WERE HERE- Производство: USA, CBS, CK 33453, DIDP 50004, (1984, 2nd Canada issue) - same as 3rd US issue.
Мастеринг: Sony (U.S.) mastering
Продолжительность: 44:16
Peak Levels: 100 / 100 / 100 / 100 / 100
Подробная информация: http://pinkfloydarchives.com/DCaCDPF.htm#WYWH2-Tracklist:
1. Shine On You Crazy Diamond (Part 1) 13:33
2. Welcome To The Machine 7:33
3. Have A Cigar 5:24
4. Wish You Were Here 5:16
5. Shine On You Crazy Diamond (Part 2) 12:29
-TOC американского переиздания 1994 г. отличается от этого ровно на один (!) бит!
Так что, качать оба рипа, наверное, не обязательно...
WISH YOU WERE HERE- Производство: Japan, Japan, CBS/Sony, 32DP-359, (1985, 3rd Japan issue)
Мастеринг: Sony mastering
Продолжительность: 44:18
Peak Levels: 100 / 100 / 100 / 100 / 100
Подробная информация: http://pinkfloydarchives.com/DJaCDPF.htm#WYWH3-Tracklist:
1. Shine On You Crazy Diamond (Part 1) 13:31
2. Welcome To The Machine 7:33
3. Have A Cigar 5:24
4. Wish You Were Here 5:22
5. Shine On You Crazy Diamond (Part 2) 12:25
-
WISH YOU WERE HERE- Производство: UK, EMI/Harvest, CDP 7 46035 2, (1986, 6th U.K. issue)
Мастеринг: EMI mastering
Продолжительность: 44:08
Peak Levels: 100 / 100 / 100 / 100 / 100
Подробная информация: http://pinkfloydarchives.com/DUKCDPF.htm#WYWH6-Tracklist:
1. Shine On You Crazy Diamond (Part 1) 13:30
2. Welcome To The Machine 7:26
3. Have A Cigar 5:08
4. Wish You Were Here 5:40
5. Shine On You Crazy Diamond (Part 2) 12:22
WISH YOU WERE HERE- Производство: USA, CBS, CK 33453 (DIDP-050004), (1994, 12th USA issue)
Мастеринг: Sony (U.S.) mastering (1984)
Продолжительность: 44:16
Peak Levels: 100 / 100 / 100 / 100 / 100
Подробная информация: http://www.pinkfloydarchives.com/DUSCDPF.htm#WYWH12-Tracklist:
1. Shine On You Crazy Diamond (Part 1) 13:33
2. Welcome To The Machine 7:33
3. Have A Cigar 5:24
4. Wish You Were Here 5:16
5. Shine On You Crazy Diamond (Part 2) 12:29

-
David Gilmour – vocals, guitar, lap steel guitar, EMS Synthi AKS, keyboards, tape effects
Roger Waters – vocals, bass guitar, guitar, VCS3, tape effects
Richard Wright – keyboards, VCS3, clavinet, background vocals
Nick Mason – drums, percussion, tape effects

Dick Parry – saxophone on "Shine On You Crazy Diamond"
Roy Harper – vocals on "Have a Cigar"
Venetta Fields and Carlena Williams – background vocals
Recorded at - Abbey Road Studios January to July 1975
Engineered by - Brian Humphries
Assisted by - Peter James
Thanks to - Bernie Caulder and Phil Taylor
Lyrics by - Roger Waters
Produced by Pink Floyd
-
ANIMALS- Производство: Japan, CBS/Sony, 32DP-360, (1985, 1st Japan issue)
Мастеринг: Sony mastering
Продолжительность: 41:48
Peak Levels: 60.2 / 80.4 / 71.4 / 74.6 / 41.9
Подробная информация: http://pinkfloydarchives.com/DJaCDPF.htm#Anim1-Tracklist:
1 Pigs On The Wing (Part One) 1:24
2 Dogs 17:06
3 Pigs (Three Different Ones) 11:30
4 Sheep 10:18
5 Pigs On The Wing (Part Two) 1:27
-
ANIMALS- Производство: UK, EMI/Harvest, CDP 7 46128 2, (1987, 1st U.K. issue)
Мастеринг: EMI mastering
Продолжительность: 41:39
Peak Levels: 48.3 / 82.7 / 64.8 / 75.7 / 32.4
Подробная информация: http://pinkfloydarchives.com/DUKCDPF.htm#Anim1-Tracklist:
1 Pigs On The Wing (Part One) 1:25
2 Dogs 17:04
3 Pigs (Three Different Ones) 11:21
4 Sheep 10:23
5 Pigs On The Wing (Part Two) 1:24
-
ANIMALS- Производство: Canada, Capitol, CK-34474, (198?, 3rd Canadian issue)
Мастеринг: Sony mastering 1A
Продолжительность: 41:46
Peak Levels: 58.8 / 78.5 / 69.8 / 72.9 / 41.0
Подробная информация: http://pinkfloydarchives.com/DCaCDPF.htm#Anim3-Tracklist:
1 Pigs On The Wing (Part One) 1:24
2 Dogs 17:06
3 Pigs (Three Different Ones) 11:27
4 Sheep 10:20
5 Pigs On The Wing (Part Two) 1:26
-

-
David Gilmour — guitars, bass guitar, vocals, talk box, synthesiser, lead vocals on the first half of "Dogs"
Nick Mason — drums, percussion
Roger Waters — bass guitar, lead vocals on remaining songs, acoustic and rhythm guitar
Richard Wright — Hammond organ, Wurlitzer electric piano, Fender Rhodes electric piano, Hohner Clavinet, Yamaha grand piano, ARP Solina String Machine, ARP synthesiser, Minimoog, backing vocals
Produced by - PINK FLOYD
Engineered by - Brian Humphries
Recorded at - Britannia Row Studios, London
Lyrics by - Roger Waters
-
THE WALL- Производство: Japan, EMI/Harvest, CDP 7 46036 8 (CDP 7 46036/46037 2), (1984, 1st U.K. issue)
Мастеринг: Sony mastering
Продолжительность: 39:06 + 41:53
Peak Levels:
Disc 1: 53.0 / 39.0 / 53.5 / 57.2 / 47.0 / 60.9 / 23.8 / 49.4 / 27.7 / 55.9 / 58.2 / 57.6 / 12.0
Disc 2: 42.4 / 36.5 / 23.2 / 20.3 / 66.4 / 44.6 / 35.2 / 45.4 / 55.0 / 43.5 / 47.9 / 35.6 / 7.0
Подробная информация: http://pinkfloydarchives.com/DUKCDPF.htm#Wall1-Tracklist:
1.01 In The Flesh? 3:18
1.02 The Thin Ice 2:29
1.03 Another Brick In The Wall (Part 1) 3:41
1.04 The Happiest Days Of Our Lives 1:20
1.05 Another Brick In The Wall (Part 2) 3:56
1.06 Mother 5:32
1.07 Goodbye Blue Sky 2:48
1.08 Empty Spaces 5:36
1.09 Young Lust 2:03
1.10 One Of My Turns 1:33
1.11 Don't Leave Me Now 4:22
1.12 Another Brick In The Wall (Part 3) 1:17
1.13 Goodbye Cruel World 1:06
2.01 Hey You 4:40
2.02 Is There Anybody Out There 2:46
2.03 Nobody Home 3:22
2.04 Vera 1:35
2.05 Bring The Boys Back Home 0:58
2.06 Comfortably Numb 6:41
2.07 The Show Must Go On 1:37
2.08 In The Flesh 4:16
2.09 Run Like Hell 4:22
2.10 Waiting For The Worms 3:56
2.11 Stop 0:33
2.12 The Trial 5:17
2.13 Outside The Wall 1:43
-
THE WALL- Производство: West Germany, EMI/Harvest, CDP 7 46036/46037 2, (1985, 2nd West German issue)
Мастеринг: West German (Sonopress) mastering
Продолжительность: 39:05 + 41:52
Peak Levels:
Disc 1: 97.7 / 76.4 / 97.7 / 97.7 / 91.9 / 97.7 / 46.6 / 96.6 / 54.2 / 97.7 / 97.7 / 97.7 / 23.5
Disc 2: 61.3 / 52.7 / 33.6 / 29.4 / 96.0 / 64.5 / 49.8 / 64.1 / 77.7 / 61.4 / 67.6 / 50.3 / 9.9
Подробная информация: http://pinkfloydarchives.com/DGerCDPF.htm#Wall2-Tracklist:
1.01 In The Flesh? 3:17
1.02 The Thin Ice 2:28
1.03 Another Brick In The Wall (Part 1) 3:41
1.04 The Happiest Days Of Our Lives 1:20
1.05 Another Brick In The Wall (Part 2) 3:56
1.06 Mother 5:32
1.07 Goodbye Blue Sky 2:48
1.08 Empty Spaces 5:36
1.09 Young Lust 2:03
1.10 One Of My Turns 1:33
1.11 Don't Leave Me Now 4:22
1.12 Another Brick In The Wall (Part 3) 1:17
1.13 Goodbye Cruel World 1:05
2.01 Hey You 4:39
2.02 Is There Anybody Out There 2:40
2.03 Nobody Home 3:25
2.04 Vera 1:38
2.05 Bring The Boys Back Home 0:50
2.06 Comfortably Numb 6:49
2.07 The Show Must Go On 1:36
2.08 In The Flesh 4:16
2.09 Run Like Hell 4:22
2.10 Waiting For The Worms 3:56
2.11 Stop 0:34
2.12 The Trial 5:16
2.13 Outside The Wall 1:42-(от первого немецкого издания того же года отличается наличием штрих-кода на заднике... )
THE WALL- Производство: Japan, CBS/Sony, 50DP 361-2, (1985, 1st Japan issue)
Мастеринг: Sony mastering
Продолжительность: 39:19 + 42:00
Peak Levels:
Disc 1: 96.8 / 78.7 / 87.4 / 100 / 83.2 / 100 / 48.0 / 60.8 / 100 / 100 / 86.1 / 100 / 25.5
Disc 2: 85.4 / 63.3 / 72.8 / 44.7 / 100 / 94.9 / 72.6 / 100 / 100 / 94.9 / 100 / 79.2 / 15.7
Подробная информация: http://pinkfloydarchives.com/DJaCDPF.htm#Wall1-Tracklist:
1.01 In The Flesh? 3:19
1.02 The Thin Ice 2:29
1.03 Another Brick In The Wall (Part 1) 3:10
1.04 The Happiest Days Of Our Lives 1:51
1.05 Another Brick In The Wall (Part 2) 4:00
1.06 Mother 5:31
1.07 Goodbye Blue Sky 2:49
1.08 Empty Spaces 2:07
1.09 Young Lust 3:33
1.10 One Of My Turns 3:34
1.11 Don't Leave Me Now 4:16
1.12 Another Brick In The Wall (Part 3) 1:17
1.13 Goodbye Cruel World 1:14
2.01 Hey You 4:41
2.02 Is There Anybody Out There 2:57
2.03 Nobody Home 3:11
2.04 Vera 1:29
2.05 Bring The Boys Back Home 1:26
2.06 Comfortably Numb 6:22
2.07 The Show Must Go On 1:37
2.08 In The Flesh 4:15
2.09 Run Like Hell 4:20
2.10 Waiting For The Worms 4:01
2.11 Stop 0:31
2.12 The Trial 5:19
2.13 Outside The Wall 1:44
-
REM GENRE "Progressive Rock"REM DATE 1979REM DISCID AA09370DREM COMMENT "ExactAudioCopy v0.99pb5"PERFORMER "Pink Floyd"TITLE "The Wall.50DP361.Japan"FILE "Pink Floyd - The Wall.50DP 361.Japan.flac" WAVE TRACK 01 AUDIO TITLE "In The Flesh?" PERFORMER "Pink Floyd" FLAGS PRE INDEX 01 00:00:00 TRACK 02 AUDIO TITLE "The Thin Ice" PERFORMER "Pink Floyd" FLAGS PRE INDEX 01 03:19:42 TRACK 03 AUDIO TITLE "Another Brick In The Wall (Part I)" PERFORMER "Pink Floyd" FLAGS PRE INDEX 01 05:49:35 TRACK 04 AUDIO TITLE "The Happiest Days Of Our Lives" PERFORMER "Pink Floyd" FLAGS PRE INDEX 01 09:00:20 TRACK 05 AUDIO TITLE "Another Brick In The Wall (Part II)" PERFORMER "Pink Floyd" FLAGS PRE INDEX 01 10:51:27 TRACK 06 AUDIO TITLE "Mother" PERFORMER "Pink Floyd" FLAGS PRE INDEX 01 14:52:07 TRACK 07 AUDIO TITLE "Goodbye Blue Sky" PERFORMER "Pink Floyd" FLAGS PRE INDEX 00 20:23:67 INDEX 01 20:25:60 TRACK 08 AUDIO TITLE "Empty Spaces" PERFORMER "Pink Floyd" FLAGS PRE INDEX 01 23:15:55 TRACK 09 AUDIO TITLE "Young Lust" PERFORMER "Pink Floyd" FLAGS PRE INDEX 01 25:22:67 TRACK 10 AUDIO TITLE "One Of My Turns" PERFORMER "Pink Floyd" FLAGS PRE INDEX 01 28:55:72 TRACK 11 AUDIO TITLE "Don't Leave Me Now" PERFORMER "Pink Floyd" FLAGS PRE INDEX 01 32:30:50 TRACK 12 AUDIO TITLE "Another Brick In The Wall (Part III)" PERFORMER "Pink Floyd" FLAGS PRE INDEX 01 36:47:32 TRACK 13 AUDIO TITLE "Goodbye Cruel World" PERFORMER "Pink Floyd" FLAGS PRE INDEX 01 38:04:72
REM GENRE RockREM DATE 1979REM DISCID AB09D80DREM COMMENT "ExactAudioCopy v0.99pb5"PERFORMER "Pink Floyd"TITLE "The Wall.50DP362.Japan"FILE "Pink Floyd - The Wall.50DP 362.Japan.flac" WAVE TRACK 01 AUDIO TITLE "Hey You" PERFORMER "Pink Floyd" FLAGS PRE INDEX 01 00:00:00 TRACK 02 AUDIO TITLE "Is There Anybody Out There" PERFORMER "Pink Floyd" FLAGS PRE INDEX 01 04:41:27 TRACK 03 AUDIO TITLE "Nobody Home" PERFORMER "Pink Floyd" FLAGS PRE INDEX 01 07:39:00 TRACK 04 AUDIO TITLE "Vera" PERFORMER "Pink Floyd" FLAGS PRE INDEX 01 10:50:72 TRACK 05 AUDIO TITLE "Bring The Boys Back Home" PERFORMER "Pink Floyd" FLAGS PRE INDEX 01 12:20:35 TRACK 06 AUDIO TITLE "Comfortably Numb" PERFORMER "Pink Floyd" FLAGS PRE INDEX 01 13:46:50 TRACK 07 AUDIO TITLE "The Show Must Go On" PERFORMER "Pink Floyd" FLAGS PRE INDEX 00 20:09:27 INDEX 01 20:10:47 TRACK 08 AUDIO TITLE "In The Flesh" PERFORMER "Pink Floyd" FLAGS PRE INDEX 01 21:47:60 TRACK 09 AUDIO TITLE "Run Like Hell" PERFORMER "Pink Floyd" FLAGS PRE INDEX 01 26:03:07 TRACK 10 AUDIO TITLE "Waiting For The Worms" PERFORMER "Pink Floyd" FLAGS PRE INDEX 01 30:23:70 TRACK 11 AUDIO TITLE "Stop" PERFORMER "Pink Floyd" FLAGS PRE INDEX 01 34:25:42 TRACK 12 AUDIO TITLE "The Trial" PERFORMER "Pink Floyd" FLAGS PRE INDEX 01 34:56:72 TRACK 13 AUDIO TITLE "Outside The Wall" PERFORMER "Pink Floyd" FLAGS PRE INDEX 01 40:16:12
THE WALL- Производство: UK, EMI/Harvest, CDS 7 46036 8, (1987?, 4th U.K. issue)
Мастеринг: EMI mastering
Продолжительность: 39:05 + 41:52
Peak Levels:
Disc 1: 100 / 78.1 / 100 / 100 / 94.1 / 100 / 47.7 / 98.8 / 55.5 / 100 / 100 / 100 / 24.0
Disc 2: 62.7 / 53.9 / 34.4 / 30.1 / 98.2 / 66.0 / 50.9 / 65.6 / 79.5 / 62.8 / 69.2 / 51.5 / 10.2
Подробная информация: http://pinkfloydarchives.com/DUKCDPF.htm#Wall4-Tracklist:
1.01 In The Flesh? 3:18
1.02 The Thin Ice 2:29
1.03 Another Brick In The Wall (Part 1) 3:41
1.04 The Happiest Days Of Our Lives 1:20
1.05 Another Brick In The Wall (Part 2) 3:56
1.06 Mother 5:32
1.07 Goodbye Blue Sky 2:48
1.08 Empty Spaces 5:36
1.09 Young Lust 2:03
1.10 One Of My Turns 1:33
1.11 Don't Leave Me Now 4:22
1.12 Another Brick In The Wall (Part 3) 1:17
1.13 Goodbye Cruel World 1:05
2.01 Hey You 4:40
2.02 Is There Anybody Out There 2:40
2.03 Nobody Home 3:25
2.04 Vera 1:38
2.05 Bring The Boys Back Home 0:50
2.06 Comfortably Numb 6:49
2.07 The Show Must Go On 1:36
2.08 In The Flesh 4:16
2.09 Run Like Hell 4:22
2.10 Waiting For The Worms 3:56
2.11 Stop 0:34
2.12 The Trial 5:16
2.13 Outside The Wall 1:42
-
THE WALL- Производство: Canada, Columbia, C2K-36183, (198?, 3rd Canada issue)
Мастеринг: ?
Продолжительность: 39:18 + 42:00
Peak Levels:
Disc 1: 94.6 / 76.9 / 85.4 / 97.7 / 81.3 / 97.7 / 46.9 / 59.5 / 97.7 / 97.7 / 84.2 / 97.7 / 24.9
Disc 2: 83.5 / 61.9 / 71.1 / 43.6 / 97.7 / 92.8 / 71.0 / 97.7 / 97.7 / 92.7 / 97.7 / 77.4 / 15.3
Подробная информация: http://pinkfloydarchives.com/DCaCDPF.htm#Wall3-Tracklist:
1.01 In The Flesh? 3:19
1.02 The Thin Ice 2:29
1.03 Another Brick In The Wall (Part 1) 3:10
1.04 The Happiest Days Of Our Lives 1:51
1.05 Another Brick In The Wall (Part 2) 4:00
1.06 Mother 5:34
1.07 Goodbye Blue Sky 2:49
1.08 Empty Spaces 2:07
1.09 Young Lust 3:32
1.10 One Of My Turns 3:35
1.11 Don't Leave Me Now 4:16
1.12 Another Brick In The Wall (Part 3) 1:17
1.13 Goodbye Cruel World 1:14
2.01 Hey You 4:40
2.02 Is There Anybody Out There 2:57
2.03 Nobody Home 3:11
2.04 Vera 1:29
2.05 Bring The Boys Back Home 1:26
2.06 Comfortably Numb 6:24
2.07 The Show Must Go On 1:36
2.08 In The Flesh 4:16
2.09 Run Like Hell 4:19
2.10 Waiting For The Worms 4:02
2.11 Stop 0:31
2.12 The Trial 5:19
2.13 Outside The Wall 1:44
-

-
David Gilmour — electric and acoustic guitars, vocals, pedal steel, synthesisers, fretted and fretless bass guitars, clavinet, sound effects
Nick Mason — drums, percussion
Roger Waters — vocals, bass guitar, acoustic guitar, synthesiser, sound effects
Richard Wright — organ, piano, Rhodes electric piano, synthesisers, bass pedals

Bruce Johnston — backing vocals
Toni Tennille — backing vocals
Joe Chemay — backing vocals
John Joyce — backing vocals
Islington Green School — children’s choir
Michael Kamen — orchestra arrangement
Bob Ezrin — orchestra arrangement
Additional musicians (uncredited):
Bob Ezrin — organ, piano, synthesizer, backing vocals
James Guthrie — percussion, synthesizer, sound effects
Jeff Porcaro — drums
Joe Porcaro, Blue Ocean & 5 others — snare drums
Lee Ritenour — guitars
Ron di Blasi — classical guitar
Fred Mandel — Hammond organ
Bobbye Hall — congas, bongos
Frank Marrocco — concertina
Larry Williams — clarinet
Trevor Veitch — mandolin
New York Orchestra — orchestra
New York Opera — choral vocals
Unnamed children's choir from New York — children’s choral vocals
"Vicki & Clare" — backing vocals
Harry Waters — child's voice
Chris Fitzmorris — male telephone voice
Trudy Young — voice of the groupie
Phil Taylor — sound effects

Produced by - Bob Ezrin, David Gilmour & Roger Waters
Co-Produced by - James Guthrie
-
the final cut
a requiem for the post war dream- Производство: Japan, CBS/Sony, 35DP-53, (1983, 1st Japan issue)
Мастеринг: Sony (Japan) mastering
Продолжительность: 43:31
Peak Levels: 62.8 / 67.5 / 20.9 / 80.6 / 77.5 / 42.5 / 52.4 / 58.4 / 16.9 / 60.1 / 75.3 / 49.5
Подробная информация: http://pinkfloydarchives.com/DJaCDPF.htm#TFC1-Tracklist:
1. the post war dream 3:03
2. your possible pasts 4:30
3. one of the few 1:13
4. the hero’s return 3:00
5. the gunners dream 5:08
6. paranoid eyes 3:44
7. get your filthy hands off my desert 1:16
8. the fletcher memorial home 4:15
9. southampton dock 2:12
10. the final cut 4:45
11. not now john 5:03
12. two suns in the sunset 5:20
-
REM GENRE "Progressive Rock"REM DATE 1983REM DISCID A10A330CREM COMMENT "ExactAudioCopy v0.99pb5"PERFORMER "Pink Floyd"TITLE "The Final Cut.35DP-53.Japan"FILE "Pink Floyd - The Final Cut.35DP-53.Japan.flac" WAVE TRACK 01 AUDIO TITLE "The Post War Dream" PERFORMER "Pink Floyd" FLAGS PRE INDEX 01 00:00:00 TRACK 02 AUDIO TITLE "Your Possible Pasts" PERFORMER "Pink Floyd" FLAGS PRE INDEX 01 03:03:00 TRACK 03 AUDIO TITLE "One Of The Few" PERFORMER "Pink Floyd" FLAGS PRE INDEX 01 07:33:20 TRACK 04 AUDIO TITLE "The Hero's Return" PERFORMER "Pink Floyd" FLAGS PRE INDEX 01 08:47:00 TRACK 05 AUDIO TITLE "The Gunners Dream" PERFORMER "Pink Floyd" FLAGS PRE INDEX 01 11:47:00 TRACK 06 AUDIO TITLE "Paranoid Eyes" PERFORMER "Pink Floyd" FLAGS PRE INDEX 01 16:55:00 TRACK 07 AUDIO TITLE "Get Your Filthy Hands Off My Desert" PERFORMER "Pink Floyd" FLAGS PRE INDEX 00 20:34:72 INDEX 01 20:39:00 TRACK 08 AUDIO TITLE "The Fletcher Memorial Home" PERFORMER "Pink Floyd" FLAGS PRE INDEX 01 21:55:00 TRACK 09 AUDIO TITLE "Southampton Dock" PERFORMER "Pink Floyd" FLAGS PRE INDEX 01 26:10:00 TRACK 10 AUDIO TITLE "The Final Cut" PERFORMER "Pink Floyd" FLAGS PRE INDEX 01 28:22:00 TRACK 11 AUDIO TITLE "Not Now John" PERFORMER "Pink Floyd" FLAGS PRE INDEX 01 33:07:67 TRACK 12 AUDIO TITLE "Two Suns In The Sunset" PERFORMER "Pink Floyd" FLAGS PRE INDEX 01 38:11:00
the final cut
a requiem for the post war dream- Производство: Japan, CBS/Sony, 32DP-364, (1985, 2nd Japan issue)
Мастеринг: Sony (Japan) mastering
Продолжительность: 43:29
Peak Levels: 69.3 / 67.8 / 21.5 / 90.4 / 75.2 / 47.7 / 61.9 / 67.0 / 20.8 / 63.0 / 88.6 / 53.1
Подробная информация: http://pinkfloydarchives.com/DJaCDPF.htm#TFC2-Tracklist:
1. the post war dream 3:01
2. your possible pasts 4:21
3. one of the few 1:26
4. the hero’s return 2:57
5. the gunners dream 5:04
6. paranoid eyes 3:49
7. get your filthy hands off my desert 1:18
8. the fletcher memorial home 4:10
9. southampton dock 2:09
10. the final cut 4:47
11. not now john 5:02
12. two suns in the sunset 5:21
-
the final cut
a requiem for the post war dream- Производство: UK/(Japan), EMI/Harvest, CDP 7 46129 2, (1984, 1st UK issue)
Мастеринг: Sony mastering
Продолжительность: 43:12
Peak Levels: 95.2 / 100 / 30.2 / 100 / 100 / 69.9 / 85.4 / 100 / 27.6 / 96.2 / 100 / 80.6
Подробная информация: http://pinkfloydarchives.com/DUKCDPF.htm#TFC1-Tracklist:
1. the post war dream 2:56
2. your possible pasts 4:37
3. one of the few 1:14
4. the hero’s return 2:34
5. the gunners dream 5:29
6. paranoid eyes 3:35
7. get your filthy hands off my desert 1:19
8. the fletcher memorial home 4:10
9. southampton dock 2:13
10. the final cut 4:43
11. not now john 5:02
12. two suns in the sunset 5:16
-
the final cut
a requiem for the post war dream- Производство: USA/(Japan), CBS, CK 38243, (1985, 2nd US issue)
Мастеринг: second Sony mastering (the same mastering as the second Japanese issue (32DP 364)
Продолжительность: 43:28
Peak Levels: 69.3 / 67.8 / 21.5 / 90.4 / 75.2 / 47.7 / 61.9 / 67.0 / 20.8 / 63.0 / 88.6 / 53.1
Подробная информация: http://pinkfloydarchives.com/DUSCDPF.htm#TFC2-Tracklist:
1. the post war dream 3:00
2. your possible pasts 4:21
3. one of the few 1:25
4. the hero’s return 2:57
5. the gunners dream 5:04
6. paranoid eyes 3:49
7. get your filthy hands off my desert 1:18
8. the fletcher memorial home 4:10
9. southampton dock 2:05
10. the final cut 4:52
11. not now john 5:02
12. two suns in the sunset 5:20
-
the final cut
a requiem for the post war dream- Производство: UK, EMI/Harvest, CDP 7 46129 2, (1987, 2nd U.K. issue)
Мастеринг: EMI mastering
Продолжительность: 43:12
Peak Levels: 95.2 / 100 / 30.2 / 100 / 100 / 69.9 / 85.4 / 100 / 27.6 / 96.2 / 100 / 80.6
Подробная информация: http://pinkfloydarchives.com/DUKCDPF.htm#TFC2-Tracklist:
1. the post war dream 2:56
2. your possible pasts 4:37
3. one of the few 1:14
4. the hero’s return 2:34
5. the gunners dream 5:29
6. paranoid eyes 3:35
7. get your filthy hands off my desert 1:19
8. the fletcher memorial home 4:10
9. southampton dock 2:13
10. the final cut 4:43
11. not now john 5:02
12. two suns in the sunset 5:16
-От первого британского отличается только пре-гэпом. Уровни те же самые...

-
performed by pink floyd
david gilmour - nick mason - roger waters
with
michael kamen - piano harmonium
andy brown - hammond organ
ray cooper - percussion
andy newmark - drums on "two suns"
raphael ravenscroft - tenor sax
and the national philharmonic orchestra
conducted and arranged by michael kamen

produced by
roger waters
james guthrie and michael kamen
engineered by
james guthrie and andy jackson
assistant engineers
andy canelle
mike nocito
jules bowen
cover design
roger waters
photography
willie christie
artwork
artful dodgers
recorded in england at mayfair - olympic - abbey road
eel pie - audio international - rak - hookend and
the billiard room between July and December 1982
holophonics by
zuccarelli labs. ltd
pink floyd management
steve o’rourke
mastered by doug sax at the mastering lab
special thanks to neal wharton

for eric fletcher waters 1913-1944
-
A Momentary Lapse Of Reason- Производство: UK, EMI, CDP 7 48068 2, (1987, 1st U.K. issue)
Мастеринг: EMI mastering
Продолжительность: 51:13
Peak Levels: 64.1 / 100 / 88.8 / 85.2 / 83.1 / 97.6 / 39.9 / 97.5 / 38.8 / 90.9
Подробная информация: http://pinkfloydarchives.com/DUKCDPF.htm#MLOR1-Tracklist:
1 Signs Of Life 4:24
2 Learning To Fly 4:53
3 The Dogs Of War 6:05
4 One Slip 5:10
5 On The Turning Away 5:42
6 Yet Another Movie / Round And Around 7:28
7 A New Machine (Part 1) 1:46
8 Terminal Frost 6:17
9 A New Machine (Part 2) 0:38
10 Sorrow 8:46
-
A Momentary Lapse Of Reason- Производство: Japan, CBS/Sony, 32DP 820, (1987, 1st Japan issue)
Мастеринг: Sony mastering
Продолжительность: 51:14
Peak Levels: 64.1 / 100 / 93.0 / 89.2 / 85.1 / 99.9 / 40.8 / 99.8 / 39.7 / 93.1
Подробная информация: http://pinkfloydarchives.com/DJaCDPF.htm#MLOR1-Tracklist:
1 Signs Of Life 4:23
2 Learning To Fly 4:53
3 The Dogs Of War 6:11
4 One Slip 5:04
5 On The Turning Away 5:41
6 Yet Another Movie / Round And Around 7:28
7 A New Machine (Part 1) 1:46
8 Terminal Frost 6:17
9 A New Machine (Part 2) 0:38
10 Sorrow 8:49
-
A Momentary Lapse Of Reason- Производство: Austria, CBS, CDCBS 460188 2, (1987?, 2nd Austrian issue)
Мастеринг: Sony mastering
Продолжительность: 51:14
Peak Levels: 64.1 / 100 / 93.0 / 89.2 / 85.1 / 99.9 / 40.8 / 99.8 / 39.7 / 93.1
Подробная информация: http://pinkfloydarchives.com/DAsCDPF.htm#MLOR2-Tracklist:
1 Signs Of Life 4:24
2 Learning To Fly 4:53
3 The Dogs Of War 6:10
4 One Slip 5:04
5 On The Turning Away 5:41
6 Yet Another Movie / Round And Around 7:28
7 A New Machine (Part 1) 1:46
8 Terminal Frost 6:17
9 A New Machine (Part 2) 0:38
10 Sorrow 8:48
-

-
David Gilmour – vocals, guitars, keyboards, sequencers
Nick Mason – drums, percussion, drum machine, sound effects
Richard Wright – keyboards, backing vocals
Bob Ezrin – keyboards, percussion, sequencers
Tony Levin – bass guitar, Chapman Stick
Jim Keltner – drums, percussion
Steve Forman – percussion
Jon Carin – keyboards
Tom Scott – alto saxophone, soprano saxophone
Scott Page – tenor saxophone
Carmine Appice – drums
Patrick Leonard – synthesisers
Bill Payne – Hammond organ
Michael Landau – guitar
John Helliwell – saxophone (credited as "John Halliwell")
Darlene Koldenhaven – backing vocals
Carmen Twillie – backing vocals
Phyllis St. James – backing vocals
Donnie Gerrard – backing vocals

Produced by Bob Ezrin & David Gilmour
-
THE DIVISION BELL- Производство: EU (Holland/England), EMI, 7243 8 28984 2 9, CDP 828984 2, (1994, 1st EU issue)
Мастеринг: EMI mastering
Продолжительность: 66:30
Peak Levels: 76.2 / 93.2 / 97.9 / 84.6 / 84.1 / 82.9 / 100 / 100 / 100 / 100 / 100
Подробная информация: http://pinkfloydarchives.com/DEUCDPF.htm#TDB-Tracklist:
1. Cluster One 5:58
2. What Do You Want From Me 4:21
3. Poles Apart 7:04
4. Marooned 5:28
5. A Great Day For Freedom 4:18
6. Wearing The Inside Out 6:48
7. Take It Back 6:12
8. Coming Back To Life 6:19
9. Keep Talking 6:11
10. Lost For Words 5:14
11. High Hopes 8:31

-
THE DIVISION BELL- Производство: Japan, Sony, SRCS 7324, (1994, 1st Japan issue)
Мастеринг: Sony mastering
Продолжительность: 66:31
Peak Levels: 76.6 / 93.5 / 99.0 / 83.9 / 83.9 / 81.8 / 100 / 100 / 100 / 100 / 100
Подробная информация: http://pinkfloydarchives.com/DJaCDPF.htm#TDB1-Tracklist:
1. Cluster One 5:57
2. What Do You Want From Me 4:21
3. Poles Apart 7:04
4. Marooned 5:28
5. A Great Day For Freedom 4:18
6. Wearing The Inside Out 6:49
7. Take It Back 6:12
8. Coming Back To Life 6:19
9. Keep Talking 6:11
10. Lost For Words 5:14
11. High Hopes 8:33
-

-
David Gilmour – lead vocals, guitars, bass guitar, acoustic guitar, keyboards, production, mixing, programming
Nick Mason – drums, percussion, programming
Richard Wright – keyboards, piano, vocals

Jon Carin – programming and additional keyboards
Guy Pratt – bass guitar
Gary Wallis – percussion
Tim Renwick – guitars
Dick Parry – Tenor Saxophone
Bob Ezrin – keyboards and percussion
Sam Brown – backing vocals
Durga McBroom – backing vocals
Carol Kenyon – backing vocals
Jackie Sheridan – backing vocals
Rebecca Leigh-White – backing vocals

Produced by Bob Ezrin and David Gilmour
- -
Рипы предоставлены:
The Piper at the Gates of Dawn [1st U.K. issue], A Saucerful Of Secrets [1st U.K. issue] - Beatlman;
Soundtrack From The Film "More" [1st US issue], Atom Heart Mother [1st US issue] - erro;
The Dark Side of the Moon [13th USA issue] - alonzo;
The Dark Side of the Moon [5th USA issue], Wish You Were Here [12th USA issue] - squirr;
The Final Cut [1st UK issue] - sewerok;
Ummagumma [3rd US issue] - Stripakulina;
The Piper at the Gates of Dawn [2nd U.K. issue], The Piper at the Gates of Dawn [2nd Japan issue], A Saucerful Of Secrets [1st + 3rd Japan issue], Soundtrack From The Film "More" [1st West German issue], Soundtrack From The Film "More" [2nd japan issue], Ummagumma [2nd U.K. issue], Ummagumma [2nd Japan issue], Atom Heart Mother [1st Italian issue], Atom Heart Mother [1st Japan issue], Meddle [1st Japan issue], Meddle [1st U.K. issue], Obscured by Clouds [2nd Japan issue], The Dark Side of the Moon [1st Japan issue], The Dark Side of the Moon [3rd Japan issue], The Dark Side of the Moon [1st U.K. issue], Wish You Were Here [1st U.K. issue], Wish You Were Here [2nd + 3rd Japan issues], Wish You Were Here [2nd Canada], Animals [1st Japan issue], Animals [3rd Canada issue], The Wall [1st Japan issue], The Wall [1st + 4th U.K. issues], The Wall [2nd West German issue], The Wall [3rd Canada issue], The Final Cut [1st + 2nd Japan issues], The Final Cut [2nd US issue], A Momentary Lapse Of Reason [1st Japan issue], A Momentary Lapse Of Reason [2nd Austrian issue], The Division Bell [1st Japan issue] - jktu_p.
Огромное им спасибо за то, что эта раздача состоялась!!!
Meddle [3rd U.K. issue], Obscured by Clouds [1st West German issue], The Dark Side of the Moon [5th U.K. issue], Wish You Were Here [6th U.K. issue], Animals [1st U.K. issue], The Final Cut [2nd U.K. issue], A Momentary Lapse Of Reason [1st U.K. issue], The Division Bell [1st EU issue] - Olafweisse.-Рипы сделаны с собственных оригинальных дисков, test & copy (кроме тех, что от Beatlman), secure mode, accurate stream.

bay Olaf der Weisse
Большое спасибо ему за проделанную работу
-
Download / Скачать

Хотите скачать бесплатно? Зарегистрируйтесь на сайте (ссылка на регистрацию). Pirat.ca - самый быстрый торрент трекер в рунете!

Как скачивать  ·   Что такое торрент  ·   Рейтинг и ограничения

diris

Штурман

Пост 26-Мар-2013 09:13 (спустя 1 месяц 22 дня)

[Q] 

[Профиль]  [ЛС] 

Zorky

Морской Волк

Пост 15-Апр-2013 13:58 (спустя 20 дней)

[Q] 

Спасибо!!!!!
[Профиль]  [ЛС] 

Skott

Штурман

Пост 23-Апр-2013 13:55 (спустя 7 дней)

[Q] 

[Профиль]  [ЛС] 

BilG

Флибустьер

Пост 13-Мар-2017 13:53 (спустя 3 года 10 месяцев)

[Q] 

Благодарю за труд ! ar

_________________
[Профиль]  [ЛС] 
Показать сообщения:    
Ответить на тему

Текущее время: Сегодня 17:22

Часовой пояс: GMT + 4



Вы не можете начинать темы
Вы не можете отвечать на сообщения
Вы не можете редактировать свои сообщения
Вы не можете удалять свои сообщения
Вы не можете голосовать в опросах
Вы не можете прикреплять файлы к сообщениям
Вы не можете скачивать файлы

Майнать ▼