(Prog-related classic rock) Supertramp - Студийная дискография (неремастеры) (1970-2002), 11 альбомов, FLAC (image+.cue), lossless

Ответить на тему
 
Автор
Сообщение

Пост 04-Фев-2013 14:02

[Q] 

Kote Makaradze

Supertrampстудийная дискография (1970-2002)- -Жанр: Prog-related classic rock
Страна: UK
Производитель: Europe
Аудио кодек: FLAC
Тип рипа: image+.cue
Битрейт аудио: lossless
Сканы: 600 dpi
Wiki
-
-
Supertramp- Дата выпуска альбома: 14 July 1970
CD: West Germany, A&M, 393 149-2, (198?)
Продолжительность: 47:46-Tracklist:

1. Surely 0:31
2. It's A Long Road 5:34
3. Aubade (And I Am Not Like Other Birds Of Prey) 5:17
4. Words Unspoken 3:60
5. Maybe I'm A Beggar 6:42
6. Home Again 1:14
7. Nothing To Show 4:53
8. Shadow Song 4:24
9. Try Again 12:03
10. Surely 3:09
-
Richard Davies – organ, harmonica, piano, electric piano, vocals
Roger Hodgson – acoustic guitar, bass guitar, cello, flageolet, vocals
Robert Millar – drums, percussion, harmonica
Richard Palmer – acoustic guitar, balalaika, electric guitar, vocals
Produced by Supertramp
-
Indelibly Stamped- Дата выпуска альбома: June 1971
CD: France, A&M, 393 129-2, (198?)
Продолжительность: 40Ж19-Tracklist:

1. Your Poppa Don't Mind 3:03
2. Travelled 4:24
3. Rosie Had Everything Planned 3:01
4. Remember 4:12
5. Forever 5:00
6. Potter 2:23
7. Coming Home To See You 4:44
8. Times Have Changed 3:49
9. Friend In Need 2:07
10. Aries 7:37
-
Kevin Currie – percussion, drums
Rick Davies – harmonica, keyboards, lead vocals
Frank Farrell – bass, piano, electric piano, accordion, background vocals
Roger Hodgson – acoustic and lead guitar, bass, lead vocals
Dave Winthrop – flute, saxophone, lead vocals
Produced by Supertramp
-
Crime Of The Century- Дата выпуска альбома: September 1974
CD: West Germany, A&M, 393 647-2, (198?) re-issue 199?
Продолжительность: 44:05-Tracklist:

1. School 5:34
2. Bloody Well Right 4:32
3. Hide In Your Shell 6:49
4. Asylum 6:42
5. Dreamer 3:33
6. Rudy 7:20
7. If Everyone Was Listening 4:05
8. Crime Of The Century 5:35
-
Bob C. Benberg – drums, percussion
Roger Hodgson – vocals, guitar, pianos
John Anthony Helliwell – saxophones, clarinets, vocals
Dougie Thomson – bass
Richard Davies – vocals, keyboards, harmonica
Christine Helliwell – Backup vocals on "Hide in Your Shell"
Vicky Siebenberg – Backup vocals on "Hide in Your Shell"
Scott Gorham – Backup vocals on "Hide in Your Shell"
(Uncredited, unknown street musician) – Saw on "Hide in Your Shell"
Ken Scott – Water gong on "Crime of the Century"

Produced by Ken Scott & Supertramp
-
Crisis? What Crisis?- Дата выпуска альбома: November 1975
CD: West Germany, A&M, 394 560-2, (198?)
Продолжительность: 47:20-Tracklist:

1. Easy Does It 2:16
2. Sister Moonshine 5:15
3. Ain't Nobody But Me 5:10
4. A Soapbox Opera 5:00
5. Another Man's Woman 6:16
6. Lady 5:25
7. Poor Boy 5:08
8. Just A Normal Day 4:02
9. The Meaning 5:25
10. Two Of Us 3:27
-
Roger Hodgson – vocals, guitars, keyboards
Bob C. Benberg – drums, percussion
Dougie Thomson – bass
John Anthony Helliwell – wind instruments, vocals
Richard Davies – vocals, keyboards
Produced by Ken Scott and Supertramp
-
Even In The Quietest Moments...- Дата выпуска альбома: April 1977
CD: West Germany, A&M, 393 149-2, (198?)
Продолжительность: 43:39-Tracklist:

1. Give A Little Bit 4:08
2. Lover Boy 6:50
3. Even In The Quietest Moments 6:26
4. Downstream 4:01
5. Babaji 4:50
6. From Now On 6:18
7. Fool's Overture 10:51
-
Rick Davies – keyboards, vocals
John Helliwell – saxophones, vocals, clarinet, melodica on From Now On
Roger Hodgson – guitars, keyboards, vocals
Bob Siebenberg (credited as Bob C. Benberg) – percussion, drums
Dougie Thomson – bass, vocals
Gary Mielke – Oberheim programming
Produced by Supertramp
-
Breakfast In America- Дата выпуска альбома: 29 March 1979
CD: West Germany, A&M, 393 708-2, (1984?)
Продолжительность: 45:53-Tracklist:

1. Gone Hollywood 5:18
2. The Logical Song 4:11
3. Goodbye Stranger 5:50
4. Breakfast In America 2:39
5. Oh Darling 3:58
6. Take The Long Way Home 5:08
7. Lord Is It Mine 4:09
8. Just Another Nervous Wreck 4:25
9. Casual Conversations 2:58
10. Child Of Vision 7:28
-
Rick Davies – keyboards, vocals, harmonica
John Helliwell – saxophones, vocals, woodwinds
Roger Hodgson – guitars, keyboards, vocals
Bob Siebenberg – drums
Dougie Thomson – bass
Slyde Hyde – trombone, tuba
Produced by Supertramp and Peter Henderson
-
...famous last words- Дата выпуска альбома: October 1982
CD: France, A&M, 393 732-2, (198?)
Продолжительность: 47:59-Tracklist:

1. Crazy 4:32
2. Put On Your Old Brown Shoes 4:20
3. It's Raining Again 4:25
4. Bonnie 5:37
5. Know Who You Are 4:58
6. My Kind Of Lady 5:12
7. C'est Le Bon 5:32
8. Waiting So Long 6:32
9. Don't Leave Me Now 6:25
-
Rick Davies – keyboards, Vocals, melodica solo in middle of "It's Raining Again", harmonica on "Don't Leave Me Now"
John Helliwell – saxophones, clarinet, keyboards, backing vocals
Roger Hodgson – guitars, keyboards, vocals
Bob Siebenberg – drums
Dougie Thomson – bass, backing vocals
Claire Diament – vocals on "Don't Leave Me Now"
Ann Wilson – vocals on "Put On Your Old Brown Shoes" and "C'est Le Bon"
Nancy Wilson – vocals on "Put On Your Old Brown Shoes" and "C'est Le Bon"

Produced by Supertramp and Peter Henderson
-
Brother Where You Bound- Дата выпуска альбома: May 1985
CD: West Germany, A&M, 395 014-2, (1985)
Продолжительность: 42:40-Tracklist:

1. Cannonball 7:42
2. Still In Love 4:18
3. No Inbetween 4:26
4. Better Days 6:02
5. Brother Where You Bound 16:27
6. Ever Open Door 3:05
-
Rick Davies – keyboards, vocals
John Helliwell – saxophones
Bob Siebenberg – drums
Dougie Thomson – bass
Brian Banks – synclavier programming
Cha Cha – backing vocals on "Still in Love"
David Gilmour – guitar solos on "Brother Where You Bound"
Scott Gorham – guitar on "Brother Where You Bound"
Anthony Marinelli – synclavier programming
Marty Walsh – guitar on "Cannonball", "Still in Love", "Better Days" & "Brother Where You Bound"
Doug Wintz – trombone on "Cannonball"
Scott Page – flute on "Better Days" & "Brother Where You Bound"
Gary Chang – Fairlight & PPG programming

Produced by David Kershenbaum and Supertramp
-
Free As A Bird- Дата выпуска альбома: October 1987
CD: West Germany, A&M, 395181-2, (1987)
Продолжительность: 44:07-Tracklist:

1. It's Alright 4:57
2. Not The Moment 4:34
3. It Doesn't Matter 4:49
4. Where I Stand 3:38
5. Free As A Bird 4:20
6. I'm Beggin' You 5:27
7. You Never Can Tell With Friends 4:14
8. Thing For You 3:59
9. An Awful Thing To Waste 7:47
-
Rick Davies – keyboards, timbales, vocals
John Helliwell – saxophone, brass
Bob Siebenberg – drums
Dougie Thomson – bass
Mark Hart – guitar, keyboards, vocals, background vocals
Linda Foot – background vocals
Nick Lane – brass
Lise Miller – background vocals
Scott Page – brass
Lon Price – brass
Steve Reid – percussion
Evan Rogers – background vocals
Lee Thornburg – trumpet, brass
Marty Walsh – guitar, background vocals
Karyn White – background vocals
David Woodford – brass

Produced by Rick Davies and Supertramp
-
Some Things Never Change- Дата выпуска альбома: 24 March 1997
CD: Holland, EMI, 89989 2, (1997)
Продолжительность: 69:59-Tracklist:

1. It's A Hard World 9:46
2. You Win, I Lose 4:31
3. Get Your Act Together 4:48
4. Live To Love You 5:18
5. Some Things Never Change 6:26
6. Listen To Me Please 4:46
7. Sooner Or Later 6:50
8. Help Me Down That Road 4:36
9. And The Light 4:40
10. Give Me A Chance 4:24
11. C'est What? 8:16
12. Where There's A Will 5:30
-
Rick Davies – keyboards, vocals
Mark Hart – guitars, keyboards, vocals
John Helliwell – saxophones, woodwinds
Cliff Hugo – bass
Bob Siebenberg – drums
Lee Thornburg – trombones, trumpets, background vocals
Carl Verheyen – guitars
Tom Walsh – percussion, drums
Bob Danziger – Kalimbas
Karen Lawrence – background vocals
Kim Nail – background vocals

Produced by Jack Douglas
-
Slow Motion- Дата выпуска альбома: 23 April 2002
CD: EU, EMI, 538624 2, (2002)
Продолжительность: 50:10-Tracklist:

1. Slow Motion 3:50
2. Little By Little 4:30
3. Broken Hearted 4:28
4. Over You 5:07
5. Tenth Avenue Breakdown 8:57
6. A Sting In The Tail 5:17
7. Bee In Your Bonnet 6:27
8. Goldrush 3:06
9. Dead Man's Blues 8:26
-
Rick Davies – harmonica, keyboards, vocals
Mark Hart – guitar, keyboards, background vocals
John Helliwell – saxophone, woodwind
Cliff Hugo – bass
Bob Siebenberg – drums
Jesse Siebenberg – percussion, background vocals
Lee Thornburg – horns
Carl Verheyen – guitar
Produced by Rick Davies
-Все рипы сделаны с оригинальных дисков, test & copy, secure mode, accurate stream.
За рип Slow Motion сердечное спасибо igaann.
-
Download / Скачать

Хотите скачать бесплатно? Зарегистрируйтесь на сайте (ссылка на регистрацию). Pirat.ca - самый быстрый торрент трекер в рунете!

Как скачивать  ·   Что такое торрент  ·   Рейтинг и ограничения

Kote Makaradze ®

6032

Пост 04-Фев-2013 15:36 (спустя 1 час 33 минуты)

[Q] 

X Lossless Decoder version 20110703 (135.1)
XLD extraction logfile from 2011-07-11 18:06:09 +0400
Supertramp / Supertramp (393 149-2)
Used drive : TEAC DV-W516GDM (revision M4S2)
Ripper mode : XLD Secure Ripper
Disable audio cache : OK for the drive with a cache less than 1375KiB
Make use of C2 pointers : NO
Read offset correction : 6
Max retry count : 88
Gap status : Analyzed, Appended
TOC of the extracted CD
Track | Start | Length | Start sector | End sector
---------------------------------------------------------
1 | 00:00:33 | 00:31:05 | 33 | 2362
2 | 00:31:38 | 05:34:22 | 2363 | 27434
3 | 06:05:60 | 05:17:28 | 27435 | 51237
4 | 11:23:13 | 03:59:57 | 51238 | 69219
5 | 15:22:70 | 06:43:45 | 69220 | 99489
6 | 22:06:40 | 01:14:10 | 99490 | 105049
7 | 23:20:50 | 04:53:53 | 105050 | 127077
8 | 28:14:28 | 04:24:12 | 127078 | 146889
9 | 32:38:40 | 12:02:63 | 146890 | 201102
10 | 44:41:28 | 03:09:25 | 201103 | 215302
List of alternate offset correction values
# | Absolute | Relative | Confidence
------------------------------------------
1 | 1654 | 1648 | 32
AccurateRip Summary
Track 01 : OK (AR2, confidence 3)
Track 02 : OK (AR2, confidence 3)
Track 03 : OK (AR2, confidence 3)
Track 04 : OK (AR2, confidence 3)
Track 05 : OK (AR2, confidence 3)
Track 06 : OK (AR2, confidence 3)
Track 07 : OK (AR2, confidence 3)
Track 08 : OK (AR2, confidence 3)
Track 09 : OK (AR2, confidence 3)
Track 10 : OK (AR2, confidence 3)
->All tracks accurately ripped.
All Tracks
Filename : /Volumes/TB/Olaf der Weisse/Supertramp . 1970 . Supertramp (393 149-2)/Supertramp - Supertramp (393 149-2).flac
Album gain : -1.20 dB
Peak : 0.941437
CRC32 hash (test run) : D409E9C9
CRC32 hash : D409E9C9
CRC32 hash (skip zero) : B53D63A3
Statistics
Read error : 0
Jitter error (maybe fixed) : 0
Retry sector count : 0
Damaged sector count : 0
Track 01
Pre-gap length : 00:02:33
Track gain : 3.88 dB
Peak : 0.379425
CRC32 hash (test run) : 8FBCE439
CRC32 hash : 8FBCE439
CRC32 hash (skip zero) : 3EFC8931
AccurateRip signature : 59319EBD
->Accurately ripped! (AR2, confidence 3)
Statistics
Read error : 0
Jitter error (maybe fixed) : 0
Retry sector count : 0
Damaged sector count : 0
Track 02
Track gain : -2.28 dB
Peak : 0.819061
CRC32 hash (test run) : 8E1F19F0
CRC32 hash : 8E1F19F0
CRC32 hash (skip zero) : 79D612E2
AccurateRip signature : F0F501AF
->Accurately ripped! (AR2, confidence 3)
Statistics
Read error : 0
Jitter error (maybe fixed) : 0
Retry sector count : 0
Damaged sector count : 0
Track 03
Pre-gap length : 00:02:42
Track gain : 2.15 dB
Peak : 0.765350
CRC32 hash (test run) : 17866AE6
CRC32 hash : 17866AE6
CRC32 hash (skip zero) : 16A039AD
AccurateRip signature : C8F36102
->Accurately ripped! (AR2, confidence 3)
Statistics
Read error : 0
Jitter error (maybe fixed) : 0
Retry sector count : 0
Damaged sector count : 0
Track 04
Pre-gap length : 00:01:15
Track gain : 4.03 dB
Peak : 0.573029
CRC32 hash (test run) : 78372807
CRC32 hash : 78372807
CRC32 hash (skip zero) : 6418D466
AccurateRip signature : AD807759
->Accurately ripped! (AR2, confidence 3)
Statistics
Read error : 0
Jitter error (maybe fixed) : 0
Retry sector count : 0
Damaged sector count : 0
Track 05
Track gain : -0.56 dB
Peak : 0.666290
CRC32 hash (test run) : E39F77BE
CRC32 hash : E39F77BE
CRC32 hash (skip zero) : 9574E990
AccurateRip signature : 42BAB22D
->Accurately ripped! (AR2, confidence 3)
Statistics
Read error : 0
Jitter error (maybe fixed) : 0
Retry sector count : 0
Damaged sector count : 0
Track 06
Track gain : 8.14 dB
Peak : 0.354584
CRC32 hash (test run) : 8A0479CF
CRC32 hash : 8A0479CF
CRC32 hash (skip zero) : 478ADD9A
AccurateRip signature : 31C388B4
->Accurately ripped! (AR2, confidence 3)
Statistics
Read error : 0
Jitter error (maybe fixed) : 0
Retry sector count : 0
Damaged sector count : 0
Track 07
Pre-gap length : 00:02:20
Track gain : -1.07 dB
Peak : 0.764099
CRC32 hash (test run) : 2AA6BE37
CRC32 hash : 2AA6BE37
CRC32 hash (skip zero) : 25EB1E5C
AccurateRip signature : 10445A55
->Accurately ripped! (AR2, confidence 3)
Statistics
Read error : 0
Jitter error (maybe fixed) : 0
Retry sector count : 0
Damaged sector count : 0
Track 08
Track gain : 0.13 dB
Peak : 0.527008
CRC32 hash (test run) : 2FC6D906
CRC32 hash : 2FC6D906
CRC32 hash (skip zero) : 38CC4C44
AccurateRip signature : E971E5F2
->Accurately ripped! (AR2, confidence 3)
Statistics
Read error : 0
Jitter error (maybe fixed) : 0
Retry sector count : 0
Damaged sector count : 0
Track 09
Track gain : -3.34 dB
Peak : 0.941437
CRC32 hash (test run) : 96B5229A
CRC32 hash : 96B5229A
CRC32 hash (skip zero) : EE844665
AccurateRip signature : 1DA03883
->Accurately ripped! (AR2, confidence 3)
Statistics
Read error : 0
Jitter error (maybe fixed) : 0
Retry sector count : 0
Damaged sector count : 0
Track 10
Pre-gap length : 00:01:13
Track gain : -0.30 dB
Peak : 0.618439
CRC32 hash (test run) : 4D7580AA
CRC32 hash : 4D7580AA
CRC32 hash (skip zero) : 1CA4CE7A
AccurateRip signature : 6A885EEA
->Accurately ripped! (AR2, confidence 3)
Statistics
Read error : 0
Jitter error (maybe fixed) : 0
Retry sector count : 0
Damaged sector count : 0
No errors occurred
End of status report
TITLE "Supertramp (393 149-2)"
PERFORMER "Supertramp"
CATALOG 01010000735<0
REM GENRE "Rock"
REM DATE "1970"
REM DISCNUMBER 1
REM TOTALDISCS 1
REM DISCID 880B360A
REM REPLAYGAIN_ALBUM_GAIN -1.20 dB
REM REPLAYGAIN_ALBUM_PEAK 0.941437
FILE "Supertramp - Supertramp (393 149-2).flac" WAVE
TRACK 01 AUDIO
TITLE "Surely"
REM REPLAYGAIN_TRACK_GAIN 3.88 dB
REM REPLAYGAIN_TRACK_PEAK 0.379425
INDEX 00 00:00:00
INDEX 01 00:00:33
TRACK 02 AUDIO
TITLE "It's A Long Road"
REM REPLAYGAIN_TRACK_GAIN -2.28 dB
REM REPLAYGAIN_TRACK_PEAK 0.819061
INDEX 01 00:31:38
TRACK 03 AUDIO
TITLE "Aubade And I Am Not Like Other Birds Of Prey"
REM REPLAYGAIN_TRACK_GAIN 2.15 dB
REM REPLAYGAIN_TRACK_PEAK 0.765350
INDEX 00 06:03:18
INDEX 01 06:05:60
TRACK 04 AUDIO
TITLE "Words Unspoken"
REM REPLAYGAIN_TRACK_GAIN 4.03 dB
REM REPLAYGAIN_TRACK_PEAK 0.573029
INDEX 00 11:21:73
INDEX 01 11:23:13
TRACK 05 AUDIO
TITLE "Maybe I'm A Beggar"
REM REPLAYGAIN_TRACK_GAIN -0.56 dB
REM REPLAYGAIN_TRACK_PEAK 0.666290
INDEX 01 15:22:70
TRACK 06 AUDIO
TITLE "Home Again"
REM REPLAYGAIN_TRACK_GAIN 8.14 dB
REM REPLAYGAIN_TRACK_PEAK 0.354584
INDEX 01 22:06:40
TRACK 07 AUDIO
TITLE "Nothing To Show"
REM REPLAYGAIN_TRACK_GAIN -1.07 dB
REM REPLAYGAIN_TRACK_PEAK 0.764099
INDEX 00 23:18:30
INDEX 01 23:20:50
TRACK 08 AUDIO
TITLE "Shadow Song"
REM REPLAYGAIN_TRACK_GAIN 0.13 dB
REM REPLAYGAIN_TRACK_PEAK 0.527008
INDEX 01 28:14:28
TRACK 09 AUDIO
TITLE "Try Again"
REM REPLAYGAIN_TRACK_GAIN -3.34 dB
REM REPLAYGAIN_TRACK_PEAK 0.941437
INDEX 01 32:38:40
TRACK 10 AUDIO
TITLE "Surely"
REM REPLAYGAIN_TRACK_GAIN -0.30 dB
REM REPLAYGAIN_TRACK_PEAK 0.618439
INDEX 00 44:40:15
INDEX 01 44:41:28
[свернуть]
X Lossless Decoder version 20110703 (135.1)
XLD extraction logfile from 2011-07-11 19:39:10 +0400
Supertramp / Indelibly Stamped
Used drive : MATSHITA DVD-R UJ-825 (revision DBN7)
Ripper mode : XLD Secure Ripper
Disable audio cache : OK for the drive with a cache less than 1375KiB
Make use of C2 pointers : NO
Read offset correction : 102
Max retry count : 88
Gap status : Analyzed, Appended
TOC of the extracted CD
Track | Start | Length | Start sector | End sector
---------------------------------------------------------
1 | 00:00:33 | 03:03:47 | 33 | 13804
2 | 03:04:05 | 04:24:33 | 13805 | 33637
3 | 07:28:38 | 03:01:02 | 33638 | 47214
4 | 10:29:40 | 04:12:25 | 47215 | 66139
5 | 14:41:65 | 05:00:65 | 66140 | 88704
6 | 19:42:55 | 02:23:45 | 88705 | 99474
7 | 22:06:25 | 04:44:25 | 99475 | 120799
8 | 26:50:50 | 03:49:20 | 120800 | 137994
9 | 30:39:70 | 02:07:45 | 137995 | 147564
10 | 32:47:40 | 07:36:63 | 147565 | 181827
List of alternate offset correction values
# | Absolute | Relative | Confidence
------------------------------------------
1 | -1060 | -1162 | 33
AccurateRip Summary
Track 01 : OK (AR2, confidence 2)
Track 02 : OK (AR2, confidence 2)
Track 03 : OK (AR2, confidence 2)
Track 04 : OK (AR2, confidence 2)
Track 05 : OK (AR2, confidence 2)
Track 06 : OK (AR2, confidence 2)
Track 07 : OK (AR2, confidence 2)
Track 08 : OK (AR2, confidence 2)
Track 09 : OK (AR2, confidence 2)
Track 10 : OK (AR2, confidence 2)
->All tracks accurately ripped.
All Tracks
Filename : /Volumes/TB/Olaf der Weisse/Supertramp . 1971 . Indelibly Stamped (393 129-2)/Supertramp - Indelibly Stamped.flac
Album gain : -3.19 dB
Peak : 0.949677
CRC32 hash (test run) : 79124475
CRC32 hash : 79124475
CRC32 hash (skip zero) : 1B1D4544
Statistics
Read error : 0
Jitter error (maybe fixed) : 0
Retry sector count : 0
Damaged sector count : 0
Track 01
Pre-gap length : 00:02:33
Track gain : -3.90 dB
Peak : 0.738464
CRC32 hash (test run) : 4FBC0E84
CRC32 hash : 4FBC0E84
CRC32 hash (skip zero) : C22C6F74
AccurateRip signature : 37745603
->Accurately ripped! (AR2, confidence 2)
Statistics
Read error : 0
Jitter error (maybe fixed) : 0
Retry sector count : 0
Damaged sector count : 0
Track 02
Pre-gap length : 00:00:17
Track gain : -3.69 dB
Peak : 0.884369
CRC32 hash (test run) : 6E3671A0
CRC32 hash : 6E3671A0
CRC32 hash (skip zero) : 5D8F771E
AccurateRip signature : E8BF09EA
->Accurately ripped! (AR2, confidence 2)
Statistics
Read error : 0
Jitter error (maybe fixed) : 0
Retry sector count : 0
Damaged sector count : 0
Track 03
Pre-gap length : 00:02:08
Track gain : -2.52 dB
Peak : 0.945648
CRC32 hash (test run) : 6F2807C6
CRC32 hash : 6F2807C6
CRC32 hash (skip zero) : A566804E
AccurateRip signature : 07EAF15A
->Accurately ripped! (AR2, confidence 2)
Statistics
Read error : 0
Jitter error (maybe fixed) : 0
Retry sector count : 0
Damaged sector count : 0
Track 04
Pre-gap length : 00:00:20
Track gain : -3.72 dB
Peak : 0.890320
CRC32 hash (test run) : DF92F820
CRC32 hash : DF92F820
CRC32 hash (skip zero) : 4662DB5E
AccurateRip signature : 7EDDD5B3
->Accurately ripped! (AR2, confidence 2)
Statistics
Read error : 0
Jitter error (maybe fixed) : 0
Retry sector count : 0
Damaged sector count : 0
Track 05
Track gain : -2.43 dB
Peak : 0.949677
CRC32 hash (test run) : CDCE4120
CRC32 hash : CDCE4120
CRC32 hash (skip zero) : A96A4FFF
AccurateRip signature : D0117384
->Accurately ripped! (AR2, confidence 2)
Statistics
Read error : 0
Jitter error (maybe fixed) : 0
Retry sector count : 0
Damaged sector count : 0
Track 06
Pre-gap length : 00:01:40
Track gain : -4.25 dB
Peak : 0.872437
CRC32 hash (test run) : 61759854
CRC32 hash : 61759854
CRC32 hash (skip zero) : 2497DBCD
AccurateRip signature : DFA6786A
->Accurately ripped! (AR2, confidence 2)
Statistics
Read error : 0
Jitter error (maybe fixed) : 0
Retry sector count : 0
Damaged sector count : 0
Track 07
Track gain : -3.10 dB
Peak : 0.854828
CRC32 hash (test run) : 44C089D5
CRC32 hash : 44C089D5
CRC32 hash (skip zero) : 7D578AF8
AccurateRip signature : D4A40172
->Accurately ripped! (AR2, confidence 2)
Statistics
Read error : 0
Jitter error (maybe fixed) : 0
Retry sector count : 0
Damaged sector count : 0
Track 08
Pre-gap length : 00:02:00
Track gain : -2.62 dB
Peak : 0.768402
CRC32 hash (test run) : 4F886822
CRC32 hash : 4F886822
CRC32 hash (skip zero) : BA25A19A
AccurateRip signature : AE672CE8
->Accurately ripped! (AR2, confidence 2)
Statistics
Read error : 0
Jitter error (maybe fixed) : 0
Retry sector count : 0
Damaged sector count : 0
Track 09
Pre-gap length : 00:02:20
Track gain : -3.57 dB
Peak : 0.851227
CRC32 hash (test run) : 975883BC
CRC32 hash : 975883BC
CRC32 hash (skip zero) : 7AA3FF51
AccurateRip signature : D3E2075D
->Accurately ripped! (AR2, confidence 2)
Statistics
Read error : 0
Jitter error (maybe fixed) : 0
Retry sector count : 0
Damaged sector count : 0
Track 10
Track gain : -1.58 dB
Peak : 0.809753
CRC32 hash (test run) : 66F398C0
CRC32 hash : 66F398C0
CRC32 hash (skip zero) : DC33609E
AccurateRip signature : B4760EAD
->Accurately ripped! (AR2, confidence 2)
Statistics
Read error : 0
Jitter error (maybe fixed) : 0
Retry sector count : 0
Damaged sector count : 0
No errors occurred
End of status report
TITLE "Indelibly Stamped"
PERFORMER "Supertramp"
REM GENRE "Rock"
REM DATE "1971"
REM DISCNUMBER 1
REM TOTALDISCS 1
REM DISCID 8409780A
REM REPLAYGAIN_ALBUM_GAIN -3.19 dB
REM REPLAYGAIN_ALBUM_PEAK 0.949677
FILE "Supertramp - Indelibly Stamped.flac" WAVE
TRACK 01 AUDIO
TITLE "Your Poppa Don't Mind"
SONGWRITER "Rick Davies"
REM REPLAYGAIN_TRACK_GAIN -3.90 dB
REM REPLAYGAIN_TRACK_PEAK 0.738464
INDEX 00 00:00:00
INDEX 01 00:00:33
TRACK 02 AUDIO
TITLE "Travelled"
SONGWRITER "Rick Davies"
REM REPLAYGAIN_TRACK_GAIN -3.69 dB
REM REPLAYGAIN_TRACK_PEAK 0.884369
INDEX 00 03:03:63
INDEX 01 03:04:05
TRACK 03 AUDIO
TITLE "Rosie Had Everything Planned"
SONGWRITER "Francis Anthony Farrell"
REM REPLAYGAIN_TRACK_GAIN -2.52 dB
REM REPLAYGAIN_TRACK_PEAK 0.945648
INDEX 00 07:26:30
INDEX 01 07:28:38
TRACK 04 AUDIO
TITLE "Remember"
SONGWRITER "Rick Davies"
REM REPLAYGAIN_TRACK_GAIN -3.72 dB
REM REPLAYGAIN_TRACK_PEAK 0.890320
INDEX 00 10:29:20
INDEX 01 10:29:40
TRACK 05 AUDIO
TITLE "Forever"
SONGWRITER "Rick Davies"
REM REPLAYGAIN_TRACK_GAIN -2.43 dB
REM REPLAYGAIN_TRACK_PEAK 0.949677
INDEX 01 14:41:65
TRACK 06 AUDIO
TITLE "Potter"
SONGWRITER "Rick Davies"
REM REPLAYGAIN_TRACK_GAIN -4.25 dB
REM REPLAYGAIN_TRACK_PEAK 0.872437
INDEX 00 19:41:15
INDEX 01 19:42:55
TRACK 07 AUDIO
TITLE "Coming Home To See You"
SONGWRITER "Rick Davies"
REM REPLAYGAIN_TRACK_GAIN -3.10 dB
REM REPLAYGAIN_TRACK_PEAK 0.854828
INDEX 01 22:06:25
TRACK 08 AUDIO
TITLE "Times Have Changed"
SONGWRITER "Rick Davies"
REM REPLAYGAIN_TRACK_GAIN -2.62 dB
REM REPLAYGAIN_TRACK_PEAK 0.768402
INDEX 00 26:48:50
INDEX 01 26:50:50
TRACK 09 AUDIO
TITLE "Friend In Need"
SONGWRITER "Rick Davies"
REM REPLAYGAIN_TRACK_GAIN -3.57 dB
REM REPLAYGAIN_TRACK_PEAK 0.851227
INDEX 00 30:37:50
INDEX 01 30:39:70
TRACK 10 AUDIO
TITLE "Aries"
SONGWRITER "Rick Davies"
REM REPLAYGAIN_TRACK_GAIN -1.58 dB
REM REPLAYGAIN_TRACK_PEAK 0.809753
INDEX 01 32:47:40
X Lossless Decoder version 20110703 (135.1)
XLD extraction logfile from 2011-07-11 20:19:15 +0400
Supertramp / Crime Of The Century
Used drive : TEAC DV-W516GDM (revision M4S2)
Ripper mode : XLD Secure Ripper
Disable audio cache : OK for the drive with a cache less than 1375KiB
Make use of C2 pointers : NO
Read offset correction : 6
Max retry count : 88
Gap status : Analyzed, Appended
TOC of the extracted CD
Track | Start | Length | Start sector | End sector
---------------------------------------------------------
1 | 00:00:32 | 05:33:58 | 32 | 25064
2 | 05:34:15 | 04:31:65 | 25065 | 45454
3 | 10:06:05 | 06:48:32 | 45455 | 76086
4 | 16:54:37 | 06:42:00 | 76087 | 106236
5 | 23:36:37 | 03:33:00 | 106237 | 122211
6 | 27:09:37 | 07:18:53 | 122212 | 155114
7 | 34:28:15 | 04:05:00 | 155115 | 173489
8 | 38:33:15 | 05:35:47 | 173490 | 198661
List of alternate offset correction values
# | Absolute | Relative | Confidence
------------------------------------------
1 | -1893 | -1899 | 80
2 | -1927 | -1933 | 60
3 | -1857 | -1863 | 8
4 | -12 | -18 | 2
AccurateRip Summary
Track 01 : OK (AR2, confidence 14)
Track 02 : OK (AR2, confidence 14)
Track 03 : OK (AR2, confidence 14)
Track 04 : OK (AR2, confidence 14)
Track 05 : OK (AR2, confidence 14)
Track 06 : OK (AR2, confidence 14)
Track 07 : OK (AR2, confidence 14)
Track 08 : OK (AR2, confidence 13)
->All tracks accurately ripped.
All Tracks
Filename : /Volumes/TB/Olaf der Weisse/Supertramp . 1974 . Crime Of The Century (393 647-2)/Supertramp - Crime Of The Century.flac
Album gain : -0.44 dB
Peak : 0.943604
CRC32 hash (test run) : C1E491E8
CRC32 hash : C1E491E8
CRC32 hash (skip zero) : 054B2D42
Statistics
Read error : 0
Jitter error (maybe fixed) : 0
Retry sector count : 0
Damaged sector count : 0
Track 01
Pre-gap length : 00:02:32
Track gain : -0.21 dB
Peak : 0.793854
CRC32 hash (test run) : F3BA8A48
CRC32 hash : F3BA8A48
CRC32 hash (skip zero) : 84A362A7
AccurateRip signature : 60B8EEDF
->Accurately ripped! (AR2, confidence 14)
Statistics
Read error : 0
Jitter error (maybe fixed) : 0
Retry sector count : 0
Damaged sector count : 0
Track 02
Track gain : -0.71 dB
Peak : 0.851868
CRC32 hash (test run) : 05E4F29F
CRC32 hash : 05E4F29F
CRC32 hash (skip zero) : D2549F62
AccurateRip signature : 10DA26A3
->Accurately ripped! (AR2, confidence 14)
Statistics
Read error : 0
Jitter error (maybe fixed) : 0
Retry sector count : 0
Damaged sector count : 0
Track 03
Track gain : 0.92 dB
Peak : 0.663330
CRC32 hash (test run) : 147DF867
CRC32 hash : 147DF867
CRC32 hash (skip zero) : 31193C80
AccurateRip signature : A1165778
->Accurately ripped! (AR2, confidence 14)
Statistics
Read error : 0
Jitter error (maybe fixed) : 0
Retry sector count : 0
Damaged sector count : 0
Track 04
Track gain : 0.29 dB
Peak : 0.646454
CRC32 hash (test run) : 32B3B5CF
CRC32 hash : 32B3B5CF
CRC32 hash (skip zero) : 7037489F
AccurateRip signature : 09D28F7D
->Accurately ripped! (AR2, confidence 14)
Statistics
Read error : 0
Jitter error (maybe fixed) : 0
Retry sector count : 0
Damaged sector count : 0
Track 05
Track gain : -0.29 dB
Peak : 0.675781
CRC32 hash (test run) : 0F310371
CRC32 hash : 0F310371
CRC32 hash (skip zero) : 89074E7B
AccurateRip signature : 5F3DC822
->Accurately ripped! (AR2, confidence 14)
Statistics
Read error : 0
Jitter error (maybe fixed) : 0
Retry sector count : 0
Damaged sector count : 0
Track 06
Track gain : -1.22 dB
Peak : 0.862396
CRC32 hash (test run) : 9D17F2E5
CRC32 hash : 9D17F2E5
CRC32 hash (skip zero) : 6733904B
AccurateRip signature : 1544C46D
->Accurately ripped! (AR2, confidence 14)
Statistics
Read error : 0
Jitter error (maybe fixed) : 0
Retry sector count : 0
Damaged sector count : 0
Track 07
Track gain : 0.02 dB
Peak : 0.943604
CRC32 hash (test run) : 59AF255E
CRC32 hash : 59AF255E
CRC32 hash (skip zero) : FD9CC919
AccurateRip signature : BB9B3EB6
->Accurately ripped! (AR2, confidence 14)
Statistics
Read error : 0
Jitter error (maybe fixed) : 0
Retry sector count : 0
Damaged sector count : 0
Track 08
Pre-gap length : 00:01:20
Track gain : -1.16 dB
Peak : 0.706421
CRC32 hash (test run) : D917A39A
CRC32 hash : D917A39A
CRC32 hash (skip zero) : 48CFD175
AccurateRip signature : A9E2D7CC
->Accurately ripped! (AR2, confidence 13)
Statistics
Read error : 0
Jitter error (maybe fixed) : 0
Retry sector count : 0
Damaged sector count : 0
No errors occurred
End of status report
TITLE "Crime Of The Century"
PERFORMER "Supertramp"
CATALOG 0101000101480
REM GENRE "Rock"
REM DISCNUMBER 1
REM TOTALDISCS 1
REM DISCID 510A5808
REM REPLAYGAIN_ALBUM_GAIN -0.44 dB
REM REPLAYGAIN_ALBUM_PEAK 0.943604
FILE "Supertramp - Crime Of The Century.flac" WAVE
TRACK 01 AUDIO
TITLE "School"
REM DATE 1974
REM REPLAYGAIN_TRACK_GAIN -0.21 dB
REM REPLAYGAIN_TRACK_PEAK 0.793854
INDEX 00 00:00:00
INDEX 01 00:00:32
TRACK 02 AUDIO
TITLE "Bloody Well Right"
REM DATE 1974
REM REPLAYGAIN_TRACK_GAIN -0.71 dB
REM REPLAYGAIN_TRACK_PEAK 0.851868
INDEX 01 05:34:15
TRACK 03 AUDIO
TITLE "Hide In Your Shell"
REM DATE 1994
REM REPLAYGAIN_TRACK_GAIN 0.92 dB
REM REPLAYGAIN_TRACK_PEAK 0.663330
INDEX 01 10:06:05
TRACK 04 AUDIO
TITLE "Asylum"
REM DATE 1974
REM REPLAYGAIN_TRACK_GAIN 0.29 dB
REM REPLAYGAIN_TRACK_PEAK 0.646454
INDEX 01 16:54:37
TRACK 05 AUDIO
TITLE "Dreamer"
REM DATE 1974
REM REPLAYGAIN_TRACK_GAIN -0.29 dB
REM REPLAYGAIN_TRACK_PEAK 0.675781
INDEX 01 23:36:37
TRACK 06 AUDIO
TITLE "Rudy"
REM DATE 1974
REM REPLAYGAIN_TRACK_GAIN -1.22 dB
REM REPLAYGAIN_TRACK_PEAK 0.862396
INDEX 01 27:09:37
TRACK 07 AUDIO
TITLE "If Everyone Was Listening"
REM DATE 1974
REM REPLAYGAIN_TRACK_GAIN 0.02 dB
REM REPLAYGAIN_TRACK_PEAK 0.943604
INDEX 01 34:28:15
TRACK 08 AUDIO
TITLE "Crime Of The Century"
REM DATE 1974
REM REPLAYGAIN_TRACK_GAIN -1.16 dB
REM REPLAYGAIN_TRACK_PEAK 0.706421
INDEX 00 38:31:70
INDEX 01 38:33:15
X Lossless Decoder version 20110703 (135.1)
XLD extraction logfile from 2011-07-12 14:52:19 +0400
Supertramp / Crisis What Crisis
Used drive : MATSHITA DVD-R UJ-825 (revision DBN7)
Ripper mode : XLD Secure Ripper
Disable audio cache : OK for the drive with a cache less than 1375KiB
Make use of C2 pointers : NO
Read offset correction : 102
Max retry count : 88
Gap status : Analyzed, Appended
TOC of the extracted CD
Track | Start | Length | Start sector | End sector
---------------------------------------------------------
1 | 00:00:33 | 02:16:50 | 33 | 10282
2 | 02:17:08 | 05:15:60 | 10283 | 33967
3 | 07:32:68 | 05:12:00 | 33968 | 57367
4 | 12:44:68 | 04:57:62 | 57368 | 79704
5 | 17:42:55 | 06:16:73 | 79705 | 107977
6 | 23:59:53 | 05:25:37 | 107978 | 132389
7 | 29:25:15 | 05:07:55 | 132390 | 155469
8 | 34:32:70 | 04:02:60 | 155470 | 173679
9 | 38:35:55 | 05:24:28 | 173680 | 198007
10 | 44:00:08 | 03:26:67 | 198008 | 213524
List of alternate offset correction values
# | Absolute | Relative | Confidence
------------------------------------------
1 | 88 | -14 | 62
AccurateRip Summary
Track 01 : OK (AR2, confidence 18)
Track 02 : OK (AR2, confidence 19)
Track 03 : OK (AR2, confidence 19)
Track 04 : OK (AR2, confidence 18)
Track 05 : OK (AR2, confidence 19)
Track 06 : OK (AR2, confidence 19)
Track 07 : OK (AR2, confidence 18)
Track 08 : OK (AR2, confidence 19)
Track 09 : OK (AR2, confidence 19)
Track 10 : OK (AR2, confidence 19)
->All tracks accurately ripped.
All Tracks
Filename : /Volumes/TB/Olaf der Weisse/Supertramp . 1975 . Crisis What Crisis (394 560-2)/Supertramp - Crisis What Crisis.flac
Album gain : -1.60 dB
Peak : 0.925934
CRC32 hash (test run) : 9A81D30F
CRC32 hash : 9A81D30F
CRC32 hash (skip zero) : B00E7FF7
Statistics
Read error : 0
Jitter error (maybe fixed) : 0
Retry sector count : 0
Damaged sector count : 0
Track 01
Pre-gap length : 00:02:33
Track gain : 7.88 dB
Peak : 0.323303
CRC32 hash (test run) : F77BC00E
CRC32 hash : F77BC00E
CRC32 hash (skip zero) : 3B291F0E
AccurateRip signature : DACCBEED
->Accurately ripped! (AR2, confidence 18)
Statistics
Read error : 0
Jitter error (maybe fixed) : 0
Retry sector count : 0
Damaged sector count : 0
Track 02
Track gain : -3.73 dB
Peak : 0.888550
CRC32 hash (test run) : 0A5E9764
CRC32 hash : 0A5E9764
CRC32 hash (skip zero) : DD06500C
AccurateRip signature : 20FF10CD
->Accurately ripped! (AR2, confidence 19)
Statistics
Read error : 0
Jitter error (maybe fixed) : 0
Retry sector count : 0
Damaged sector count : 0
Track 03
Track gain : -1.80 dB
Peak : 0.905365
CRC32 hash (test run) : 1B33C27A
CRC32 hash : 1B33C27A
CRC32 hash (skip zero) : 0094A832
AccurateRip signature : 620A7FD2
->Accurately ripped! (AR2, confidence 19)
Statistics
Read error : 0
Jitter error (maybe fixed) : 0
Retry sector count : 0
Damaged sector count : 0
Track 04
Track gain : 0.04 dB
Peak : 0.797699
CRC32 hash (test run) : 88DEF541
CRC32 hash : 88DEF541
CRC32 hash (skip zero) : F02039B5
AccurateRip signature : 4F254E4F
->Accurately ripped! (AR2, confidence 18)
Statistics
Read error : 0
Jitter error (maybe fixed) : 0
Retry sector count : 0
Damaged sector count : 0
Track 05
Track gain : -0.02 dB
Peak : 0.784180
CRC32 hash (test run) : 8E8D1262
CRC32 hash : 8E8D1262
CRC32 hash (skip zero) : D099F5C7
AccurateRip signature : F39C69AF
->Accurately ripped! (AR2, confidence 19)
Statistics
Read error : 0
Jitter error (maybe fixed) : 0
Retry sector count : 0
Damaged sector count : 0
Track 06
Pre-gap length : 00:00:30
Track gain : -2.39 dB
Peak : 0.925934
CRC32 hash (test run) : CE220178
CRC32 hash : CE220178
CRC32 hash (skip zero) : 65A8578C
AccurateRip signature : AA5D817A
->Accurately ripped! (AR2, confidence 19)
Statistics
Read error : 0
Jitter error (maybe fixed) : 0
Retry sector count : 0
Damaged sector count : 0
Track 07
Track gain : 1.88 dB
Peak : 0.642212
CRC32 hash (test run) : 6445D057
CRC32 hash : 6445D057
CRC32 hash (skip zero) : F1921573
AccurateRip signature : B1B44FEF
->Accurately ripped! (AR2, confidence 18)
Statistics
Read error : 0
Jitter error (maybe fixed) : 0
Retry sector count : 0
Damaged sector count : 0
Track 08
Track gain : 2.62 dB
Peak : 0.510803
CRC32 hash (test run) : E6EF2B68
CRC32 hash : E6EF2B68
CRC32 hash (skip zero) : 54172F5D
AccurateRip signature : 93223F35
->Accurately ripped! (AR2, confidence 19)
Statistics
Read error : 0
Jitter error (maybe fixed) : 0
Retry sector count : 0
Damaged sector count : 0
Track 09
Track gain : -2.89 dB
Peak : 0.920349
CRC32 hash (test run) : 9F0ADF92
CRC32 hash : 9F0ADF92
CRC32 hash (skip zero) : 6B3457C2
AccurateRip signature : E1C3E25F
->Accurately ripped! (AR2, confidence 19)
Statistics
Read error : 0
Jitter error (maybe fixed) : 0
Retry sector count : 0
Damaged sector count : 0
Track 10
Track gain : 2.36 dB
Peak : 0.563416
CRC32 hash (test run) : 0E19082A
CRC32 hash : 0E19082A
CRC32 hash (skip zero) : 843F1153
AccurateRip signature : 921F82D6
->Accurately ripped! (AR2, confidence 19)
Statistics
Read error : 0
Jitter error (maybe fixed) : 0
Retry sector count : 0
Damaged sector count : 0
No errors occurred
End of status report
TITLE "Crisis What Crisis"
PERFORMER "Supertramp"
CATALOG 0082839456029
REM GENRE "Rock"
REM DATE "1975"
REM DISCNUMBER 1
REM TOTALDISCS 1
REM DISCID 810B1F0A
REM REPLAYGAIN_ALBUM_GAIN -1.60 dB
REM REPLAYGAIN_ALBUM_PEAK 0.925934
FILE "Supertramp - Crisis What Crisis.flac" WAVE
TRACK 01 AUDIO
TITLE "Easy Does It"
REM REPLAYGAIN_TRACK_GAIN 7.88 dB
REM REPLAYGAIN_TRACK_PEAK 0.323303
INDEX 00 00:00:00
INDEX 01 00:00:33
TRACK 02 AUDIO
TITLE "Sister Moonshine"
REM REPLAYGAIN_TRACK_GAIN -3.73 dB
REM REPLAYGAIN_TRACK_PEAK 0.888550
INDEX 01 02:17:08
TRACK 03 AUDIO
TITLE "Ain't Nobody But Me"
REM REPLAYGAIN_TRACK_GAIN -1.80 dB
REM REPLAYGAIN_TRACK_PEAK 0.905365
INDEX 01 07:32:68
TRACK 04 AUDIO
TITLE "A Soapbox Opera"
REM REPLAYGAIN_TRACK_GAIN 0.04 dB
REM REPLAYGAIN_TRACK_PEAK 0.797699
INDEX 01 12:44:68
TRACK 05 AUDIO
TITLE "Another Man's Woman"
REM REPLAYGAIN_TRACK_GAIN -0.02 dB
REM REPLAYGAIN_TRACK_PEAK 0.784180
INDEX 01 17:42:55
TRACK 06 AUDIO
TITLE "Lady"
REM REPLAYGAIN_TRACK_GAIN -2.39 dB
REM REPLAYGAIN_TRACK_PEAK 0.925934
INDEX 00 23:59:23
INDEX 01 23:59:53
TRACK 07 AUDIO
TITLE "Poor Boy"
REM REPLAYGAIN_TRACK_GAIN 1.88 dB
REM REPLAYGAIN_TRACK_PEAK 0.642212
INDEX 01 29:25:15
TRACK 08 AUDIO
TITLE "Just A Normal Day"
REM REPLAYGAIN_TRACK_GAIN 2.62 dB
REM REPLAYGAIN_TRACK_PEAK 0.510803
INDEX 01 34:32:70
TRACK 09 AUDIO
TITLE "The Meaning"
REM REPLAYGAIN_TRACK_GAIN -2.89 dB
REM REPLAYGAIN_TRACK_PEAK 0.920349
INDEX 01 38:35:55
TRACK 10 AUDIO
TITLE "Two Of Us"
REM REPLAYGAIN_TRACK_GAIN 2.36 dB
REM REPLAYGAIN_TRACK_PEAK 0.563416
INDEX 01 44:00:08
X Lossless Decoder version 20110703 (135.1)
XLD extraction logfile from 2011-07-11 22:11:03 +0400
Supertramp / Even In The Quietest Moments
Used drive : MATSHITA DVD-R UJ-825 (revision DBN7)
Ripper mode : XLD Secure Ripper
Disable audio cache : OK for the drive with a cache less than 1375KiB
Make use of C2 pointers : NO
Read offset correction : 102
Max retry count : 88
Gap status : Analyzed, Appended
TOC of the extracted CD
Track | Start | Length | Start sector | End sector
---------------------------------------------------------
1 | 00:00:33 | 04:09:07 | 33 | 18714
2 | 04:09:40 | 06:52:45 | 18715 | 49659
3 | 11:02:10 | 06:29:23 | 49660 | 78857
4 | 17:31:33 | 04:04:02 | 78858 | 97159
5 | 21:35:35 | 04:51:60 | 97160 | 119044
6 | 26:27:20 | 06:22:25 | 119045 | 147719
7 | 32:49:45 | 10:52:05 | 147720 | 196624
List of alternate offset correction values
# | Absolute | Relative | Confidence
------------------------------------------
1 | 677 | 575 | 98
AccurateRip Summary
Track 01 : OK (AR2, confidence 22)
Track 02 : OK (AR2, confidence 22)
Track 03 : OK (AR2, confidence 22)
Track 04 : OK (AR2, confidence 22)
Track 05 : OK (AR2, confidence 22)
Track 06 : OK (AR2, confidence 22)
Track 07 : OK (AR2, confidence 20)
->All tracks accurately ripped.
All Tracks
Filename : /Volumes/TB/Olaf der Weisse/Supertramp . 1977 . Even In The Quietest Moments... (394 634-2)/Supertramp - Even In The Quietest Moments.flac
Album gain : -0.65 dB
Peak : 0.812805
CRC32 hash (test run) : 0488383D
CRC32 hash : 0488383D
CRC32 hash (skip zero) : A7DC582D
Statistics
Read error : 0
Jitter error (maybe fixed) : 0
Retry sector count : 3
Damaged sector count : 0
Track 01
Pre-gap length : 00:02:33
Track gain : -0.45 dB
Peak : 0.722015
CRC32 hash (test run) : EFF3FBF0
CRC32 hash : EFF3FBF0
CRC32 hash (skip zero) : 6CF1216F
AccurateRip signature : 41CF28FC
->Accurately ripped! (AR2, confidence 22)
Statistics
Read error : 0
Jitter error (maybe fixed) : 0
Retry sector count : 3
Damaged sector count : 0
Track 02
Pre-gap length : 00:01:07
Track gain : -0.85 dB
Peak : 0.812805
CRC32 hash (test run) : 3A7494F2
CRC32 hash : 3A7494F2
CRC32 hash (skip zero) : ECAE9670
AccurateRip signature : 69749C2C
->Accurately ripped! (AR2, confidence 22)
Statistics
Read error : 0
Jitter error (maybe fixed) : 0
Retry sector count : 0
Damaged sector count : 0
Track 03
Pre-gap length : 00:00:62
Track gain : -0.80 dB
Peak : 0.812805
CRC32 hash (test run) : 54B56E78
CRC32 hash : 54B56E78
CRC32 hash (skip zero) : B92DE008
AccurateRip signature : EC6136E1
->Accurately ripped! (AR2, confidence 22)
Statistics
Read error : 0
Jitter error (maybe fixed) : 0
Retry sector count : 0
Damaged sector count : 0
Track 04
Pre-gap length : 00:02:28
Track gain : 2.62 dB
Peak : 0.639038
CRC32 hash (test run) : A7407581
CRC32 hash : A7407581
CRC32 hash (skip zero) : 8F2B6F05
AccurateRip signature : 3DF51EC3
->Accurately ripped! (AR2, confidence 22)
Statistics
Read error : 0
Jitter error (maybe fixed) : 0
Retry sector count : 0
Damaged sector count : 0
Track 05
Pre-gap length : 00:03:60
Track gain : -1.82 dB
Peak : 0.812805
CRC32 hash (test run) : CEB4E1D3
CRC32 hash : CEB4E1D3
CRC32 hash (skip zero) : F778995B
AccurateRip signature : 4944CE68
->Accurately ripped! (AR2, confidence 22)
Statistics
Read error : 0
Jitter error (maybe fixed) : 0
Retry sector count : 0
Damaged sector count : 0
Track 06
Pre-gap length : 00:01:25
Track gain : -0.90 dB
Peak : 0.780121
CRC32 hash (test run) : C4BB2064
CRC32 hash : C4BB2064
CRC32 hash (skip zero) : 0CED0BEF
AccurateRip signature : 3A881B96
->Accurately ripped! (AR2, confidence 22)
Statistics
Read error : 0
Jitter error (maybe fixed) : 0
Retry sector count : 0
Damaged sector count : 0
Track 07
Pre-gap length : 00:02:52
Track gain : -0.13 dB
Peak : 0.764771
CRC32 hash (test run) : 40D34DD9
CRC32 hash : 40D34DD9
CRC32 hash (skip zero) : 70A3BCB1
AccurateRip signature : CA28731E
->Accurately ripped! (AR2, confidence 20)
Statistics
Read error : 0
Jitter error (maybe fixed) : 0
Retry sector count : 0
Damaged sector count : 0
No errors occurred
End of status report
TITLE "Even In The Quietest Moments"
PERFORMER "Supertramp"
CATALOG 0082839463423
REM GENRE "Rock"
REM DATE "1977"
REM DISCNUMBER 1
REM TOTALDISCS 1
REM DISCID 5F0A3D07
REM REPLAYGAIN_ALBUM_GAIN -0.65 dB
REM REPLAYGAIN_ALBUM_PEAK 0.812805
FILE "Supertramp - Even In The Quietest Moments.flac" WAVE
TRACK 01 AUDIO
TITLE "Give A Little Bit"
SONGWRITER "Davies, Richard"
REM REPLAYGAIN_TRACK_GAIN -0.45 dB
REM REPLAYGAIN_TRACK_PEAK 0.722015
INDEX 00 00:00:00
INDEX 01 00:00:33
TRACK 02 AUDIO
TITLE "Lover Boy"
REM REPLAYGAIN_TRACK_GAIN -0.85 dB
REM REPLAYGAIN_TRACK_PEAK 0.812805
INDEX 00 04:08:33
INDEX 01 04:09:40
TRACK 03 AUDIO
TITLE "Even In The Quietest Moments"
REM REPLAYGAIN_TRACK_GAIN -0.80 dB
REM REPLAYGAIN_TRACK_PEAK 0.812805
INDEX 00 11:01:23
INDEX 01 11:02:10
TRACK 04 AUDIO
TITLE "Downstream"
REM REPLAYGAIN_TRACK_GAIN 2.62 dB
REM REPLAYGAIN_TRACK_PEAK 0.639038
INDEX 00 17:29:05
INDEX 01 17:31:33
TRACK 05 AUDIO
TITLE "Babaji"
REM REPLAYGAIN_TRACK_GAIN -1.82 dB
REM REPLAYGAIN_TRACK_PEAK 0.812805
INDEX 00 21:31:50
INDEX 01 21:35:35
TRACK 06 AUDIO
TITLE "From Now On"
REM REPLAYGAIN_TRACK_GAIN -0.90 dB
REM REPLAYGAIN_TRACK_PEAK 0.780121
INDEX 00 26:25:70
INDEX 01 26:27:20
TRACK 07 AUDIO
TITLE "Fool's Overture"
REM REPLAYGAIN_TRACK_GAIN -0.13 dB
REM REPLAYGAIN_TRACK_PEAK 0.764771
INDEX 00 32:46:68
INDEX 01 32:49:45
X Lossless Decoder version 20110703 (135.1)
XLD extraction logfile from 2011-07-11 22:42:02 +0400
Supertramp / Breakfast In America
Used drive : TEAC DV-W516GDM (revision M4S2)
Ripper mode : XLD Secure Ripper
Disable audio cache : OK for the drive with a cache less than 1375KiB
Make use of C2 pointers : NO
Read offset correction : 6
Max retry count : 88
Gap status : Analyzed, Appended
TOC of the extracted CD
Track | Start | Length | Start sector | End sector
---------------------------------------------------------
1 | 00:00:00 | 05:19:52 | 0 | 23976
2 | 05:19:52 | 04:11:25 | 23977 | 42826
3 | 09:31:02 | 05:50:43 | 42827 | 69119
4 | 15:21:45 | 02:39:30 | 69120 | 81074
5 | 18:01:00 | 03:48:67 | 81075 | 98241
6 | 21:49:67 | 05:08:53 | 98242 | 121394
7 | 26:58:45 | 04:10:10 | 121395 | 140154
8 | 31:08:55 | 04:25:55 | 140155 | 160084
9 | 35:34:35 | 02:58:65 | 160085 | 173499
10 | 38:33:25 | 07:25:50 | 173500 | 206924
AccurateRip Summary
Track 01 : OK (confidence 5)
Track 02 : OK (confidence 5)
Track 03 : OK (confidence 5)
Track 04 : OK (confidence 5)
Track 05 : OK (confidence 5)
Track 06 : OK (confidence 5)
Track 07 : OK (confidence 5)
Track 08 : OK (confidence 5)
Track 09 : OK (confidence 5)
Track 10 : OK (confidence 4)
->All tracks accurately ripped.
All Tracks
Filename : /Volumes/TB/Olaf der Weisse/Supertramp . 1979 . Breakfast In America (393 708-2)/Supertramp - Breakfast In America.flac
Album gain : -3.18 dB
Peak : 1.000000
CRC32 hash (test run) : BB079184
CRC32 hash : BB079184
CRC32 hash (skip zero) : 68761201
Statistics
Read error : 0
Jitter error (maybe fixed) : 0
Retry sector count : 0
Damaged sector count : 0
Track 01
Pre-gap length : 00:02:00
Track gain : -3.14 dB
Peak : 0.914215
CRC32 hash (test run) : 8A308BA2
CRC32 hash : 8A308BA2
CRC32 hash (skip zero) : 32B71FB5
AccurateRip signature : 98F3B112
->Accurately ripped! (confidence 5)
Statistics
Read error : 0
Jitter error (maybe fixed) : 0
Retry sector count : 0
Damaged sector count : 0
Track 02
Track gain : -3.29 dB
Peak : 0.973572
CRC32 hash (test run) : 1901F44D
CRC32 hash : 1901F44D
CRC32 hash (skip zero) : 6A5E2051
AccurateRip signature : 3B5D84B4
->Accurately ripped! (confidence 5)
Statistics
Read error : 0
Jitter error (maybe fixed) : 0
Retry sector count : 0
Damaged sector count : 0
Track 03
Pre-gap length : 00:03:02
Track gain : -2.39 dB
Peak : 1.000000
CRC32 hash (test run) : 829CD303
CRC32 hash : 829CD303
CRC32 hash (skip zero) : F1076BCB
AccurateRip signature : E8DB9C36
->Accurately ripped! (confidence 5)
Statistics
Read error : 0
Jitter error (maybe fixed) : 0
Retry sector count : 0
Damaged sector count : 0
Track 04
Pre-gap length : 00:02:45
Track gain : -3.79 dB
Peak : 1.000000
CRC32 hash (test run) : 65D2EF53
CRC32 hash : 65D2EF53
CRC32 hash (skip zero) : A629944E
AccurateRip signature : E5673E56
->Accurately ripped! (confidence 5)
Statistics
Read error : 0
Jitter error (maybe fixed) : 0
Retry sector count : 0
Damaged sector count : 0
Track 05
Pre-gap length : 00:01:50
Track gain : -3.40 dB
Peak : 0.982544
CRC32 hash (test run) : 01570C83
CRC32 hash : 01570C83
CRC32 hash (skip zero) : 93A88E9F
AccurateRip signature : B951300E
->Accurately ripped! (confidence 5)
Statistics
Read error : 0
Jitter error (maybe fixed) : 0
Retry sector count : 0
Damaged sector count : 0
Track 06
Pre-gap length : 00:04:67
Track gain : -2.13 dB
Peak : 0.919678
CRC32 hash (test run) : 11B8691F
CRC32 hash : 11B8691F
CRC32 hash (skip zero) : 89459F6C
AccurateRip signature : 1C95E9A9
->Accurately ripped! (confidence 5)
Statistics
Read error : 0
Jitter error (maybe fixed) : 0
Retry sector count : 0
Damaged sector count : 0
Track 07
Track gain : -3.13 dB
Peak : 1.000000
CRC32 hash (test run) : 90DD43AF
CRC32 hash : 90DD43AF
CRC32 hash (skip zero) : AD2D4185
AccurateRip signature : CF1BEB34
->Accurately ripped! (confidence 5)
Statistics
Read error : 0
Jitter error (maybe fixed) : 0
Retry sector count : 0
Damaged sector count : 0
Track 08
Pre-gap length : 00:00:55
Track gain : -3.93 dB
Peak : 0.938354
CRC32 hash (test run) : E6133D9E
CRC32 hash : E6133D9E
CRC32 hash (skip zero) : 54A11AD0
AccurateRip signature : 72E5D0C8
->Accurately ripped! (confidence 5)
Statistics
Read error : 0
Jitter error (maybe fixed) : 0
Retry sector count : 0
Damaged sector count : 0
Track 09
Pre-gap length : 00:02:73
Track gain : 4.49 dB
Peak : 0.426819
CRC32 hash (test run) : E434BCA1
CRC32 hash : E434BCA1
CRC32 hash (skip zero) : DD98B38A
AccurateRip signature : 4615C0B3
->Accurately ripped! (confidence 5)
Statistics
Read error : 0
Jitter error (maybe fixed) : 0
Retry sector count : 0
Damaged sector count : 0
Track 10
Pre-gap length : 00:01:00
Track gain : -3.62 dB
Peak : 1.000000
CRC32 hash (test run) : B11B3C08
CRC32 hash : B11B3C08
CRC32 hash (skip zero) : 862766DC
AccurateRip signature : 168A2F6B
->Accurately ripped! (confidence 4)
Statistics
Read error : 0
Jitter error (maybe fixed) : 0
Retry sector count : 0
Damaged sector count : 0
No errors occurred
End of status report
TITLE "Breakfast In America"
PERFORMER "Supertramp"
CATALOG 0101000060000
REM GENRE "Rock"
REM DATE "1979"
REM DISCNUMBER 1
REM TOTALDISCS 1
REM DISCID 670AC70A
REM REPLAYGAIN_ALBUM_GAIN -3.18 dB
REM REPLAYGAIN_ALBUM_PEAK 1.000000
FILE "Supertramp - Breakfast In America.flac" WAVE
TRACK 01 AUDIO
TITLE "Gone Hollywood"
REM REPLAYGAIN_TRACK_GAIN -3.14 dB
REM REPLAYGAIN_TRACK_PEAK 0.914215
INDEX 01 00:00:00
TRACK 02 AUDIO
TITLE "The Logical Song"
REM REPLAYGAIN_TRACK_GAIN -3.29 dB
REM REPLAYGAIN_TRACK_PEAK 0.973572
INDEX 01 05:19:52
TRACK 03 AUDIO
TITLE "Goodbye Stranger"
REM REPLAYGAIN_TRACK_GAIN -2.39 dB
REM REPLAYGAIN_TRACK_PEAK 1.000000
INDEX 00 09:28:00
INDEX 01 09:31:02
TRACK 04 AUDIO
TITLE "Breakfast In America"
REM REPLAYGAIN_TRACK_GAIN -3.79 dB
REM REPLAYGAIN_TRACK_PEAK 1.000000
INDEX 00 15:19:00
INDEX 01 15:21:45
TRACK 05 AUDIO
TITLE "Oh Darling"
REM REPLAYGAIN_TRACK_GAIN -3.40 dB
REM REPLAYGAIN_TRACK_PEAK 0.982544
INDEX 00 17:59:25
INDEX 01 18:01:00
TRACK 06 AUDIO
TITLE "Take The Long Way Home"
REM REPLAYGAIN_TRACK_GAIN -2.13 dB
REM REPLAYGAIN_TRACK_PEAK 0.919678
INDEX 00 21:45:00
INDEX 01 21:49:67
TRACK 07 AUDIO
TITLE "Lord Is It Mine"
REM REPLAYGAIN_TRACK_GAIN -3.13 dB
REM REPLAYGAIN_TRACK_PEAK 1.000000
INDEX 01 26:58:45
TRACK 08 AUDIO
TITLE "Just Another Nervous Wreck"
REM REPLAYGAIN_TRACK_GAIN -3.93 dB
REM REPLAYGAIN_TRACK_PEAK 0.938354
INDEX 00 31:08:00
INDEX 01 31:08:55
TRACK 09 AUDIO
TITLE "Casual Conversations"
REM REPLAYGAIN_TRACK_GAIN 4.49 dB
REM REPLAYGAIN_TRACK_PEAK 0.426819
INDEX 00 35:31:37
INDEX 01 35:34:35
TRACK 10 AUDIO
TITLE "Child Of Vision"
REM REPLAYGAIN_TRACK_GAIN -3.62 dB
REM REPLAYGAIN_TRACK_PEAK 1.000000
INDEX 00 38:32:25
INDEX 01 38:33:25
X Lossless Decoder version 20110703 (135.1)
XLD extraction logfile from 2011-07-12 01:15:30 +0400
Supertramp / ...Famous Last Words
Used drive : MATSHITA DVD-R UJ-825 (revision DBN7)
Ripper mode : XLD Secure Ripper
Disable audio cache : OK for the drive with a cache less than 1375KiB
Make use of C2 pointers : NO
Read offset correction : 102
Max retry count : 88
Gap status : Analyzed, Appended
TOC of the extracted CD
Track | Start | Length | Start sector | End sector
---------------------------------------------------------
1 | 00:00:32 | 04:45:20 | 32 | 21426
2 | 04:45:52 | 04:20:50 | 21427 | 40976
3 | 09:06:27 | 04:25:70 | 40977 | 60921
4 | 13:32:22 | 05:38:65 | 60922 | 86336
5 | 19:11:12 | 05:02:43 | 86337 | 109029
6 | 24:13:55 | 05:17:15 | 109030 | 132819
7 | 29:30:70 | 05:33:20 | 132820 | 157814
8 | 35:04:15 | 06:35:65 | 157815 | 187504
9 | 41:40:05 | 06:24:40 | 187505 | 216344
List of alternate offset correction values
# | Absolute | Relative | Confidence
------------------------------------------
1 | 605 | 503 | 54
2 | 137 | 35 | 25
3 | 693 | 591 | 15
4 | 517 | 415 | 3
AccurateRip Summary
Track 01 : OK (confidence 29)
Track 02 : OK (confidence 27)
Track 03 : OK (confidence 28)
Track 04 : OK (confidence 28)
Track 05 : OK (confidence 28)
Track 06 : OK (confidence 28)
Track 07 : OK (confidence 28)
Track 08 : OK (confidence 28)
Track 09 : OK (confidence 27)
->All tracks accurately ripped.
All Tracks
Filename : /Volumes/TB/Olaf der Weisse/Supertramp . 1982 . ...Famous Last Words (393 732-2)/Supertramp - ...Famous Last Words.flac
Album gain : -2.04 dB
Peak : 0.999969
CRC32 hash (test run) : E4F26643
CRC32 hash : E4F26643
CRC32 hash (skip zero) : 80B2AB6B
Statistics
Read error : 0
Jitter error (maybe fixed) : 0
Retry sector count : 0
Damaged sector count : 0
Track 01
Pre-gap length : 00:02:32
Track gain : -1.79 dB
Peak : 0.882080
CRC32 hash (test run) : 816B2779
CRC32 hash : 816B2779
CRC32 hash (skip zero) : 951B0613
AccurateRip signature : 80EA6F46
->Accurately ripped! (confidence 29)
Statistics
Read error : 0
Jitter error (maybe fixed) : 0
Retry sector count : 0
Damaged sector count : 0
Track 02
Pre-gap length : 00:01:10
Track gain : -1.45 dB
Peak : 0.940704
CRC32 hash (test run) : E76A6710
CRC32 hash : E76A6710
CRC32 hash (skip zero) : F3E46977
AccurateRip signature : B288B924
->Accurately ripped! (confidence 27)
Statistics
Read error : 0
Jitter error (maybe fixed) : 0
Retry sector count : 0
Damaged sector count : 0
Track 03
Pre-gap length : 00:00:32
Track gain : -1.63 dB
Peak : 0.911591
CRC32 hash (test run) : BBBEDD64
CRC32 hash : BBBEDD64
CRC32 hash (skip zero) : 5FB9804D
AccurateRip signature : 82CE0827
->Accurately ripped! (confidence 28)
Statistics
Read error : 0
Jitter error (maybe fixed) : 0
Retry sector count : 0
Damaged sector count : 0
Track 04
Track gain : -2.07 dB
Peak : 0.885956
CRC32 hash (test run) : 333CA3E1
CRC32 hash : 333CA3E1
CRC32 hash (skip zero) : 1FF83491
AccurateRip signature : 7C88E8E3
->Accurately ripped! (confidence 28)
Statistics
Read error : 0
Jitter error (maybe fixed) : 0
Retry sector count : 0
Damaged sector count : 0
Track 05
Pre-gap length : 00:02:42
Track gain : 6.61 dB
Peak : 0.331635
CRC32 hash (test run) : C88D0786
CRC32 hash : C88D0786
CRC32 hash (skip zero) : 6EEEFFCA
AccurateRip signature : EF50AC20
->Accurately ripped! (confidence 28)
Statistics
Read error : 0
Jitter error (maybe fixed) : 0
Retry sector count : 0
Damaged sector count : 0
Track 06
Pre-gap length : 00:02:50
Track gain : -2.97 dB
Peak : 0.939789
CRC32 hash (test run) : F0C9FCB2
CRC32 hash : F0C9FCB2
CRC32 hash (skip zero) : 70A10BBE
AccurateRip signature : 3E5F8752
->Accurately ripped! (confidence 28)
Statistics
Read error : 0
Jitter error (maybe fixed) : 0
Retry sector count : 0
Damaged sector count : 0
Track 07
Pre-gap length : 00:01:30
Track gain : -1.43 dB
Peak : 0.867188
CRC32 hash (test run) : 6EA1249C
CRC32 hash : 6EA1249C
CRC32 hash (skip zero) : 7E3D4740
AccurateRip signature : A3FDB457
->Accurately ripped! (confidence 28)
Statistics
Read error : 0
Jitter error (maybe fixed) : 0
Retry sector count : 0
Damaged sector count : 0
Track 08
Pre-gap length : 00:01:50
Track gain : -2.39 dB
Peak : 0.970001
CRC32 hash (test run) : 4AC6EFDA
CRC32 hash : 4AC6EFDA
CRC32 hash (skip zero) : 2D3F8797
AccurateRip signature : E0AF4B08
->Accurately ripped! (confidence 28)
Statistics
Read error : 0
Jitter error (maybe fixed) : 0
Retry sector count : 0
Damaged sector count : 0
Track 09
Pre-gap length : 00:00:65
Track gain : -2.40 dB
Peak : 0.999969
CRC32 hash (test run) : D3C38D19
CRC32 hash : D3C38D19
CRC32 hash (skip zero) : 11EC49AA
AccurateRip signature : 3B0C0A71
->Accurately ripped! (confidence 27)
Statistics
Read error : 0
Jitter error (maybe fixed) : 0
Retry sector count : 0
Damaged sector count : 0
No errors occurred
End of status report
TITLE "...Famous Last Words"
PERFORMER "Supertramp"
CATALOG 0082839373227
REM GENRE "Rock"
REM DATE "1982"
REM DISCNUMBER 1
REM TOTALDISCS 1
REM DISCID 6D0B4409
REM REPLAYGAIN_ALBUM_GAIN -2.04 dB
REM REPLAYGAIN_ALBUM_PEAK 0.999969
FILE "Supertramp - ...Famous Last Words.flac" WAVE
TRACK 01 AUDIO
TITLE "Crazy"
REM REPLAYGAIN_TRACK_GAIN -1.79 dB
REM REPLAYGAIN_TRACK_PEAK 0.882080
INDEX 00 00:00:00
INDEX 01 00:00:32
TRACK 02 AUDIO
TITLE "Put On Your Old Brown Shoes"
REM REPLAYGAIN_TRACK_GAIN -1.45 dB
REM REPLAYGAIN_TRACK_PEAK 0.940704
INDEX 00 04:44:42
INDEX 01 04:45:52
TRACK 03 AUDIO
TITLE "It's Raining Again"
REM REPLAYGAIN_TRACK_GAIN -1.63 dB
REM REPLAYGAIN_TRACK_PEAK 0.911591
INDEX 00 09:05:70
INDEX 01 09:06:27
TRACK 04 AUDIO
TITLE "Bonnie"
REM REPLAYGAIN_TRACK_GAIN -2.07 dB
REM REPLAYGAIN_TRACK_PEAK 0.885956
INDEX 01 13:32:22
TRACK 05 AUDIO
TITLE "Know Who You Are"
REM REPLAYGAIN_TRACK_GAIN 6.61 dB
REM REPLAYGAIN_TRACK_PEAK 0.331635
INDEX 00 19:08:45
INDEX 01 19:11:12
TRACK 06 AUDIO
TITLE "My Kind Of Lady"
REM REPLAYGAIN_TRACK_GAIN -2.97 dB
REM REPLAYGAIN_TRACK_PEAK 0.939789
INDEX 00 24:11:05
INDEX 01 24:13:55
TRACK 07 AUDIO
TITLE "C'est Le Bon"
REM REPLAYGAIN_TRACK_GAIN -1.43 dB
REM REPLAYGAIN_TRACK_PEAK 0.867188
INDEX 00 29:29:40
INDEX 01 29:30:70
TRACK 08 AUDIO
TITLE "Waiting So Long"
REM REPLAYGAIN_TRACK_GAIN -2.39 dB
REM REPLAYGAIN_TRACK_PEAK 0.970001
INDEX 00 35:02:40
INDEX 01 35:04:15
TRACK 09 AUDIO
TITLE "Don't Leave Me Now"
REM REPLAYGAIN_TRACK_GAIN -2.40 dB
REM REPLAYGAIN_TRACK_PEAK 0.999969
INDEX 00 41:39:15
INDEX 01 41:40:05
X Lossless Decoder version 20110703 (135.1)
XLD extraction logfile from 2011-07-12 02:35:00 +0400
Supertramp / Brother Where You Bound (395 014-2)
Used drive : TEAC DV-W516GDM (revision M4S2)
Ripper mode : XLD Secure Ripper
Disable audio cache : OK for the drive with a cache less than 1375KiB
Make use of C2 pointers : NO
Read offset correction : 6
Max retry count : 88
Gap status : Analyzed, Appended
TOC of the extracted CD
Track | Start | Length | Start sector | End sector
---------------------------------------------------------
1 | 00:00:33 | 07:38:42 | 33 | 34424
2 | 07:39:00 | 04:37:10 | 34425 | 55209
3 | 12:16:10 | 04:36:63 | 55210 | 75972
4 | 16:52:73 | 06:16:35 | 75973 | 104207
5 | 23:09:33 | 16:31:60 | 104208 | 178592
6 | 39:41:18 | 03:02:30 | 178593 | 192272
List of alternate offset correction values
# | Absolute | Relative | Confidence
------------------------------------------
1 | -675 | -681 | 42
AccurateRip Summary
Track 01 : OK (AR2, confidence 19)
Track 02 : OK (AR2, confidence 19)
Track 03 : OK (AR2, confidence 19)
Track 04 : OK (AR2, confidence 19)
Track 05 : OK (AR2, confidence 18)
Track 06 : OK (AR2, confidence 18)
->All tracks accurately ripped.
All Tracks
Filename : /Volumes/TB/Olaf der Weisse/Supertramp . 1985 . Brother Where You Bound (395 014-2)/Supertramp - Brother Where You Bound (395 014-2).flac
Album gain : -1.23 dB
Peak : 1.000000
CRC32 hash (test run) : E8633D45
CRC32 hash : E8633D45
CRC32 hash (skip zero) : 41904908
Statistics
Read error : 0
Jitter error (maybe fixed) : 0
Retry sector count : 0
Damaged sector count : 0
Track 01
Pre-gap length : 00:02:33
Track gain : -1.29 dB
Peak : 0.999969
CRC32 hash (test run) : EB6FC876
CRC32 hash : EB6FC876
CRC32 hash (skip zero) : 836467ED
AccurateRip signature : 459913C9
->Accurately ripped! (AR2, confidence 19)
Statistics
Read error : 0
Jitter error (maybe fixed) : 0
Retry sector count : 0
Damaged sector count : 0
Track 02
Track gain : -0.46 dB
Peak : 0.898804
CRC32 hash (test run) : D37AFAA4
CRC32 hash : D37AFAA4
CRC32 hash (skip zero) : 4262E3A6
AccurateRip signature : 99784A8A
->Accurately ripped! (AR2, confidence 19)
Statistics
Read error : 0
Jitter error (maybe fixed) : 0
Retry sector count : 0
Damaged sector count : 0
Track 03
Track gain : 0.90 dB
Peak : 0.841248
CRC32 hash (test run) : 0A5D6E7E
CRC32 hash : 0A5D6E7E
CRC32 hash (skip zero) : 4CD41D4B
AccurateRip signature : FB92BDC9
->Accurately ripped! (AR2, confidence 19)
Statistics
Read error : 0
Jitter error (maybe fixed) : 0
Retry sector count : 0
Damaged sector count : 0
Track 04
Track gain : -1.06 dB
Peak : 1.000000
CRC32 hash (test run) : 4D4332E3
CRC32 hash : 4D4332E3
CRC32 hash (skip zero) : 7380DADA
AccurateRip signature : 85E56DA4
->Accurately ripped! (AR2, confidence 19)
Statistics
Read error : 0
Jitter error (maybe fixed) : 0
Retry sector count : 0
Damaged sector count : 0
Track 05
Pre-gap length : 00:01:15
Track gain : -1.74 dB
Peak : 1.000000
CRC32 hash (test run) : 7F8EF633
CRC32 hash : 7F8EF633
CRC32 hash (skip zero) : CF1D9B26
AccurateRip signature : 5D8F7F87
->Accurately ripped! (AR2, confidence 18)
Statistics
Read error : 0
Jitter error (maybe fixed) : 0
Retry sector count : 0
Damaged sector count : 0
Track 06
Track gain : -0.98 dB
Peak : 0.684479
CRC32 hash (test run) : 89019DD3
CRC32 hash : 89019DD3
CRC32 hash (skip zero) : 61D2E25E
AccurateRip signature : 1303D6F1
->Accurately ripped! (AR2, confidence 18)
Statistics
Read error : 0
Jitter error (maybe fixed) : 0
Retry sector count : 0
Damaged sector count : 0
No errors occurred
End of status report
TITLE "Brother Where You Bound (395 014-2)"
PERFORMER "Supertramp"
CATALOG 01010000732:0
REM GENRE "Rock"
REM DATE "1985"
REM DISCNUMBER 1
REM TOTALDISCS 1
REM DISCID 430A0306
REM REPLAYGAIN_ALBUM_GAIN -1.23 dB
REM REPLAYGAIN_ALBUM_PEAK 1.000000
FILE "Supertramp - Brother Where You Bound (395 014-2).flac" WAVE
TRACK 01 AUDIO
TITLE "Cannonball"
REM REPLAYGAIN_TRACK_GAIN -1.29 dB
REM REPLAYGAIN_TRACK_PEAK 0.999969
INDEX 00 00:00:00
INDEX 01 00:00:33
TRACK 02 AUDIO
TITLE "Still In Love"
REM REPLAYGAIN_TRACK_GAIN -0.46 dB
REM REPLAYGAIN_TRACK_PEAK 0.898804
INDEX 01 07:39:00
TRACK 03 AUDIO
TITLE "No Inbetween"
REM REPLAYGAIN_TRACK_GAIN 0.90 dB
REM REPLAYGAIN_TRACK_PEAK 0.841248
INDEX 01 12:16:10
TRACK 04 AUDIO
TITLE "Better Days"
REM REPLAYGAIN_TRACK_GAIN -1.06 dB
REM REPLAYGAIN_TRACK_PEAK 1.000000
INDEX 01 16:52:73
TRACK 05 AUDIO
TITLE "Brother Where You Bound"
REM REPLAYGAIN_TRACK_GAIN -1.74 dB
REM REPLAYGAIN_TRACK_PEAK 1.000000
INDEX 00 23:08:18
INDEX 01 23:09:33
TRACK 06 AUDIO
TITLE "Ever Open Door"
REM REPLAYGAIN_TRACK_GAIN -0.98 dB
REM REPLAYGAIN_TRACK_PEAK 0.684479
INDEX 01 39:41:18
X Lossless Decoder version 20110703 (135.1)
XLD extraction logfile from 2011-07-12 03:03:48 +0400
Supertramp / Free As A Bird (395 181-2)
Used drive : TEAC DV-W516GDM (revision M4S2)
Ripper mode : XLD Secure Ripper
Disable audio cache : OK for the drive with a cache less than 1375KiB
Make use of C2 pointers : NO
Read offset correction : 6
Max retry count : 88
Gap status : Analyzed, Appended
TOC of the extracted CD
Track | Start | Length | Start sector | End sector
---------------------------------------------------------
1 | 00:00:32 | 05:00:70 | 32 | 22601
2 | 05:01:27 | 04:37:13 | 22602 | 43389
3 | 09:38:40 | 04:53:25 | 43390 | 65389
4 | 14:31:65 | 03:41:22 | 65390 | 81986
5 | 18:13:12 | 04:22:63 | 81987 | 101699
6 | 22:36:00 | 05:30:32 | 101700 | 126481
7 | 28:06:32 | 04:18:18 | 126482 | 145849
8 | 32:24:50 | 03:59:70 | 145850 | 163844
9 | 36:24:45 | 07:47:62 | 163845 | 198931
List of alternate offset correction values
# | Absolute | Relative | Confidence
------------------------------------------
1 | 0 | -6 | 13
2 | -342 | -348 | 5
AccurateRip Summary
Track 01 : OK (AR2, confidence 8)
Track 02 : OK (AR2, confidence 7)
Track 03 : OK (AR2, confidence 7)
Track 04 : OK (AR2, confidence 7)
Track 05 : OK (AR2, confidence 7)
Track 06 : OK (AR2, confidence 7)
Track 07 : OK (AR2, confidence 7)
Track 08 : OK (AR2, confidence 7)
Track 09 : OK (AR2, confidence 7)
->All tracks accurately ripped.
All Tracks
Filename : /Volumes/TB/Olaf der Weisse/Supertramp . 1987 . Free As A Bird (395 181-2)/Supertramp - Free As A Bird (395 181-2).flac
Album gain : 2.00 dB
Peak : 0.776215
CRC32 hash (test run) : D8F9F9F2
CRC32 hash : D8F9F9F2
CRC32 hash (skip zero) : FBE6B09A
Statistics
Read error : 0
Jitter error (maybe fixed) : 0
Retry sector count : 0
Damaged sector count : 0
Track 01
Pre-gap length : 00:02:32
Track gain : 1.66 dB
Peak : 0.644226
CRC32 hash (test run) : 5458F16A
CRC32 hash : 5458F16A
CRC32 hash (skip zero) : 645D5C94
AccurateRip signature : 0D497E61
->Accurately ripped! (AR2, confidence 8)
Statistics
Read error : 0
Jitter error (maybe fixed) : 0
Retry sector count : 0
Damaged sector count : 0
Track 02
Pre-gap length : 00:01:10
Track gain : 2.06 dB
Peak : 0.705353
CRC32 hash (test run) : E66D9896
CRC32 hash : E66D9896
CRC32 hash (skip zero) : 18AE2942
AccurateRip signature : 58E4AF8A
->Accurately ripped! (AR2, confidence 7)
Statistics
Read error : 0
Jitter error (maybe fixed) : 0
Retry sector count : 0
Damaged sector count : 0
Track 03
Pre-gap length : 00:02:03
Track gain : 1.37 dB
Peak : 0.724365
CRC32 hash (test run) : 7161B8C1
CRC32 hash : 7161B8C1
CRC32 hash (skip zero) : 01B296D8
AccurateRip signature : 3538CE40
->Accurately ripped! (AR2, confidence 7)
Statistics
Read error : 0
Jitter error (maybe fixed) : 0
Retry sector count : 0
Damaged sector count : 0
Track 04
Pre-gap length : 00:03:28
Track gain : 0.53 dB
Peak : 0.690308
CRC32 hash (test run) : CFC9871C
CRC32 hash : CFC9871C
CRC32 hash (skip zero) : 6FA5BFC9
AccurateRip signature : 2EF32280
->Accurately ripped! (AR2, confidence 7)
Statistics
Read error : 0
Jitter error (maybe fixed) : 0
Retry sector count : 0
Damaged sector count : 0
Track 05
Pre-gap length : 00:02:67
Track gain : 2.35 dB
Peak : 0.649384
CRC32 hash (test run) : 87CB2BAF
CRC32 hash : 87CB2BAF
CRC32 hash (skip zero) : 0A07A5B5
AccurateRip signature : 7A1404CF
->Accurately ripped! (AR2, confidence 7)
Statistics
Read error : 0
Jitter error (maybe fixed) : 0
Retry sector count : 0
Damaged sector count : 0
Track 06
Pre-gap length : 00:02:10
Track gain : 2.32 dB
Peak : 0.728821
CRC32 hash (test run) : CF0FC2CE
CRC32 hash : CF0FC2CE
CRC32 hash (skip zero) : 8EF6EBA8
AccurateRip signature : 465F5B96
->Accurately ripped! (AR2, confidence 7)
Statistics
Read error : 0
Jitter error (maybe fixed) : 0
Retry sector count : 0
Damaged sector count : 0
Track 07
Pre-gap length : 00:02:47
Track gain : 2.67 dB
Peak : 0.625458
CRC32 hash (test run) : 3ABB190F
CRC32 hash : 3ABB190F
CRC32 hash (skip zero) : ABE98227
AccurateRip signature : 31BC3CB4
->Accurately ripped! (AR2, confidence 7)
Statistics
Read error : 0
Jitter error (maybe fixed) : 0
Retry sector count : 0
Damaged sector count : 0
Track 08
Pre-gap length : 00:03:38
Track gain : 6.30 dB
Peak : 0.756287
CRC32 hash (test run) : FC781EF4
CRC32 hash : FC781EF4
CRC32 hash (skip zero) : A8DA57EB
AccurateRip signature : D22A8A44
->Accurately ripped! (AR2, confidence 7)
Statistics
Read error : 0
Jitter error (maybe fixed) : 0
Retry sector count : 0
Damaged sector count : 0
Track 09
Pre-gap length : 00:00:43
Track gain : 2.98 dB
Peak : 0.776215
CRC32 hash (test run) : E4E7B4E6
CRC32 hash : E4E7B4E6
CRC32 hash (skip zero) : 87270F5E
AccurateRip signature : 5AC5AD95
->Accurately ripped! (AR2, confidence 7)
Statistics
Read error : 0
Jitter error (maybe fixed) : 0
Retry sector count : 0
Damaged sector count : 0
No errors occurred
End of status report
TITLE "Free As A Bird (395 181-2)"
PERFORMER "Supertramp"
CATALOG 01010000690<0
REM GENRE "Rock"
REM DATE "1987"
REM DISCNUMBER 1
REM TOTALDISCS 1
REM DISCID 830A5C09
REM REPLAYGAIN_ALBUM_GAIN 2.00 dB
REM REPLAYGAIN_ALBUM_PEAK 0.776215
FILE "Supertramp - Free As A Bird (395 181-2).flac" WAVE
TRACK 01 AUDIO
TITLE "It's Alright"
REM REPLAYGAIN_TRACK_GAIN 1.66 dB
REM REPLAYGAIN_TRACK_PEAK 0.644226
INDEX 00 00:00:00
INDEX 01 00:00:32
TRACK 02 AUDIO
TITLE "Not The Moment"
REM REPLAYGAIN_TRACK_GAIN 2.06 dB
REM REPLAYGAIN_TRACK_PEAK 0.705353
INDEX 00 05:00:17
INDEX 01 05:01:27
TRACK 03 AUDIO
TITLE "It Doesn't Matter"
REM REPLAYGAIN_TRACK_GAIN 1.37 dB
REM REPLAYGAIN_TRACK_PEAK 0.724365
INDEX 00 09:36:37
INDEX 01 09:38:40
TRACK 04 AUDIO
TITLE "Where I Stand With You"
REM REPLAYGAIN_TRACK_GAIN 0.53 dB
REM REPLAYGAIN_TRACK_PEAK 0.690308
INDEX 00 14:28:37
INDEX 01 14:31:65
TRACK 05 AUDIO
TITLE "Free As A Bird"
REM REPLAYGAIN_TRACK_GAIN 2.35 dB
REM REPLAYGAIN_TRACK_PEAK 0.649384
INDEX 00 18:10:20
INDEX 01 18:13:12
TRACK 06 AUDIO
TITLE "I'm Beggin' You"
REM REPLAYGAIN_TRACK_GAIN 2.32 dB
REM REPLAYGAIN_TRACK_PEAK 0.728821
INDEX 00 22:33:65
INDEX 01 22:36:00
TRACK 07 AUDIO
TITLE "You Never Can Tell With Friends"
REM REPLAYGAIN_TRACK_GAIN 2.67 dB
REM REPLAYGAIN_TRACK_PEAK 0.625458
INDEX 00 28:03:60
INDEX 01 28:06:32
TRACK 08 AUDIO
TITLE "Thing For You"
REM REPLAYGAIN_TRACK_GAIN 6.30 dB
REM REPLAYGAIN_TRACK_PEAK 0.756287
INDEX 00 32:21:12
INDEX 01 32:24:50
TRACK 09 AUDIO
TITLE "An Awful Thing To Waste"
REM REPLAYGAIN_TRACK_GAIN 2.98 dB
REM REPLAYGAIN_TRACK_PEAK 0.776215
INDEX 00 36:24:02
INDEX 01 36:24:45
X Lossless Decoder version 20110703 (135.1)
XLD extraction logfile from 2011-07-12 11:37:53 +0400
Supertramp / Some Things Never Change
Used drive : TEAC DV-W516GDM (revision M4S2)
Ripper mode : XLD Secure Ripper
Disable audio cache : OK for the drive with a cache less than 1375KiB
Make use of C2 pointers : NO
Read offset correction : 6
Max retry count : 88
Gap status : Analyzed, Appended
TOC of the extracted CD
Track | Start | Length | Start sector | End sector
---------------------------------------------------------
1 | 00:00:00 | 09:46:02 | 0 | 43951
2 | 09:46:02 | 04:31:30 | 43952 | 64306
3 | 14:17:32 | 04:47:40 | 64307 | 85871
4 | 19:04:72 | 05:19:30 | 85872 | 109826
5 | 24:24:27 | 06:26:43 | 109827 | 138819
6 | 30:50:70 | 04:46:40 | 138820 | 160309
7 | 35:37:35 | 06:51:27 | 160310 | 191161
8 | 42:28:62 | 04:37:08 | 191162 | 211944
9 | 47:05:70 | 04:41:25 | 211945 | 233044
10 | 51:47:20 | 04:23:35 | 233045 | 252804
11 | 56:10:55 | 08:17:37 | 252805 | 290116
12 | 64:28:17 | 05:35:33 | 290117 | 315274
List of alternate offset correction values
# | Absolute | Relative | Confidence
------------------------------------------
1 | -435 | -441 | 115
2 | -688 | -694 | 2
3 | -521 | -527 | 2
4 | 12 | 6 | 2
AccurateRip Summary
Track 01 : OK (AR2, confidence 16)
Track 02 : OK (AR2, confidence 15)
Track 03 : OK (AR2, confidence 16)
Track 04 : OK (AR2, confidence 16)
Track 05 : OK (AR2, confidence 16)
Track 06 : OK (AR2, confidence 16)
Track 07 : OK (AR2, confidence 16)
Track 08 : OK (AR2, confidence 15)
Track 09 : OK (AR2, confidence 16)
Track 10 : OK (AR2, confidence 16)
Track 11 : OK (AR2, confidence 15)
Track 12 : OK (AR2, confidence 15)
->All tracks accurately ripped.
All Tracks
Filename : /Volumes/TB/Olaf der Weisse/Supertramp . 1997 . Some Things Never Change (89989 2)/Supertramp - Some Things Never Change.flac
Album gain : -5.63 dB
Peak : 0.988647
CRC32 hash (test run) : BFD4B896
CRC32 hash : BFD4B896
CRC32 hash (skip zero) : 941C4F5B
Statistics
Read error : 0
Jitter error (maybe fixed) : 0
Retry sector count : 0
Damaged sector count : 0
Track 01
Pre-gap length : 00:02:00
Track gain : -3.24 dB
Peak : 0.988617
CRC32 hash (test run) : FD33E5D5
CRC32 hash : FD33E5D5
CRC32 hash (skip zero) : 1FE36DD5
AccurateRip signature : CE6E80BB
->Accurately ripped! (AR2, confidence 16)
Statistics
Read error : 0
Jitter error (maybe fixed) : 0
Retry sector count : 0
Damaged sector count : 0
Track 02
Track gain : -4.69 dB
Peak : 0.968689
CRC32 hash (test run) : FC1797EE
CRC32 hash : FC1797EE
CRC32 hash (skip zero) : 4496E1C4
AccurateRip signature : C386781C
->Accurately ripped! (AR2, confidence 15)
Statistics
Read error : 0
Jitter error (maybe fixed) : 0
Retry sector count : 0
Damaged sector count : 0
Track 03
Track gain : -4.57 dB
Peak : 0.988617
CRC32 hash (test run) : 1F0140FD
CRC32 hash : 1F0140FD
CRC32 hash (skip zero) : D52BBF85
AccurateRip signature : B443E92E
->Accurately ripped! (AR2, confidence 16)
Statistics
Read error : 0
Jitter error (maybe fixed) : 0
Retry sector count : 0
Damaged sector count : 0
Track 04
Track gain : -6.66 dB
Peak : 0.914490
CRC32 hash (test run) : CD7B22FC
CRC32 hash : CD7B22FC
CRC32 hash (skip zero) : 8BAB7380
AccurateRip signature : 341B7F6F
->Accurately ripped! (AR2, confidence 16)
Statistics
Read error : 0
Jitter error (maybe fixed) : 0
Retry sector count : 0
Damaged sector count : 0
Track 05
Track gain : -5.95 dB
Peak : 0.968628
CRC32 hash (test run) : 880B4325
CRC32 hash : 880B4325
CRC32 hash (skip zero) : 423184BE
AccurateRip signature : 74DDB5EC
->Accurately ripped! (AR2, confidence 16)
Statistics
Read error : 0
Jitter error (maybe fixed) : 0
Retry sector count : 0
Damaged sector count : 0
Track 06
Track gain : -6.82 dB
Peak : 0.968628
CRC32 hash (test run) : 10D64A33
CRC32 hash : 10D64A33
CRC32 hash (skip zero) : 088C06E2
AccurateRip signature : 6B5B2E39
->Accurately ripped! (AR2, confidence 16)
Statistics
Read error : 0
Jitter error (maybe fixed) : 0
Retry sector count : 0
Damaged sector count : 0
Track 07
Track gain : -4.69 dB
Peak : 0.968658
CRC32 hash (test run) : C597DD23
CRC32 hash : C597DD23
CRC32 hash (skip zero) : 88F551F3
AccurateRip signature : 42C0EA42
->Accurately ripped! (AR2, confidence 16)
Statistics
Read error : 0
Jitter error (maybe fixed) : 0
Retry sector count : 0
Damaged sector count : 0
Track 08
Track gain : -3.90 dB
Peak : 0.988647
CRC32 hash (test run) : FED04ED5
CRC32 hash : FED04ED5
CRC32 hash (skip zero) : B3734F38
AccurateRip signature : 8E319519
->Accurately ripped! (AR2, confidence 15)
Statistics
Read error : 0
Jitter error (maybe fixed) : 0
Retry sector count : 0
Damaged sector count : 0
Track 09
Track gain : -6.15 dB
Peak : 0.968628
CRC32 hash (test run) : C9034A96
CRC32 hash : C9034A96
CRC32 hash (skip zero) : 1AF3FCCF
AccurateRip signature : 34CFA482
->Accurately ripped! (AR2, confidence 16)
Statistics
Read error : 0
Jitter error (maybe fixed) : 0
Retry sector count : 0
Damaged sector count : 0
Track 10
Track gain : -6.53 dB
Peak : 0.988647
CRC32 hash (test run) : 9E314A5D
CRC32 hash : 9E314A5D
CRC32 hash (skip zero) : 16920329
AccurateRip signature : DD105658
->Accurately ripped! (AR2, confidence 16)
Statistics
Read error : 0
Jitter error (maybe fixed) : 0
Retry sector count : 0
Damaged sector count : 0
Track 11
Track gain : -5.93 dB
Peak : 0.968719
CRC32 hash (test run) : DA2ECA7D
CRC32 hash : DA2ECA7D
CRC32 hash (skip zero) : 4344DDFF
AccurateRip signature : 967D34B7
->Accurately ripped! (AR2, confidence 15)
Statistics
Read error : 0
Jitter error (maybe fixed) : 0
Retry sector count : 0
Damaged sector count : 0
Track 12
Pre-gap length : 00:02:15
Track gain : -5.06 dB
Peak : 0.968750
CRC32 hash (test run) : FB722D8B
CRC32 hash : FB722D8B
CRC32 hash (skip zero) : 7F38233A
AccurateRip signature : E7CB7F26
->Accurately ripped! (AR2, confidence 15)
Statistics
Read error : 0
Jitter error (maybe fixed) : 0
Retry sector count : 0
Damaged sector count : 0
No errors occurred
End of status report
TITLE "Some Things Never Change"
PERFORMER "Supertramp"
CATALOG 0101000060000
REM GENRE "Rock"
REM DATE "1997"
REM DISCNUMBER 1
REM TOTALDISCS 1
REM DISCID B6106B0C
REM REPLAYGAIN_ALBUM_GAIN -5.63 dB
REM REPLAYGAIN_ALBUM_PEAK 0.988647
FILE "Supertramp - Some Things Never Change.flac" WAVE
TRACK 01 AUDIO
TITLE "It's A Hard World"
SONGWRITER "Rick Davies"
REM REPLAYGAIN_TRACK_GAIN -3.24 dB
REM REPLAYGAIN_TRACK_PEAK 0.988617
INDEX 01 00:00:00
TRACK 02 AUDIO
TITLE "You Win, I Lose"
SONGWRITER "Rick Davies"
REM REPLAYGAIN_TRACK_GAIN -4.69 dB
REM REPLAYGAIN_TRACK_PEAK 0.968689
INDEX 01 09:46:02
TRACK 03 AUDIO
TITLE "Get Your Act Together"
SONGWRITER "Rick Davies"
REM REPLAYGAIN_TRACK_GAIN -4.57 dB
REM REPLAYGAIN_TRACK_PEAK 0.988617
INDEX 01 14:17:32
TRACK 04 AUDIO
TITLE "Live To Love You"
SONGWRITER "Rick Davies"
REM REPLAYGAIN_TRACK_GAIN -6.66 dB
REM REPLAYGAIN_TRACK_PEAK 0.914490
INDEX 01 19:04:72
TRACK 05 AUDIO
TITLE "Some Things Never Change"
SONGWRITER "Rick Davies"
REM REPLAYGAIN_TRACK_GAIN -5.95 dB
REM REPLAYGAIN_TRACK_PEAK 0.968628
INDEX 01 24:24:27
TRACK 06 AUDIO
TITLE "Listen To Me Please"
SONGWRITER "Rick Davies"
REM REPLAYGAIN_TRACK_GAIN -6.82 dB
REM REPLAYGAIN_TRACK_PEAK 0.968628
INDEX 01 30:50:70
TRACK 07 AUDIO
TITLE "Sooner Or Later"
SONGWRITER "Mark Hart"
REM REPLAYGAIN_TRACK_GAIN -4.69 dB
REM REPLAYGAIN_TRACK_PEAK 0.968658
INDEX 01 35:37:35
TRACK 08 AUDIO
TITLE "Help Me Down That Road"
SONGWRITER "Rick Davies"
REM REPLAYGAIN_TRACK_GAIN -3.90 dB
REM REPLAYGAIN_TRACK_PEAK 0.988647
INDEX 01 42:28:62
TRACK 09 AUDIO
TITLE "And The Light"
SONGWRITER "Rick Davies"
REM REPLAYGAIN_TRACK_GAIN -6.15 dB
REM REPLAYGAIN_TRACK_PEAK 0.968628
INDEX 01 47:05:70
TRACK 10 AUDIO
TITLE "Give Me A Chance"
SONGWRITER "Mark Hart"
REM REPLAYGAIN_TRACK_GAIN -6.53 dB
REM REPLAYGAIN_TRACK_PEAK 0.988647
INDEX 01 51:47:20
TRACK 11 AUDIO
TITLE "C'est What?"
SONGWRITER "Rick Davies"
REM REPLAYGAIN_TRACK_GAIN -5.93 dB
REM REPLAYGAIN_TRACK_PEAK 0.968719
INDEX 01 56:10:55
TRACK 12 AUDIO
TITLE "Where There's A Will"
SONGWRITER "Rick Davies"
REM REPLAYGAIN_TRACK_GAIN -5.06 dB
REM REPLAYGAIN_TRACK_PEAK 0.968750
INDEX 00 64:26:02
INDEX 01 64:28:17
X Lossless Decoder version 20120609 (141.0)
XLD extraction logfile from 2012-06-19 02:54:25 +0300
Supertramp / Slow Motion
Used drive : MATSHITA DVD-R UJ-898 (revision HC09)
Ripper mode : XLD Secure Ripper
Disable audio cache : OK for the drive with a cache less than 1375KiB
Make use of C2 pointers : NO
Read offset correction : 102
Max retry count : 20
Gap status : Analyzed, Appended
TOC of the extracted CD
Track | Start | Length | Start sector | End sector
---------------------------------------------------------
1 | 00:00:00 | 03:50:47 | 0 | 17296
2 | 03:50:47 | 04:30:10 | 17297 | 37556
3 | 08:20:57 | 04:28:30 | 37557 | 57686
4 | 12:49:12 | 05:06:60 | 57687 | 80696
5 | 17:55:72 | 08:57:53 | 80697 | 121024
6 | 26:53:50 | 05:17:07 | 121025 | 144806
7 | 32:10:57 | 06:27:35 | 144807 | 173866
8 | 38:38:17 | 03:06:00 | 173867 | 187816
9 | 41:44:17 | 08:26:18 | 187817 | 225784
List of alternate offset correction values
# | Absolute | Relative | Confidence
------------------------------------------
1 | 766 | 664 | 117
2 | 97 | -5 | 3
3 | 754 | 652 | 2
4 | 700 | 598 | 2
5 | 111 | 9 | 2
6 | 776 | 674 | 2
AccurateRip Summary (DiscID: 000ff80b-0077f0d5-5e0bc209)
Track 01 : OK (v1, confidence 3/130)
Track 02 : OK (v1, confidence 3/131)
Track 03 : OK (v1, confidence 3/130)
Track 04 : OK (v1, confidence 3/129)
Track 05 : OK (v1, confidence 3/128)
Track 06 : OK (v1, confidence 3/129)
Track 07 : OK (v1, confidence 3/127)
Track 08 : OK (v1, confidence 3/127)
Track 09 : OK (v1, confidence 3/126)
->All tracks accurately ripped.
All Tracks
Filename : /Users/macuser/Music/myRips/supertramp-slow motion(2002)/ Supertramp - Slow Motion.flac
Album gain : -8.61 dB
Peak : 0.998932
CRC32 hash (test run) : D48BD5F4
CRC32 hash : D48BD5F4
CRC32 hash (skip zero) : 4D9E43FD
Statistics
Read error : 0
Jitter error (maybe fixed) : 0
Retry sector count : 0
Damaged sector count : 0
Track 01
Pre-gap length : 00:02:00
Track gain : -8.06 dB
Peak : 0.998932
CRC32 hash (test run) : F26BDC57
CRC32 hash : F26BDC57
CRC32 hash (skip zero) : 78742E3F
AccurateRip v1 signature : 4DE06602
AccurateRip v2 signature : 03526C02
->Accurately ripped (v1, confidence 3/130)
Statistics
Read error : 0
Jitter error (maybe fixed) : 0
Retry sector count : 0
Damaged sector count : 0
Track 02
Track gain : -9.13 dB
Peak : 0.998932
CRC32 hash (test run) : EB39D2D3
CRC32 hash : EB39D2D3
CRC32 hash (skip zero) : CD27EC34
AccurateRip v1 signature : 10C222AF
AccurateRip v2 signature : 82CE1973
->Accurately ripped (v1, confidence 3/131)
Statistics
Read error : 0
Jitter error (maybe fixed) : 0
Retry sector count : 0
Damaged sector count : 0
Track 03
Track gain : -9.49 dB
Peak : 0.998932
CRC32 hash (test run) : 97D73599
CRC32 hash : 97D73599
CRC32 hash (skip zero) : D50C0A8A
AccurateRip v1 signature : 4A325F4E
AccurateRip v2 signature : F09B2ECC
->Accurately ripped (v1, confidence 3/130)
Statistics
Read error : 0
Jitter error (maybe fixed) : 0
Retry sector count : 0
Damaged sector count : 0
Track 04
Track gain : -8.41 dB
Peak : 0.998932
CRC32 hash (test run) : 0ACA9139
CRC32 hash : 0ACA9139
CRC32 hash (skip zero) : E7F615A2
AccurateRip v1 signature : EB913CDE
AccurateRip v2 signature : F8C7125D
->Accurately ripped (v1, confidence 3/129)
Statistics
Read error : 0
Jitter error (maybe fixed) : 0
Retry sector count : 0
Damaged sector count : 0
Track 05
Track gain : -8.79 dB
Peak : 0.998932
CRC32 hash (test run) : 7D9BFAC9
CRC32 hash : 7D9BFAC9
CRC32 hash (skip zero) : F7DF5D7C
AccurateRip v1 signature : 434D54DD
AccurateRip v2 signature : FB18FEE5
->Accurately ripped (v1, confidence 3/128)
Statistics
Read error : 0
Jitter error (maybe fixed) : 0
Retry sector count : 0
Damaged sector count : 0
Track 06
Track gain : -7.07 dB
Peak : 0.998932
CRC32 hash (test run) : 94A5B827
CRC32 hash : 94A5B827
CRC32 hash (skip zero) : DCD6F5DD
AccurateRip v1 signature : E0D608E1
AccurateRip v2 signature : A9DE1819
->Accurately ripped (v1, confidence 3/129)
Statistics
Read error : 0
Jitter error (maybe fixed) : 0
Retry sector count : 0
Damaged sector count : 0
Track 07
Track gain : -7.98 dB
Peak : 0.998932
CRC32 hash (test run) : DF4E21A2
CRC32 hash : DF4E21A2
CRC32 hash (skip zero) : 302830D7
AccurateRip v1 signature : 02134C0E
AccurateRip v2 signature : 9E3ED4C6
->Accurately ripped (v1, confidence 3/127)
Statistics
Read error : 0
Jitter error (maybe fixed) : 0
Retry sector count : 0
Damaged sector count : 0
Track 08
Track gain : -9.59 dB
Peak : 0.998932
CRC32 hash (test run) : 96E3C0CF
CRC32 hash : 96E3C0CF
CRC32 hash (skip zero) : DF57F47F
AccurateRip v1 signature : 516CF769
AccurateRip v2 signature : C7FD714B
->Accurately ripped (v1, confidence 3/127)
Statistics
Read error : 0
Jitter error (maybe fixed) : 0
Retry sector count : 0
Damaged sector count : 0
Track 09
Track gain : -8.60 dB
Peak : 0.998932
CRC32 hash (test run) : C7729B31
CRC32 hash : C7729B31
CRC32 hash (skip zero) : 0D5D7AAA
AccurateRip v1 signature : A4344F75
AccurateRip v2 signature : 51CC8B37
->Accurately ripped (v1, confidence 3/126)
Statistics
Read error : 0
Jitter error (maybe fixed) : 0
Retry sector count : 0
Damaged sector count : 0
No errors occurred
End of status report
TITLE "Slow Motion"
PERFORMER "Supertramp"
REM GENRE "Rock"
REM DATE "2002"
REM DISCID 5E0BC209
REM REPLAYGAIN_ALBUM_GAIN -8.61 dB
REM REPLAYGAIN_ALBUM_PEAK 0.998932
FILE " Supertramp - Slow Motion.flac" WAVE
TRACK 01 AUDIO
TITLE "Slow Motion"
ISRC USRD30230101
REM REPLAYGAIN_TRACK_GAIN -8.06 dB
REM REPLAYGAIN_TRACK_PEAK 0.998932
INDEX 01 00:00:00
TRACK 02 AUDIO
TITLE "Little By Little"
ISRC USRD30230102
REM REPLAYGAIN_TRACK_GAIN -9.13 dB
REM REPLAYGAIN_TRACK_PEAK 0.998932
INDEX 01 03:50:47
TRACK 03 AUDIO
TITLE "Broken Hearted"
ISRC USRD30230103
REM REPLAYGAIN_TRACK_GAIN -9.49 dB
REM REPLAYGAIN_TRACK_PEAK 0.998932
INDEX 01 08:20:57
TRACK 04 AUDIO
TITLE "Over You"
ISRC USRD30230104
REM REPLAYGAIN_TRACK_GAIN -8.41 dB
REM REPLAYGAIN_TRACK_PEAK 0.998932
INDEX 01 12:49:12
TRACK 05 AUDIO
TITLE "Tenth Avenue Breakdown"
ISRC USRD30230105
REM REPLAYGAIN_TRACK_GAIN -8.79 dB
REM REPLAYGAIN_TRACK_PEAK 0.998932
INDEX 01 17:55:72
TRACK 06 AUDIO
TITLE "A Sting In The Tail"
ISRC USRD30230106
REM REPLAYGAIN_TRACK_GAIN -7.07 dB
REM REPLAYGAIN_TRACK_PEAK 0.998932
INDEX 01 26:53:50
TRACK 07 AUDIO
TITLE "Bee In Your Bonnet"
ISRC USRD30230107
REM REPLAYGAIN_TRACK_GAIN -7.98 dB
REM REPLAYGAIN_TRACK_PEAK 0.998932
INDEX 01 32:10:57
TRACK 08 AUDIO
TITLE "Goldrush"
ISRC USRD30230108
REM REPLAYGAIN_TRACK_GAIN -9.59 dB
REM REPLAYGAIN_TRACK_PEAK 0.998932
INDEX 01 38:38:17
TRACK 09 AUDIO
TITLE "Dead Man's Blues"
ISRC USRD30230109
REM REPLAYGAIN_TRACK_GAIN -8.60 dB
REM REPLAYGAIN_TRACK_PEAK 0.998932
INDEX 01 41:44:17
[CUETools log; Date: 19.06.2012 13:01:30; Version: 2.1.4]
[CTDB TOCID: P1lvWwDc33DnqGwFCpywjrazjFw-] found.
Track | CTDB Status
1 | (13/14) Accurately ripped
2 | (14/14) Accurately ripped
3 | (14/14) Accurately ripped
4 | (14/14) Accurately ripped
5 | (14/14) Accurately ripped
6 | (14/14) Accurately ripped
7 | (12/14) Accurately ripped
8 | (13/14) Accurately ripped
9 | (13/14) Accurately ripped
[AccurateRip ID: 000ff80b-0077f0d5-5e0bc209] found.
Track [ CRC | V2 ] Status
01 [4de06602|03526c02] (003+000/130) Accurately ripped
02 [10c222af|82ce1973] (003+000/131) Accurately ripped
03 [4a325f4e|f09b2ecc] (003+000/130) Accurately ripped
04 [eb913cde|f8c7125d] (003+000/129) Accurately ripped
05 [434d54dd|fb18fee5] (003+000/128) Accurately ripped
06 [e0d608e1|a9de1819] (003+000/129) Accurately ripped
07 [02134c0e|9e3ed4c6] (003+000/127) Accurately ripped
08 [516cf769|c7fd714b] (003+000/127) Accurately ripped
09 [a4344f75|51cc8b37] (003+000/126) Accurately ripped
Offsetted by -5:
01 [9d91c433] (003/130) Accurately ripped
02 [9a7e4dde] (003/131) Accurately ripped
03 [905ddf9e] (003/130) Accurately ripped
04 [6fa92836] (003/129) Accurately ripped
05 [d908f61c] (003/128) Accurately ripped
06 [fd9572c7] (003/129) Accurately ripped
07 [fe0e7aff] (003/127) Accurately ripped
08 [e87acf46] (003/127) Accurately ripped
09 [0bae180a] (003/126) Accurately ripped
Offsetted by 9:
01 [7fe20ce8] (002/130) Accurately ripped
02 [f5f3b2a3] (002/131) Accurately ripped
03 [f1a06d19] (002/130) Accurately ripped
04 [b71dda82] (002/129) Accurately ripped
05 [4f41f17f] (002/128) Accurately ripped
06 [cf1b3d5f] (002/129) Accurately ripped
07 [8c15768a] (002/127) Accurately ripped
08 [af8539b8] (002/127) Accurately ripped
09 [b0eab295] (002/126) Accurately ripped
Offsetted by 598:
01 [641e3e47] (002/130) Accurately ripped
02 [079f229d] (002/131) Accurately ripped
03 [4008bf86] (002/130) Accurately ripped
04 [9b8e4233] (002/129) Accurately ripped
05 [fbe508d8] (002/128) Accurately ripped
06 [6b3e80db] (002/129) Accurately ripped
07 [4c454598] (002/127) Accurately ripped
08 [104df425] (002/127) Accurately ripped
09 [3c1bb236] (002/126) Accurately ripped
Offsetted by 652:
01 [a630a549] (002/130) Accurately ripped
02 [6b0b2a3f] (002/131) Accurately ripped
03 [b9387a7b] (002/130) Accurately ripped
04 [994cd6d5] (002/129) Accurately ripped
05 [9b0f619e] (002/128) Accurately ripped
06 [1980e6a0] (002/129) Accurately ripped
07 [0706d8d8] (002/127) Accurately ripped
08 [a2604836] (002/127) Accurately ripped
09 [bc467c7f] (002/126) Accurately ripped
Offsetted by 664:
01 [79986939] (103/130) Accurately ripped
02 [8045ed48] (104/131) Accurately ripped
03 [7675211f] (103/130) Accurately ripped
04 [c7bae2a1] (102/129) Accurately ripped
05 [d2fcc4bf] (101/128) Accurately ripped
06 [c0a97d8c] (103/129) Accurately ripped
07 [0b42a737] (101/127) Accurately ripped
08 [87c5d40b] (101/127) Accurately ripped
09 [7c3c5af1] (100/126) Accurately ripped
Offsetted by 674:
01 [5604850f] (000/130) No match (V2 was not tested)
02 [cb6524e5] (002/131) Accurately ripped
03 [3f958857] (002/130) Accurately ripped
04 [9cca48a8] (002/129) Accurately ripped
05 [da8643db] (002/128) Accurately ripped
06 [7154a9ac] (002/129) Accurately ripped
07 [161b87e2] (002/127) Accurately ripped
08 [213d4c47] (002/127) Accurately ripped
09 [15d53f54] (000/126) No match (V2 was not tested)
Track Peak [ CRC32 ] [W/O NULL]
-- 99,8 [D48BD5F4] [4D9E43FD]
01 99,8 [F26BDC57] [78742E3F]
02 99,8 [EB39D2D3] [CD27EC34]
03 99,8 [97D73599] [D50C0A8A]
04 99,8 [0ACA9139] [E7F615A2]
05 99,8 [7D9BFAC9] [F7DF5D7C]
06 99,8 [94A5B827] [DCD6F5DD]
07 99,8 [DF4E21A2] [302830D7]
08 99,8 [96E3C0CF] [DF57F47F]
09 99,8 [C7729B31] [0D5D7AAA]
[свернуть]

_________________
Подпись отключена за нарушение правил форума
[Профиль]  [ЛС] 

starrrrider

Лоцман

Пост 30-Мар-2014 15:03 (спустя 1 год 1 месяц)

[Q] 

Если рипы не перепост с других трекеров, то обязательно беру - заслушаю
Одобрямс!
[Профиль]  [ЛС] 

BilG

Флибустьер

Пост 13-Мар-2017 14:01 (спустя 2 года 11 месяцев)

[Q] 


_________________
[Профиль]  [ЛС] 
Показать сообщения:    
Ответить на тему

Текущее время: Сегодня 10:57

Часовой пояс: GMT + 4



Вы не можете начинать темы
Вы не можете отвечать на сообщения
Вы не можете редактировать свои сообщения
Вы не можете удалять свои сообщения
Вы не можете голосовать в опросах
Вы не можете прикреплять файлы к сообщениям
Вы не можете скачивать файлы

Майнать ▼