Осторожно, модерн! (56 серий из 56) / Сезон: 1-8 / Серии: 1-56 (Анна Пармас) [1996 г., комедия, VHSRip]

Ответить на тему
 
Автор
Сообщение

Пост 18-Сен-2012 00:32

[Q] 

sandman1973

Гроза морей

-Осторожно, модерн! (56 серий из 56)-- Производство: Россия
Жанр: комедия
Год выпуска: 1996 г.
Продолжительность: 00:26:00
Российская премьера: 1996
Дата выхода DVD: 1998
Режиссер: Анна Пармас-В ролях: Дмитрий Нагиев, Сергей Рост-Описание: Было время, когда Дмитрий Нагиев и Сергей Рост еще не стали суперпопулярными трансформерами… Было время, когда ОНИ были простыми гениями перевоплощений и обыкновенными всемирно известными комиками… Было время, когда ИХ герои еще не остепенились и не обзавелись семьями… Было время, когда ОНИ появлялись то здесь, то там — мылись в банях, пили на свадьбах, делили наследства, катались на поездах, искали клады по стройкам и снимали кино… Все это ОНИ делали с полной отдачей и присущим ИМ талантом смешить… Это было то, с чего все начиналось… Это был «Осторожно, Модерн!»…-
Качество видео: VHSRip
Формат видео: AVI
Видео кодек: DivX
Аудио кодек: MP3
Видео: 888 Кбит/сек, 496х384, 25,000 кадров/сек
Аудио: 128 Кбит/сек, 2 канала, 48,0 КГц
Общее
Полное имя : E:\Загрузки\Ostorozhno.modern.(56.serij.iz.56).1998.DivX.DVDRip\Ostorozhno.modern.(01.serija.iz.56).1998.DivX.DVDRip.avi
Формат : AVI
Формат/Информация : Audio Video Interleave
Размер файла : 187 Мбайт
Продолжительность : 25 м.
Общий поток : 1025 Кбит/сек
Библиотека кодирования : VirtualDub build 23774/release
Видео
Идентификатор : 0
Формат : MPEG-4 Visual
Параметр BVOP формата : Нет
Параметр QPel формата : Нет
Параметр GMC формата : Без точки перехода
Параметр матрицы формата : Default (H.263)
Идентификатор кодека : DX50
Идентификатор кодека/Подсказка : DivX 5
Продолжительность : 25 м.
Битрейт : 888 Кбит/сек
Ширина : 496 пикселей
Высота : 384 пикселя
Соотношение сторон : 1,292
Частота кадров : 25,000 кадров/сек
Цветовое пространство : YUV
Субдискретизация насыщенности : 4:2:0
Битовая глубина : 8 бит
Тип развёртки : Прогрессивная
Метод сжатия : С потерями
Бит/(Пиксели*Кадры) : 0.186
Размер потока : 162 Мбайт (87%)
Библиотека кодирования : DivX 5.1.1 (Maupiti) (UTC 2003-11-19)
Аудио
Идентификатор : 1
Формат : MPEG Audio
Версия формата : Version 1
Профиль формата : Layer 3
Режим : Joint stereo
Расширение режима : MS Stereo
Идентификатор кодека : 55
Идентификатор кодека/Подсказка : MP3
Продолжительность : 25 м.
Вид битрейта : Постоянный
Битрейт : 128 Кбит/сек
Каналы : 2 канала
Частота : 48,0 КГц
Метод сжатия : С потерями
Размер потока : 23,3 Мбайт (12%)
Выравнивание : Разделение по промежуткам
Продолжительность промежутка : 40 мс. (1,00 видеокадр)
Время предзагрузки промежутка : 500 мс.
Download / Скачать

Хотите скачать бесплатно? Зарегистрируйтесь на сайте (ссылка на регистрацию). Pirat.ca - самый быстрый торрент трекер в рунете!

Как скачивать  ·   Что такое торрент  ·   Рейтинг и ограничения



Последний раз редактировалось: sandman1973 (2012-09-18 00:48), всего редактировалось 2 раз(а)

Пост 18-Сен-2012 00:53 (спустя 20 минут)

Топик был перенесен из форума Отечественные сериалы в форум Развлекательные передачи и тв-шоу

Андря
 

vaeka

Штурман

Пост 18-Сен-2012 11:29 (спустя 10 часов)

[Q] 

Добавьте speed !
[Профиль]  [ЛС] 

-B1ack-

1906

Пост 18-Сен-2012 22:29 (спустя 10 часов)

[Q] 

sandman1973
ром в трюме,помогу раздать

_________________
[Профиль]  [ЛС] 

vovan200976

Флибустьер

Пост 18-Сен-2012 23:31 (спустя 1 час 1 минута)

[Q] 

[Профиль]  [ЛС] 

vaeka

Штурман

Пост 19-Сен-2012 08:35 (спустя 9 часов)

[Q] 

[Профиль]  [ЛС] 

sandman1973 ®

Гроза морей

2176

Пост 20-Сен-2012 10:59 (спустя 1 день 2 часа)

[Q] 


_________________

[Профиль]  [ЛС] 

skoracrytechalmighty

Лоцман

Пост 18-Апр-2015 05:11 (спустя 2 года 6 месяцев)

[Q] 

во дворах соседних снимали тогда они! ёПЛТОН!
[Профиль]  [ЛС] 

Железный DVD

Лоцман

19

Пост 20-Мар-2017 20:17 (спустя 1 год 11 месяцев)

[Q] 

792254 Раздающему респект! Прикольный сериал. Еще из той же оперы Осторожно, Задов! или похождения прапорщика / Серии: 1-29 из 29 (Андрей Балашов) [2004 г., Комедийный сериал, DVDRip]

_________________
Да мне мат кто ты и что ты
[Профиль]  [ЛС] 
Показать сообщения:    
Ответить на тему

Текущее время: Сегодня 09:51

Часовой пояс: GMT + 4



Вы не можете начинать темы
Вы не можете отвечать на сообщения
Вы не можете редактировать свои сообщения
Вы не можете удалять свои сообщения
Вы не можете голосовать в опросах
Вы не можете прикреплять файлы к сообщениям
Вы не можете скачивать файлы

Майнать ▼