Мизинец Будды / Buddha's Little Finger (Тони Пембертон / Tony Pemberton) [2015 г., драма, артхаус, WEB-DLRip] MVO + Sub (Rus)

Ответить на тему
 
Автор
Сообщение

Пост 09-Фев-2017 04:50

[Q] 

somik

-Мизинец Будды / Buddha's Little Finger-- Производство: Россия, Канада, Германия, Rohfilm, Amérique Film, Cine Plus
Год выпуска: 2015 г.
Жанр: драма, артхаус
Продолжительность: 01:23:49
Мировая премьера: 1 сентября 2015
Перевод: Профессиональный (многоголосый, закадровый)
Режиссер: Тони Пембертон / Tony Pemberton-В ролях: Тоби Кеббелл, Андре Хеннике, Карин Ванасс, Юки Ивамото, Стипе Эрцег, Иван Шведов, Тристан Пюттер, Давид Шеллер, Герди Цинт, Анна-Мари Кадьо-Описание: Действие фильма разворачивается в 1919 году в дивизии Чапаева, в которой главный герой, поэт-декадент Петр Пустота, служит комиссаром, а также в наши дни и в виртуальном пространстве…-
Качество видео: WEB-DLRip
Контейнер: AVI
Видео кодек: XviD
Аудио кодек: AC3
Видео: 720x400 (1.80:1), 23.976 fps, XviD build 64, 2163 kbps avg, 0.31 bit/pixel
Аудио: 48 kHz, AC3 Dolby Digital, 2/0 (L,R) ch, 192 kbps
Cубтитры: русские
Формат субтитров: softsub (SRT)
Доп. информация о субтитрах: внешние
Фильм снят по роману Виктора Пелевина — «Чапаев и Пустота».
Ожидание… Реальность
«Весь этот мир — это анекдот, который Господь Бог рассказал самому себе».
Виктор Пелевин «Чапаев и Пустота»
Итак, приступим к анализу «так тяжело вышедшего» фильма.
Начать следует с того, что сам роман «Чапаев и Пустота», написанный в далеком 1996 был и остается один из лучших произведений автора.
И также, немаловажно, что уже 12 лет существует театральная постановка «Чапаев и Пустота» режиссёра Павла Урсула, которая имела положительные отзывы большинства критиков.
Режиссер Тони Пембертон, взявшись за картину (прошлые его картины особого успеха у зрителя не имели), не учел тот момент, что произведения столь специфического характера следует четко экранизировать с помощью особенностей менталитета и контекста автора. Ему, к сожалению, никто этого не подсказал.
Наблюдая, уже самое начало фильма, четко осознаешь, что это такой фильм, который придется смотреть, вздыхать и говорить про себя, ладно-ладно, ну что дальше-то…
И вот, уже минуте на пятнадцатой, ты четко понимаешь, несмотря на старания главного героя в лице актера Тоби Кебелла, так нам полюбившегося по картинам «Рок-н-рольщик» и сериалу «Мастер побега», это все, происходящее на экране, как-то не вяжется с оригиналом. Скажем прямо: Виктор Пелевин, по словам режиссёра, сценарий читал и отозвался положительно, и сказал, что ему «… нравится 115 страниц из 120, а в этих 5 страницах вы умудрились практически разрушить всю историю».
Поэтому, далее смотреть уже особенно и не хотелось. Каждый кадр фильма, сравнивая с оригиналом, ощущаешь, что они вообще экранизируют что-то свое, а не великий роман.
Сюжетная линия психиатрической больницы вообще не раскрыта, так же как и классические точки романа.
Досмотрев до титров, осталось лишь одно — посоветовать всем читать гения Пелевина в оригинале, и побольше. А смотреть из экранизаций только «Generation П». Ну, не могут западные режиссеры экранизировать наших современных авторов, пора бы это уже понять. Надеемся, что найдутся ценители великого писателя и мы увидим в будущем и «Любовь к трем цукербринам», и «Затворника и Шестипалого» и тд.
Остается лишь верить, что следующая экранизация «Empire V» (в этом году) гения Виктора Пелевина, в уже проверенном партнерстве с Виктором Гинзбургом, окажется тем, что все фанаты писателя ожидают увидеть.
И напоследок.
»… все мы — всего лишь звуки, летящие из под пальцев неведомого пианиста, просто короткие терции, плавные сексты и диссонирующие септимы в грандиозной симфонии, которую никому из нас не дано услышать целиком».
Виктор Пелевин
Общее
Полное имя : C:\герои 7\Мизинец Будды Buddha's Little Finger (2015) WEB-DLRip P\Buddha's Little Finger (2015) WEB-DLRip.[pirat.ca]\Buddha's Little Finger.2015.WEB-DLRip.[pirat.ca].avi
Формат : AVI
Формат/Информация : Audio Video Interleave
Профиль формата : OpenDML
Размер файла : 1,38 Гбайт
Продолжительность : 1 ч. 23 м.
Общий поток : 2362 Кбит/сек
Программа кодирования : XviD4PSP 6.0 / 54.29.105
Видео
Идентификатор : 0
Формат : xvid
Идентификатор кодека : xvid
Продолжительность : 1 ч. 23 м.
Битрейт : 2157 Кбит/сек
Ширина : 720 пикселей
Высота : 400 пикселей
Соотношение сторон : 16:9
Частота кадров : 23,976 кадра/сек
Тип развёртки : Прогрессивная
Бит/(Пиксели*Кадры) : 0.312
Размер потока : 1,26 Гбайт (91%)
Аудио
Идентификатор : 1
Формат : AC-3
Формат/Информация : Audio Coding 3
Расширение режима : CM (complete main)
Параметр Endianness формата : Big
Идентификатор кодека : 2000
Продолжительность : 1 ч. 23 м.
Вид битрейта : Постоянный
Битрейт : 192 Кбит/сек
Каналы : 2 канала
Расположение каналов : Front: L R
Частота : 48,0 КГц
Частота кадров : 31,250 кадров/сек (1536 spf)
Битовая глубина : 16 бит
Метод сжатия : С потерями
Размер потока : 115 Мбайт (8%)
Выравнивание : Соединение по промежуткам
Продолжительность промежутка : 32 мс. (0,77 видеокадр)
Download / Скачать

Хотите скачать бесплатно? Зарегистрируйтесь на сайте (ссылка на регистрацию). Pirat.ca - самый быстрый торрент трекер в рунете!

Как скачивать  ·   Что такое торрент  ·   Рейтинг и ограничения

I.A.N.Dobermaniac

Шкипер

Пост 09-Фев-2017 07:01 (спустя 2 часа 10 минут)

[Q] 

Это типа экранизация Пелевина?
[Профиль]  [ЛС] 

somik ®

38036

Пост 09-Фев-2017 07:30 (спустя 29 минут)

[Q] 

Фильм снят по роману Виктора Пелевина — «Чапаев и Пустота».

_________________
Всё когда-нибудь уже было... В интернете!
[Профиль]  [ЛС] 

jofrei53

Флибустьер

Пост 10-Фев-2017 12:40 (спустя 1 день 5 часов)

[Q] 

Спасибо! Заинтересовало... Автору респект!!! Лови бочку
[Профиль]  [ЛС] 

burovets

Штурман

Пост 11-Фев-2017 20:29 (спустя 1 день 7 часов)

[Q] 

786856Это типа экранизация Пелевина?
Скорее "по мотивам".
[Профиль]  [ЛС] 

Vasilij15

Лоцман

Пост 12-Фев-2017 15:49 (спустя 19 часов)

[Q] 

Фильм гавно причем редкое. Просто обидно что такое произведение свободной мысли пересрали как смогли. Иначе просто никак культурнее не скажешь. Короче - просто слов нет !!!
Кстати, фильм Поколение П, тоже если мягко сказать - очень разочаровал.
[Профиль]  [ЛС] 

ScLeha

Лоцман

Пост 21-Мар-2017 14:24 (спустя 1 месяц 8 дней)

[Q] 

Неудачный фильм. Впрочем, Пелевина вообще трудно экранизировать; а тут еще иностранцы, да видать, читали в не очень хорошем переводе - ни хрена, соответственно, не поняли.
[Профиль]  [ЛС] 
Показать сообщения:    
Ответить на тему

Текущее время: Сегодня 08:52

Часовой пояс: GMT + 4



Вы не можете начинать темы
Вы не можете отвечать на сообщения
Вы не можете редактировать свои сообщения
Вы не можете удалять свои сообщения
Вы не можете голосовать в опросах
Вы не можете прикреплять файлы к сообщениям
Вы не можете скачивать файлы

Майнать ▼