Equilibrium - Rise Again [2016 г.] (Folk Metal, Symphonic Black Metal) [HDTVRip, 1080p]

Ответить на тему
 
Автор
Сообщение

Пост 17-Фев-2017 02:03

[Q] 

Дядя Вова

Гроза морей

-Equilibrium - Rise Again-- Год выпуска: 2016 г.
Страна: Munich, Bavaria, Germany
Жанр: Folk Metal, Symphonic Black Metal
Продолжительность: 00:04:09-Качество видео: HDTVRip
Контейнер: MKV
Стандарт разрешения: 1080p
Видео кодек: MPEG4 AVC
Аудио кодек: MP3
Видео: : 1 920 pixels х 1 080 pixels : 8 322 Kbps : 25.000 fps :
Аудио: : 270 Kbps : 2 channels : 44.1 KHz :-
1. Rise Again
General
UniqueID : 189752709888621514454567418405375740421 (0x8EC10AE7DAA2E567ABDD7F93F1088A05)
Complete name : G:\Equilibrium-Rise_Again-1080p-x264-2016-SRP\equilibrium-rise_again-1080p-x264-2016-srp.mkv
Format : Matroska
File size : 261 MiB
Duration : 4mn 9s
Overall bit rate : 8 766 Kbps
Encoded date : UTC 2017-02-13 05:54:50
Writing application : mkvmerge v9.8.0 ('Kuglblids') 64bit
Writing library : libebml v1.3.4 + libmatroska v1.4.5
Video
ID : 1
Format : AVC
Format/Info : Advanced Video Codec
Format profile : [email protected]
Format settings, CABAC : Yes
Format settings, ReFrames : 4 frames
Codec ID : V_MPEG4/ISO/AVC
Duration : 4mn 10s
Bit rate : 8 322 Kbps
Width : 1 920 pixels
Height : 1 080 pixels
Display aspect ratio : 16:9
Frame rate : 25.000 fps
Color space : YUV
Chroma subsampling : 4:2:0
Bit depth : 8 bits
Scan type : Progressive
Bits/(Pixel*Frame) : 0.161
Stream size : 248 MiB (95%)
Writing library : x264 core 148 r2762 90a61ec
Encoding settings : cabac=1 / ref=4 / deblock=1:-3:-3 / analyse=0x3:0x133 / me=umh / subme=9 / psy=1 / psy_rd=1.00:0.00 / mixed_ref=1 / me_range=32 / chroma_me=1 / trellis=2 / 8x8dct=1 / cqm=0 / deadzone=21,11 / fast_pskip=1 / chroma_qp_offset=-2 / threads=12 / lookahead_threads=1 / sliced_threads=0 / nr=0 / decimate=1 / interlaced=0 / bluray_compat=0 / constrained_intra=0 / bframes=3 / b_pyramid=2 / b_adapt=2 / b_bias=0 / direct=3 / weightb=1 / open_gop=0 / weightp=2 / keyint=250 / keyint_min=25 / scenecut=40 / intra_refresh=0 / rc_lookahead=60 / rc=crf / mbtree=1 / crf=18.0 / qcomp=0.60 / qpmin=0 / qpmax=69 / qpstep=4 / ip_ratio=1.40 / aq=1:1.00
Language : English
Audio
ID : 2
Format : MPEG Audio
Format version : Version 1
Format profile : Layer 3
Mode : Joint stereo
Codec ID : A_MPEG/L3
Codec ID/Hint : MP3
Duration : 4mn 9s
Bit rate mode : Variable
Bit rate : 270 Kbps
Minimum bit rate : 32.0 Kbps
Channel(s) : 2 channels
Sampling rate : 44.1 KHz
Compression mode : Lossy
Stream size : 8.04 MiB (3%)
Writing library : LAME3.98r
Encoding settings : -m j -V 0 -q 0 -lowpass 19.5 --vbr-new -b 32
Download / Скачать

Хотите скачать бесплатно? Зарегистрируйтесь на сайте (ссылка на регистрацию). Pirat.ca - самый быстрый торрент трекер в рунете!

Как скачивать  ·   Что такое торрент  ·   Рейтинг и ограничения

BilG

Флибустьер

Пост 25-Мар-2017 17:28 (спустя 1 месяц 8 дней)

[Q] 

Характер живет в человеке, репутация — вне его.
bp

_________________
[Профиль]  [ЛС] 
Показать сообщения:    
Ответить на тему

Текущее время: Сегодня 21:53

Часовой пояс: GMT + 4



Вы не можете начинать темы
Вы не можете отвечать на сообщения
Вы не можете редактировать свои сообщения
Вы не можете удалять свои сообщения
Вы не можете голосовать в опросах
Вы не можете прикреплять файлы к сообщениям
Вы не можете скачивать файлы

Майнать ▼