Уважаемый Гость!
Вы можете поддержать проект и зарегистрироваться у наших партнеров - онлайн-стратегия MyLands. При регистрации в игре Вы получите код, который сможете активировать после регистрации на pirat.ca и получить 1000 дублонов.

Ваш код:
17c6c725c1ba2437b38084f29a2550fd7d87392f
 
     

Миллиарды / Billions / Сезон: 2 / Серия: 1-12 из 12 (Анна Боден / Anna Boden) [2017, драма, WEB-Rip] MVO (AlexFilm) + Original (Eng)

Ответить на тему
 
Автор
Сообщение

Пост 27-Фев-2017 19:18

[Q] 

kugesan

Миллиарды / Billions«Power is the ultimate currency»- Страна: США
Год выпуска: 2017
Жанр: драма
Продолжительность: ~ 00:57:00 мин серия-Озвучка: Студия
Перевод: Многоголосый закадровый, профессиональный
Оригинальный аудиопоток: английский-Автор перевода: Константин Кривоногов
Роли озвучивали: Екатерина Муравицкая, Маргарита Корш, Владимир Курдов, Михаил Суслов, Роман Сопко, Михаил Шорыгин, Андрей Стакионис
Монтаж и сведение звука: Михаил Шорыгин
Постер: Андрей Шапал-Премьера (мир): 1 января 2016, ...
Премьера (РФ): 6 ноября 2016-Режиссер: Анна Боден / Anna Boden, Райан Флек / Ryan Fleck, Нил Бёргер / Neil Burger
В главных ролях: Малин Акерман, Мэгги Сифф, Дэмиэн Льюис, Пол Джаматти, Нэйтан Дарроу, Дэвид Костабайл, Терри Кинни, Келли АуКойн, Тоби Мур, Кондола Рашад-Описание фильма:
В мире власти и сверхприбылей, в самом сердце Нью-Йорка, вовсю идет противостояние. Бобби Аксельрод – амбициозный король хедж-фондов, ведущий рискованные, но блестяще успешные финансовые дела. Чак – принципиальный федеральный прокурор, который давно охотится за Бобби, но во вселенной больших денег совсем другие законы...
-Качество видео: WEBRip
Формат: AVI
Видеокодек: XviD
Аудиокодек: MP3
Видео: XviD ~ 1500 Кбит/сек: 720 x 400 (1.800) at 25.000 fps, 0.20 bit/pixel
Аудио Rus: МР3, 48,0 kHz, 2 ch, 128 kb/s |AlexFilm|
Аудио Eng: МР3, 48,0 kHz, 2 ch, 128 kb/s |Original|
Субтитры: Отсутствуют
Реклама: отсутствует
- -
  • Управление рисками
  • Прыжки мертвой кошки
  • Оптимальная игра
  • Клятва
  • Валюта
  • Индиан 4
  • Круг почета
  • Царетворец
  • Сик Трансит Империум
  • С тобой или без тебя
  • Время золотой лягушки
  • Шар в руке
-
Общее
Полное имя : E:\_Сериалы\_Сериалы\Миллиарды\Billions - Season 2 (AlexFilm) WEBRip\Billions.s02e01.WEBRip.Rus.Eng.AlexFilm.avi
Формат : AVI
Формат/Информация : Audio Video Interleave
Размер файла : 669 Мбайт
Продолжительность : 55 м. 56 с.
Общий поток : 1673 Кбит/сек
Название фильма : Billions 2x01 @ AlexFilm
Программа кодирования : VirtualDubMod 1.5.10.2 (build 2540/release)
Библиотека кодирования : VirtualDubMod build 2540/release
Видео
Идентификатор : 0
Формат : MPEG-4 Visual
Профиль формата : Advanced [email protected]
Параметр BVOP формата : Нет
Параметр QPel формата : Нет
Параметр GMC формата : Без точки перехода
Параметр матрицы формата : Default (MPEG)
Идентификатор кодека : XVID
Идентификатор кодека/Подсказка : XviD
Продолжительность : 55 м. 56 с.
Битрейт : 1403 Кбит/сек
Ширина : 720 пикселей
Высота : 400 пикселей
Соотношение сторон : 16:9
Частота кадров : 23,976 (24000/1001) кадра/сек
Цветовое пространство : YUV
Субдискретизация насыщенности : 4:2:0
Битовая глубина : 8 бит
Тип развёртки : Прогрессивная
Метод сжатия : С потерями
Бит/(Пиксели*Кадры) : 0.203
Размер потока : 561 Мбайт (84%)
Библиотека кодирования : XviD 73
Аудио #1
Идентификатор : 1
Формат : MPEG Audio
Версия формата : Version 1
Профиль формата : Layer 3
Режим : Joint stereo
Расширение режима : MS Stereo
Идентификатор кодека : 55
Идентификатор кодека/Подсказка : MP3
Продолжительность : 55 м. 49 с.
Вид битрейта : Постоянный
Битрейт : 128 Кбит/сек
Каналы : 2 канала
Частота : 48,0 КГц
Метод сжатия : С потерями
Размер потока : 51,1 Мбайт (8%)
Выравнивание : Соединение по промежуткам
Продолжительность промежутка : 42 мс. (1,00 видеокадр)
Время предзагрузки промежутка : 504 мс.
Заголовок : Russian (AlexFilm)
Библиотека кодирования : LAME3.99r
Настройки программы : -m j -V 4 -q 3 -lowpass 18 -b 128
Аудио #2
Идентификатор : 2
Формат : MPEG Audio
Версия формата : Version 1
Профиль формата : Layer 3
Режим : Joint stereo
Расширение режима : MS Stereo
Идентификатор кодека : 55
Идентификатор кодека/Подсказка : MP3
Продолжительность : 55 м. 56 с.
Вид битрейта : Постоянный
Битрейт : 128 Кбит/сек
Каналы : 2 канала
Частота : 48,0 КГц
Метод сжатия : С потерями
Размер потока : 51,2 Мбайт (8%)
Выравнивание : Соединение по промежуткам
Продолжительность промежутка : 42 мс. (1,00 видеокадр)
Время предзагрузки промежутка : 504 мс.
Заголовок : English
Библиотека кодирования : LAME3.90.3
-
-
-
1. Открыть торрент
2. Снять галки с тех файлов торрента, которые мы не хотим закачивать. Оставляем только на нужных нам файлах (файле).
3. Нажать О.К.
В клиенте utorrent
Инструкция
1) Открыть торрент

2) Снять галки с тех файлов торрента, которые мы не хотим закачивать:
* либо вручную, снимая с каждого файла галку( скрин №1)
* либо, нажав кнопку "Снять метки (Select None)", сняв сразу со всех файлов(скрин №2)
№1

№2

Оставляем только на нужных нам файлах (файле).

3)Нажать О.К
-Приятного просмотра!!!-
Download / Скачать

Хотите скачать бесплатно? Зарегистрируйтесь на сайте (ссылка на регистрацию). Pirat.ca - самый быстрый торрент трекер в рунете!

Как скачивать  ·   Что такое торрент  ·   Рейтинг и ограничения



Последний раз редактировалось: kugesan (2017-05-09 13:44), всего редактировалось 10 раз(а)

zvernight

Флибустьер

Пост 12-Мар-2017 13:08 (спустя 12 дней)

[Q] 

норм сериал, только не понимаю, если сериал позиционируется как интеллектуальная драма, то почему название переведено как "миллиарды", а не "триллионы", если под биллионом в математике принято считать 10 в 12 степени.
[Профиль]  [ЛС] 

kugesan ®

60723

Пост 12-Мар-2017 15:42 (спустя 2 часа 33 минуты)

[Q] 

791198 если сериал позиционируется как интеллектуальная драма, то почему название переведено как "миллиарды", а не "триллионы"
Не вижу связи между жанром и не правильным, по вашему мнению, названием.

_________________
В мире две бесконечности: вселенная и человеческая глупость - Альберт Эйнштен
«Можно вытащить человека из грязи, но нельзя вытащить грязь из человека»!
[Профиль]  [ЛС] 

zvernight

Флибустьер

Пост 12-Мар-2017 18:11 (спустя 2 часа 29 минут)

[Q] 

kugesan, да прост прочитал отзыв на кинопоиске чей-то, где было написано - типа сериал для интеллектуальной элиты, кому не понравился тот не понимает и т.п. Я и подумал, что это за гуманитарная элита такая, что триллион называет миллиардом.
[Профиль]  [ЛС] 

kirap76

Лоцман

Пост 29-Мар-2017 23:39 (спустя 17 дней)

[Q] 

вот все такие умные, жутко просто становится. посмотреть англо-русский словарь, при этом, совсем не судьба.
Добавлено спустя 1 минута 30 секунд:
в разных странах по-разному, где-то 10 в 9 степени, а где-то в 12й. а в русском языке слова биллион вообще нет
[Профиль]  [ЛС] 
Показать сообщения:    
Ответить на тему

Текущее время: Сегодня 15:07

Часовой пояс: GMT + 4



Вы не можете начинать темы
Вы не можете отвечать на сообщения
Вы не можете редактировать свои сообщения
Вы не можете удалять свои сообщения
Вы не можете голосовать в опросах
Вы не можете прикреплять файлы к сообщениям
Вы не можете скачивать файлы

▼ Вниз