Уважаемый Гость!
Вы можете поддержать проект и зарегистрироваться у наших партнеров - онлайн-стратегия MyLands. При регистрации в игре Вы получите код, который сможете активировать после регистрации на pirat.ca и получить 1000 дублонов.

Ваш код:
a684289c0bf6b6c7793f7bcdd4543134085aace6
 
     

Amaranthe - Boomerang [2017 г.] (Power Metal, Metalcore, Melodic Death Metal) [TVRip, 720p]

Ответить на тему
 
Автор
Сообщение

Пост 22-Фев-2017 02:33

[Q] 

Дядя Вова

Гроза морей

-Amaranthe - Boomerang-- Год выпуска: 2017 г.
Страна: Gothenburg, Sweden
Жанр: Power Metal, Metalcore, Melodic Death Metal
Продолжительность: 00:03:23-Качество видео: TVRip
Контейнер: MKV
Стандарт разрешения: 720p
Видео кодек: MPEG4 AVC
Аудио кодек: MP3
Видео: : 1 280 pixels x 544 pixels : 2 783 Kbps : 29.970 fps :
Аудио: : 241 Kbps : 2 channels : 44.1 KHz :-
1. Boomerang
General
UniqueID : 215461391176239819926238520357607046578 (0xA2185AC155E190F8850F96D1A775FDB2)
Complete name : G:\Amaranthe-Boomerang_(Lyric_Video)-DDC-720p-x264-2017-ZViD_iNT\amaranthe-boomerang_(lyric_video)-ddc-720p-x264-2017-zvid_int.mkv
Format : Matroska
File size : 74.7 MiB
Duration : 3mn 23s
Overall bit rate : 3 086 Kbps
Encoded date : UTC 2017-02-17 20:54:07
Writing application : mkvmerge v5.8.0 ('No Sleep / Pillow') built on Sep 2 2012 15:37:04
Writing library : libebml v1.2.3 + libmatroska v1.3.0
Video
ID : 1
Format : AVC
Format/Info : Advanced Video Codec
Format profile : [email protected]
Format settings, CABAC : Yes
Format settings, ReFrames : 5 frames
Codec ID : V_MPEG4/ISO/AVC
Duration : 3mn 23s
Bit rate : 2 783 Kbps
Width : 1 280 pixels
Height : 544 pixels
Display aspect ratio : 2.35:1
Frame rate : 29.970 fps
Color space : YUV
Chroma subsampling : 4:2:0
Bit depth : 8 bits
Scan type : Progressive
Bits/(Pixel*Frame) : 0.133
Stream size : 67.4 MiB (90%)
Writing library : x264 core 148 r2744 b97ae06
Encoding settings : cabac=1 / ref=5 / deblock=1:-1:-1 / analyse=0x3:0x133 / me=umh / subme=9 / psy=1 / psy_rd=1.00:0.00 / mixed_ref=1 / me_range=24 / chroma_me=1 / trellis=1 / 8x8dct=1 / cqm=0 / deadzone=21,11 / fast_pskip=1 / chroma_qp_offset=-2 / threads=6 / lookahead_threads=1 / sliced_threads=0 / nr=0 / decimate=1 / interlaced=0 / bluray_compat=0 / constrained_intra=0 / bframes=16 / b_pyramid=2 / b_adapt=2 / b_bias=0 / direct=3 / weightb=1 / open_gop=0 / weightp=2 / keyint=300 / keyint_min=29 / scenecut=40 / intra_refresh=0 / rc_lookahead=60 / rc=crf / mbtree=1 / crf=18.0 / qcomp=0.60 / qpmin=0 / qpmax=69 / qpstep=4 / ip_ratio=1.40 / aq=1:1.00
Audio
ID : 2
Format : MPEG Audio
Format version : Version 1
Format profile : Layer 3
Mode : Joint stereo
Mode extension : MS Stereo
Codec ID : A_MPEG/L3
Codec ID/Hint : MP3
Duration : 3mn 23s
Bit rate mode : Variable
Bit rate : 241 Kbps
Minimum bit rate : 32.0 Kbps
Channel(s) : 2 channels
Sampling rate : 44.1 KHz
Compression mode : Lossy
Stream size : 5.84 MiB (8%)
Writing library : LAME3.98r
Encoding settings : -m j -V 0 -q 0 -lowpass 19.5 --vbr-new -b 32
Download / Скачать

Хотите скачать бесплатно? Зарегистрируйтесь на сайте (ссылка на регистрацию). Pirat.ca - самый быстрый торрент трекер в рунете!

Как скачивать  ·   Что такое торрент  ·   Рейтинг и ограничения

BilG

Корсар

Пост 31-Мар-2017 22:42 (спустя 1 месяц 9 дней)

[Q] 

Спасибо!!! Супер!

_________________
[Профиль]  [ЛС] 
Показать сообщения:    
Ответить на тему

Текущее время: Сегодня 03:31

Часовой пояс: GMT + 4



Вы не можете начинать темы
Вы не можете отвечать на сообщения
Вы не можете редактировать свои сообщения
Вы не можете удалять свои сообщения
Вы не можете голосовать в опросах
Вы не можете прикреплять файлы к сообщениям
Вы не можете скачивать файлы

▼ Вниз