Rammstein - Hellfest Open Air - Du Riescht So Gut [2016 г.] (Neue Deutsche Härte, Industrial Metal, Heavy Metal) [TVRip, 720p]

Ответить на тему
 
Автор
Сообщение

Пост 19-Авг-2016 19:47

[Q] 

Дядя Вова

Гроза морей

-Rammstein - Hellfest Open Air - Du Riescht So Gut-- Год выпуска: 2016 г.
Страна: Berlin, Germany
Жанр: Neue Deutsche Härte, Industrial Metal, Heavy Metal
Продолжительность: 00:05:10-Качество видео: TVRip
Контейнер: MKV
Стандарт разрешения: 720p
Видео кодек: MPEG4 AVC
Аудио кодек: AC3
Видео: : 1 272 pixels x 720 pixels : 9 087 Kbps : 50.000 fps :
Аудио: : 448 Kbps : 6 channels Front: L C R, Side: L R, LFE : 48.0 KHz :-
General
UniqueID : 190796221309929176636583938063281934213 (0x8F8A03FDAF4E3FA7AB70E6FA942FCF85)
Complete name : G:\Rammstein-Hellfest_Open_Air_(2016)-DE-720p-x264-2016-SRP\03-rammstein-du_riescht_so_gut.mkv
Format : Matroska
File size : 360 MiB
Duration : 5mn 10s
Overall bit rate : 9 729 Kbps
Encoded date : UTC 2016-08-09 15:17:13
Writing application : mkvmerge v9.2.0 ('Photograph') 64bit
Writing library : libebml v1.3.3 + libmatroska v1.4.4
Video
ID : 1
Format : AVC
Format/Info : Advanced Video Codec
Format profile : [email protected]
Format settings, CABAC : Yes
Format settings, ReFrames : 5 frames
Codec ID : V_MPEG4/ISO/AVC
Duration : 5mn 10s
Bit rate : 9 087 Kbps
Width : 1 272 pixels
Height : 720 pixels
Display aspect ratio : 16:9
Frame rate : 50.000 fps
Color space : YUV
Chroma subsampling : 4:2:0
Bit depth : 8 bits
Scan type : Progressive
Bits/(Pixel*Frame) : 0.198
Stream size : 336 MiB (93%)
Writing library : x264 core 148 r2705 3f5ed56
Encoding settings : cabac=1 / ref=5 / deblock=1:-1:-1 / analyse=0x3:0x133 / me=umh / subme=9 / psy=1 / psy_rd=1.00:0.00 / mixed_ref=1 / me_range=24 / chroma_me=1 / trellis=1 / 8x8dct=1 / cqm=0 / deadzone=21,11 / fast_pskip=0 / chroma_qp_offset=-2 / threads=12 / lookahead_threads=3 / sliced_threads=0 / nr=0 / decimate=1 / interlaced=0 / bluray_compat=0 / constrained_intra=0 / bframes=16 / b_pyramid=2 / b_adapt=2 / b_bias=0 / direct=3 / weightb=1 / open_gop=0 / weightp=2 / keyint=500 / keyint_min=50 / scenecut=40 / intra_refresh=0 / rc_lookahead=60 / rc=crf / mbtree=1 / crf=16.0 / qcomp=0.60 / qpmin=0 / qpmax=69 / qpstep=4 / ip_ratio=1.40 / aq=1:1.00
Language : English
Audio
ID : 2
Format : AC-3
Format/Info : Audio Coding 3
Mode extension : CM (complete main)
Codec ID : A_AC3
Duration : 5mn 10s
Bit rate mode : Constant
Bit rate : 448 Kbps
Channel(s) : 6 channels
Channel positions : Front: L C R, Side: L R, LFE
Sampling rate : 48.0 KHz
Bit depth : 16 bits
Compression mode : Lossy
Video delay : 12ms
Stream size : 16.6 MiB (5%)
-
--Работаю не за Спасибо , а за ИДЕЮ.--
Download / Скачать

Хотите скачать бесплатно? Зарегистрируйтесь на сайте (ссылка на регистрацию). Pirat.ca - самый быстрый торрент трекер в рунете!

Как скачивать  ·   Что такое торрент  ·   Рейтинг и ограничения

pkurg

Штурман

Пост 20-Авг-2016 19:22 (спустя 23 часа)

[Q] 

https://www.youtube.com/watch?v=mqGAokNRFI8
[Профиль]  [ЛС] 

BilG

Флибустьер

Пост 31-Мар-2017 23:12 (спустя 7 месяцев 11 дней)

[Q] 

Вы лучшие!

_________________
[Профиль]  [ЛС] 
Показать сообщения:    
Ответить на тему

Текущее время: Сегодня 03:14

Часовой пояс: GMT + 4



Вы не можете начинать темы
Вы не можете отвечать на сообщения
Вы не можете редактировать свои сообщения
Вы не можете удалять свои сообщения
Вы не можете голосовать в опросах
Вы не можете прикреплять файлы к сообщениям
Вы не можете скачивать файлы

Майнать ▼