(Soul, Reggae / Electronic, Funk) Supermax - The Box (10 CD) - 2009 [FLAC, image+.cue, lossless]

Ответить на тему
 
Автор
Сообщение

Пост 20-Мар-2017 19:04

[Q] 

Борей_64

Корсар

-Supermax / The Box (10 CD)-- Год издания: 2009
Жанр: Soul, Reggae / Electronic, Funk
Стиль: Reggae, House, Dub, Soul, Disco, Downtempo, Synth-pop, Funk-Страна-выпуска диска: Universal Music (Austria)
Формат: FLAC
Битрейт аудио: lossless
Тип рипа: image+.cue
Время звучания : 09:45:24
Наличие сканов в содержимом раздачи: да-Notes: Box Set released to celebrate the 60th birthday of Supermax leader Kurt Hauenstein in 2009. Limited to 1.000 signed and numbered copies. Includes a signed and numbered picture and a 24 page booklet. Each CD comes with a booklet containing the lyrics.-
Курт ХАУНСТЕЙН родился в Вене и еще в юности увлекся музыкой. Однако, поняв, что в Австрии особого успеха на этом поприще не добьешься, он решил перебраться в Германию. Там Курт познакомился с Фрэнком ФАРИАНОМ, продюсером BONEY M, и какое-то время поработал с ним. Также ХАУНСТЕЙН участвовал в различных танцевальных и фанк-проектах. Особенно ему нравились выступления с чернокожими музыкантами, от которых он впитывал энергетику для своего будущего проекта. В 1976 году Курт основал SUPERMAX, и в том же году вышла первая пластинка «Don’t Stop The Music». ХАУНСТЕЙН соединил вместе соул, фанк, джаз, рэгги и африканские ритмы, а также интересное пульсирующее роковое звучание, которое сразу же стало отличительной особенностью SUPERMAX.
В 1977 году появился второй альбом группы «World of Today». С его выходом популярность «Supermax» резко возрасла, в основном благодаря хиту «Love Machine». Для самого Курта это оказалось очень неожиданным, поскольку он делал музыку в основном для себя, и его не очень-то привлекали концертные выступления. Поэтому он ограничил свое общение с журналистами, стараясь не давать никаких интервью. ХАУНСТЕЙН был вообще довольно упрямым человеком, и когда все ждали, что SUPERMAX будет штамповать коммерческие альбомы, он выпустил рассчитанный не на массового слушателя диск «Meets the Almighty», в котором отразил свои личные переживания.
SUPERMAX — pедкий экземпляр из категории «экзотических» ДИСКО групп. Фирменное блюдо ансамбля не менее причудливо: это весьма удачное смешение таких разных направлений, как диско, поп, джаз и арт-рок. Разные альбомы несут в себе различную же концентрацию той или иной составляющей, хотя все они весьма интересны, в первую очередь, очень необычным и оригинальным подходом к развитию рок-музыки. Группа имеет культовый статус на всей территории России и СНГ, а ее популярность на наших просторах сродни THE BEATLES, DEEP PURPLE и PINK FLOYD.
SUPERMAX — это пример «обратного» движения от диско к поп-музыке, поиска новых форм и стремления создавать подлинное искусство.
Треклист :
01. Don't Stop The Music (3:48)
02. Lovemachine (7:40)
03. It Ain't Easy (4:20)
04. Electricity (3:52)
05. Fly With Me (3:48)
06. Bodyheat (8:01)
07. Never Gonna Give (6:00)
08. Kick The Nation (6:57)
09. Gotta Be Funky (6:07)
Код:
Exact Audio Copy V0.99 prebeta 3 from 28. July 2007
EAC extraction logfile from 28. March 2009, 14:03
Supermax / Rhythm Of Soul 1
Used drive : TSSTcorpCDDVDW SH-S203B Adapter: 7 ID: 0
Read mode : Secure
Utilize accurate stream : Yes
Defeat audio cache : Yes
Make use of C2 pointers : No
Read offset correction : 6
Overread into Lead-In and Lead-Out : No
Fill up missing offset samples with silence : Yes
Delete leading and trailing silent blocks : No
Null samples used in CRC calculations : Yes
Used interface : Installed external ASPI interface
Used output format : User Defined Encoder
Selected bitrate : 1024 kBit/s
Quality : High
Add ID3 tag : No
Command line compressor : C:\Program Files\FLAC\flac.exe
Additional command line options : -8 -V -T "ARTIST=%a" -T "TITLE=%t" -T "ALBUM=%g" -T "DATE=%y" -T "TRACKNUMBER=%n" -T "GENRE=%m" -T "COMMENT=%e" %s -o %d
Use compression offset : 48
TOC of the extracted CD
Track | Start | Length | Start sector | End sector
---------------------------------------------------------
1 | 0:00.00 | 3:48.46 | 0 | 17145
2 | 3:48.46 | 7:40.62 | 17146 | 51707
3 | 11:29.33 | 4:20.25 | 51708 | 71232
4 | 15:49.58 | 3:52.17 | 71233 | 88649
5 | 19:42.00 | 3:48.28 | 88650 | 105777
6 | 23:30.28 | 8:01.32 | 105778 | 141884
7 | 31:31.60 | 6:00.66 | 141885 | 168950
8 | 37:32.51 | 6:57.34 | 168951 | 200259
9 | 44:30.10 | 6:07.16 | 200260 | 227800
Range status and errors
Selected range
Filename T:\CD\Supermax - The Box\Supermax - Rhythm Of Soul 1\Supermax - Rhythm Of Soul 1.wav
Peak level 98.8 %
Range quality 100.0 %
Copy CRC 89B7F284
Copy OK
No errors occurred
AccurateRip summary
Track 1 not present in database
Track 2 not present in database
Track 3 not present in database
Track 4 not present in database
Track 5 not present in database
Track 6 not present in database
Track 7 not present in database
Track 8 not present in database
Track 9 not present in database
None of the tracks are present in the AccurateRip database
End of status report
Код:
REM GENRE Pop
REM DATE 2009
REM DISCID 6F0BDD09
REM COMMENT "ExactAudioCopy v0.99pb3"
CATALOG 0602517741034
PERFORMER "Supermax"
TITLE "Rhythm Of Soul 1"
FILE "Supermax - Rhythm Of Soul 1.flac" WAVE
  TRACK 01 AUDIO
    TITLE "Don't Stop The Music"
    PERFORMER "Supermax"
    ISRC ;S5M70800358
    INDEX 01 00:00:00
  TRACK 02 AUDIO
    TITLE "Lovemachine"
    PERFORMER "Supermax"
    ISRC ;S5M70800360
    INDEX 00 03:46:46
    INDEX 01 03:48:46
  TRACK 03 AUDIO
    TITLE "It Ain't Easy"
    PERFORMER "Supermax"
    ISRC ;S5M70800363
    INDEX 00 11:28:29
    INDEX 01 11:29:33
  TRACK 04 AUDIO
    TITLE "Electricity"
    PERFORMER "Supermax"
    ISRC ;S5M70800366
    INDEX 00 15:49:38
    INDEX 01 15:49:58
  TRACK 05 AUDIO
    TITLE "Fly With Me"
    PERFORMER "Supermax"
    ISRC ;S5M70800362
    INDEX 00 19:40:35
    INDEX 01 19:42:00
  TRACK 06 AUDIO
    TITLE "Bodyheat"
    PERFORMER "Supermax"
    ISRC ;S5M70800590
    INDEX 00 23:28:29
    INDEX 01 23:30:28
  TRACK 07 AUDIO
    TITLE "Never Gonna Give"
    PERFORMER "Supermax"
    ISRC ;S5M70800591
    INDEX 00 31:29:61
    INDEX 01 31:31:60
  TRACK 08 AUDIO
    TITLE "Kick The Nation"
    PERFORMER "Supermax"
    ISRC ;S5M70800592
    INDEX 00 37:30:52
    INDEX 01 37:32:51
  TRACK 09 AUDIO
    TITLE "Gotta Be Funky"
    PERFORMER "Supermax"
    ISRC ;S5M70800593
    INDEX 00 44:28:11
    INDEX 01 44:30:10
Код:
-----------------------
DON'T MODIFY THIS FILE
-----------------------
PERFORMER: auCDtect Task Manager, ver. 1.6.0 RC1 build 1.6.0.1
Copyright (c) 2008-2010 y-soft. All rights reserved
http://y-soft.org
ANALYZER: auCDtect: CD records authenticity detector, version 0.8.2
Copyright (c) 2004 Oleg Berngardt. All rights reserved.
Copyright (c) 2004 Alexander Djourik. All rights reserved.
FILE: Supermax - Rhythm Of Soul 1.flac
  Size: 372151294 Hash: 192ECA306CCAA46901A0D54919DEF006 Accuracy: -m0
  Conclusion: CDDA 100%
  Signature: D183315EC79E0B2DAA344B6BA336FA90E0146B24
01. Take Me Somewhere (6:16)
02. Don't Stop The Funk (4:19)
03. Cuckoo Nation (5:00)
04. Final Song (4:07)
05. We've Got The Rhythm (4:42)
06. Just A Little Bit More (4:42)
07. I Want You (4:33)
08. Take Me Higher (3:47)
09. Alassio (4:47)
10. Mr. B (5:14) Featuring - Brad Howell
Код:
Exact Audio Copy V0.99 prebeta 3 from 28. July 2007
EAC extraction logfile from 28. March 2009, 14:27
Supermax / Rhythm Of Soul 2
Used drive : TSSTcorpCDDVDW SH-S203B Adapter: 7 ID: 0
Read mode : Secure
Utilize accurate stream : Yes
Defeat audio cache : Yes
Make use of C2 pointers : No
Read offset correction : 6
Overread into Lead-In and Lead-Out : No
Fill up missing offset samples with silence : Yes
Delete leading and trailing silent blocks : No
Null samples used in CRC calculations : Yes
Used interface : Installed external ASPI interface
Used output format : User Defined Encoder
Selected bitrate : 1024 kBit/s
Quality : High
Add ID3 tag : No
Command line compressor : C:\Program Files\FLAC\flac.exe
Additional command line options : -8 -V -T "ARTIST=%a" -T "TITLE=%t" -T "ALBUM=%g" -T "DATE=%y" -T "TRACKNUMBER=%n" -T "GENRE=%m" -T "COMMENT=%e" %s -o %d
Use compression offset : 48
TOC of the extracted CD
Track | Start | Length | Start sector | End sector
---------------------------------------------------------
1 | 0:00.00 | 6:16.11 | 0 | 28210
2 | 6:16.11 | 4:19.01 | 28211 | 47636
3 | 10:35.12 | 5:00.64 | 47637 | 70200
4 | 15:36.01 | 4:07.24 | 70201 | 88749
5 | 19:43.25 | 4:42.20 | 88750 | 109919
6 | 24:25.45 | 4:42.10 | 109920 | 131079
7 | 29:07.55 | 4:33.69 | 131080 | 151623
8 | 33:41.49 | 3:47.69 | 151624 | 168717
9 | 37:29.43 | 4:47.53 | 168718 | 190295
10 | 42:17.21 | 5:14.63 | 190296 | 213908
Range status and errors
Selected range
Filename T:\CD\Supermax - The Box\Supermax - Rhythm Of Soul 2\Supermax - Rhythm Of Soul 2.wav
Peak level 98.7 %
Range quality 99.9 %
Copy CRC 975198FA
Copy OK
No errors occurred
AccurateRip summary
Track 1 not present in database
Track 2 not present in database
Track 3 not present in database
Track 4 not present in database
Track 5 not present in database
Track 6 not present in database
Track 7 not present in database
Track 8 not present in database
Track 9 not present in database
Track 10 not present in database
None of the tracks are present in the AccurateRip database
End of status report
Код:
REM GENRE Pop
REM DATE 2009
REM DISCID 920B240A
REM COMMENT "ExactAudioCopy v0.99pb3"
CATALOG 0602517741072
PERFORMER "Supermax"
TITLE "Rhythm Of Soul 2"
FILE "Supermax - Rhythm Of Soul 2.flac" WAVE
  TRACK 01 AUDIO
    TITLE "Take Me Somewhere"
    PERFORMER "Supermax"
    ISRC ;S5M70800594
    INDEX 01 00:00:00
  TRACK 02 AUDIO
    TITLE "Don't Stop The Funk"
    PERFORMER "Supermax"
    ISRC ;S5M70800595
    INDEX 00 06:15:49
    INDEX 01 06:16:11
  TRACK 03 AUDIO
    TITLE "Cuckoo Nation"
    PERFORMER "Supermax"
    ISRC ;S5M70800596
    INDEX 00 10:33:52
    INDEX 01 10:35:12
  TRACK 04 AUDIO
    TITLE "Final Song"
    PERFORMER "Supermax"
    ISRC ;S5M70800597
    INDEX 00 15:34:56
    INDEX 01 15:36:01
  TRACK 05 AUDIO
    TITLE "We've Got The Rhythm"
    PERFORMER "Supermax"
    ISRC ;S5M70800598
    INDEX 00 19:42:35
    INDEX 01 19:43:25
  TRACK 06 AUDIO
    TITLE "Just A Little Bit More"
    PERFORMER "Supermax"
    ISRC ;S5M70800599
    INDEX 00 24:24:50
    INDEX 01 24:25:45
  TRACK 07 AUDIO
    TITLE "I Want You"
    PERFORMER "Supermax"
    ISRC ;S5M70800600
    INDEX 00 29:06:01
    INDEX 01 29:07:55
  TRACK 08 AUDIO
    TITLE "Take Me Higher"
    PERFORMER "Supermax"
    ISRC ;S5M70800601
    INDEX 00 33:40:19
    INDEX 01 33:41:49
  TRACK 09 AUDIO
    TITLE "Alassio"
    PERFORMER "Supermax"
    ISRC ;S5M70800602
    INDEX 00 37:28:09
    INDEX 01 37:29:43
  TRACK 10 AUDIO
    TITLE "Mr.B Feat. Brad Howell"
    PERFORMER "Supermax"
    ISRC ;S5M70800603
    INDEX 00 42:16:26
    INDEX 01 42:17:21
Код:
-----------------------
DON'T MODIFY THIS FILE
-----------------------
PERFORMER: auCDtect Task Manager, ver. 1.6.0 RC1 build 1.6.0.1
Copyright (c) 2008-2010 y-soft. All rights reserved
http://y-soft.org
ANALYZER: auCDtect: CD records authenticity detector, version 0.8.2
Copyright (c) 2004 Oleg Berngardt. All rights reserved.
Copyright (c) 2004 Alexander Djourik. All rights reserved.
FILE: Supermax - Rhythm Of Soul 2.flac
  Size: 350654863 Hash: C6123030BD845C0D9A58860E95873F06 Accuracy: -m0
  Conclusion: CDDA 100%
  Signature: 4EDC5CFAD36506484E0705A2163AC49833FFD334
01. Camillo (4:03)
02. Don't Let Me Down (5:52)
03. Warriors (4:25)
04. Reggaesizer (5:07)
05. So I (4:18)
06. Dreadlock Generation (4:57)
07. Dig This ***** (4:40)
08. Shine On Me (3:52)
09. Smoke Is Up (3:23)
Код:
Exact Audio Copy V0.99 prebeta 3 from 28. July 2007
EAC extraction logfile from 28. March 2009, 14:37
Supermax / Reggasize It 1
Used drive : TSSTcorpCDDVDW SH-S203B Adapter: 7 ID: 0
Read mode : Secure
Utilize accurate stream : Yes
Defeat audio cache : Yes
Make use of C2 pointers : No
Read offset correction : 6
Overread into Lead-In and Lead-Out : No
Fill up missing offset samples with silence : Yes
Delete leading and trailing silent blocks : No
Null samples used in CRC calculations : Yes
Used interface : Installed external ASPI interface
Used output format : User Defined Encoder
Selected bitrate : 1024 kBit/s
Quality : High
Add ID3 tag : No
Command line compressor : C:\Program Files\FLAC\flac.exe
Additional command line options : -8 -V -T "ARTIST=%a" -T "TITLE=%t" -T "ALBUM=%g" -T "DATE=%y" -T "TRACKNUMBER=%n" -T "GENRE=%m" -T "COMMENT=%e" %s -o %d
Use compression offset : 48
TOC of the extracted CD
Track | Start | Length | Start sector | End sector
---------------------------------------------------------
1 | 0:00.00 | 4:02.34 | 0 | 18183
2 | 4:02.34 | 5:53.17 | 18184 | 44675
3 | 9:55.51 | 4:25.56 | 44676 | 64606
4 | 14:21.32 | 5:06.06 | 64607 | 87562
5 | 19:27.38 | 4:17.11 | 87563 | 106848
6 | 23:44.49 | 4:57.22 | 106849 | 129145
7 | 28:41.71 | 4:40.32 | 129146 | 150177
8 | 33:22.28 | 3:52.37 | 150178 | 167614
9 | 37:14.65 | 3:23.19 | 167615 | 182858
Range status and errors
Selected range
Filename T:\CD\Supermax - The Box\Supermax - Reggasize It 1\Supermax - Reggasize It 1.wav
Peak level 100.0 %
Range quality 100.0 %
Copy CRC 8FC71C16
Copy OK
No errors occurred
AccurateRip summary
Track 1 not present in database
Track 2 not present in database
Track 3 not present in database
Track 4 not present in database
Track 5 not present in database
Track 6 not present in database
Track 7 not present in database
Track 8 not present in database
Track 9 not present in database
None of the tracks are present in the AccurateRip database
End of status report
Код:
REM GENRE Pop
REM DATE 2009
REM DISCID 70098609
REM COMMENT "ExactAudioCopy v0.99pb3"
CATALOG 0602517740983
PERFORMER "Supermax"
TITLE "Reggaesize It 1"
FILE "Supermax - Reggaesize It 1.flac" WAVE
  TRACK 01 AUDIO
    TITLE "Camillo"
    PERFORMER "Supermax"
    ISRC ;S5M70800361
    INDEX 01 00:00:00
  TRACK 02 AUDIO
    TITLE "Don't Let Me Down"
    PERFORMER "Supermax"
    ISRC ;S5M70800566
    INDEX 00 04:00:35
    INDEX 01 04:02:34
  TRACK 03 AUDIO
    TITLE "Warriors"
    PERFORMER "Supermax"
    ISRC ;S5M70800567
    INDEX 00 09:53:13
    INDEX 01 09:55:51
  TRACK 04 AUDIO
    TITLE "Reggaesizer"
    PERFORMER "Supermax"
    ISRC ;S5M70800369
    INDEX 00 14:19:33
    INDEX 01 14:21:32
  TRACK 05 AUDIO
    TITLE "So I"
    PERFORMER "Supermax"
    ISRC ;S5M70800568
    INDEX 00 19:25:39
    INDEX 01 19:27:38
  TRACK 06 AUDIO
    TITLE "Dreadlock Generation"
    PERFORMER "Supermax"
    ISRC ;S5M70800569
    INDEX 00 23:43:67
    INDEX 01 23:44:49
  TRACK 07 AUDIO
    TITLE "Dig This *****"
    PERFORMER "Supermax"
    ISRC ;S5M70800570
    INDEX 00 28:40:21
    INDEX 01 28:41:71
  TRACK 08 AUDIO
    TITLE "Shine On Me"
    PERFORMER "Supermax"
    ISRC ;S5M70800376
    INDEX 00 33:20:54
    INDEX 01 33:22:28
  TRACK 09 AUDIO
    TITLE "Smoke Is Up"
    PERFORMER "Supermax"
    ISRC ;S5M70800571
    INDEX 00 37:13:69
    INDEX 01 37:14:65
Код:
-----------------------
DON'T MODIFY THIS FILE
-----------------------
PERFORMER: auCDtect Task Manager, ver. 1.6.0 RC1 build 1.6.0.1
Copyright (c) 2008-2010 y-soft. All rights reserved
http://y-soft.org
ANALYZER: auCDtect: CD records authenticity detector, version 0.8.2
Copyright (c) 2004 Oleg Berngardt. All rights reserved.
Copyright (c) 2004 Alexander Djourik. All rights reserved.
FILE: Supermax - Reggaesize It 1.flac
  Size: 288329767 Hash: 037D9A81DF29E46F8A5CF14F67CE8A49 Accuracy: -m0
  Conclusion: CDDA 100%
  Signature: FA1CC236E686F1AFE4F11278D229427EAC645E19
01. One & All (4:05)
02. U The One (4:00)
03. Good Times (4:44)
04. Heaven Of Music (4:43)
05. Dubbrass (4:56)
06. Reggae Fever (3:32)
07. Superdub (4:22)
08. Max 96 (6:15)
Код:
Exact Audio Copy V0.99 prebeta 3 from 28. July 2007
EAC extraction logfile from 28. March 2009, 14:55
Supermax / Reggaesize It 2
Used drive : TSSTcorpCDDVDW SH-S203B Adapter: 7 ID: 0
Read mode : Secure
Utilize accurate stream : Yes
Defeat audio cache : Yes
Make use of C2 pointers : No
Read offset correction : 6
Overread into Lead-In and Lead-Out : No
Fill up missing offset samples with silence : Yes
Delete leading and trailing silent blocks : No
Null samples used in CRC calculations : Yes
Used interface : Installed external ASPI interface
Used output format : User Defined Encoder
Selected bitrate : 1024 kBit/s
Quality : High
Add ID3 tag : No
Command line compressor : C:\Program Files\FLAC\flac.exe
Additional command line options : -8 -V -T "ARTIST=%a" -T "TITLE=%t" -T "ALBUM=%g" -T "DATE=%y" -T "TRACKNUMBER=%n" -T "GENRE=%m" -T "COMMENT=%e" %s -o %d
Use compression offset : 48
TOC of the extracted CD
Track | Start | Length | Start sector | End sector
---------------------------------------------------------
1 | 0:00.00 | 4:05.06 | 0 | 18380
2 | 4:05.06 | 4:00.55 | 18381 | 36435
3 | 8:05.61 | 4:44.49 | 36436 | 57784
4 | 12:50.35 | 4:43.63 | 57785 | 79072
5 | 17:34.23 | 4:56.42 | 79073 | 101314
6 | 22:30.65 | 3:32.07 | 101315 | 117221
7 | 26:02.72 | 4:23.31 | 117222 | 136977
8 | 30:26.28 | 6:15.37 | 136978 | 165139
Range status and errors
Selected range
Filename T:\CD\Supermax - The Box\Supermax - Reggaesize It 2\Supermax - Reggaesize It 2.wav
Peak level 99.9 %
Range quality 100.0 %
Copy CRC 99D2AC7E
Copy OK
No errors occurred
AccurateRip summary
Track 1 not present in database
Track 2 not present in database
Track 3 not present in database
Track 4 not present in database
Track 5 not present in database
Track 6 not present in database
Track 7 not present in database
Track 8 not present in database
None of the tracks are present in the AccurateRip database
End of status report
Код:
REM GENRE Pop
REM DATE 2009
REM DISCID 6C089908
REM COMMENT "ExactAudioCopy v0.99pb3"
CATALOG 0602517958944
PERFORMER "Supermax"
TITLE "Reggaesize It 2"
FILE "Supermax - Reggaesize It 2.flac" WAVE
  TRACK 01 AUDIO
    TITLE "One & All"
    PERFORMER "Supermax"
    ISRC ;S5M70800572
    FLAGS DCP
    INDEX 01 00:00:00
  TRACK 02 AUDIO
    TITLE "U the One"
    PERFORMER "Supermax"
    ISRC ;S5M70800573
    FLAGS DCP
    INDEX 01 04:05:06
  TRACK 03 AUDIO
    TITLE "Good Times"
    PERFORMER "Supermax"
    ISRC ;S5M70800574
    FLAGS DCP
    INDEX 01 08:05:61
  TRACK 04 AUDIO
    TITLE "Heaven Of Music"
    PERFORMER "Supermax"
    ISRC ;S5M70800575
    FLAGS DCP
    INDEX 01 12:50:35
  TRACK 05 AUDIO
    TITLE "Dubbrass"
    PERFORMER "Supermax"
    ISRC ;S5M70800576
    FLAGS DCP
    INDEX 01 17:34:23
  TRACK 06 AUDIO
    TITLE "Reggae Fever"
    PERFORMER "Supermax"
    ISRC ;S5M70800577
    FLAGS DCP
    INDEX 01 22:30:65
  TRACK 07 AUDIO
    TITLE "Superdub"
    PERFORMER "Supermax"
    ISRC ;S5M70800578
    FLAGS DCP
    INDEX 01 26:02:72
  TRACK 08 AUDIO
    TITLE "Max 96"
    PERFORMER "Supermax"
    ISRC ;S5M70800626
    FLAGS DCP
    INDEX 01 30:26:28
Код:
-----------------------
DON'T MODIFY THIS FILE
-----------------------
PERFORMER: auCDtect Task Manager, ver. 1.6.0 RC1 build 1.6.0.1
Copyright (c) 2008-2010 y-soft. All rights reserved
http://y-soft.org
ANALYZER: auCDtect: CD records authenticity detector, version 0.8.2
Copyright (c) 2004 Oleg Berngardt. All rights reserved.
Copyright (c) 2004 Alexander Djourik. All rights reserved.
FILE: Supermax - Reggaesize It 2.flac
  Size: 261444428 Hash: 79C65521F24267EBD32399BC3274FBCE Accuracy: -m0
  Conclusion: CDDA 100%
  Signature: 42A652AD96A3EF9F7D37102D66023CE681C6EE54
01. Living In A World (5:45)
02. Vision (5:28)
03. World Of Today (4:22)
04. Save The World (4:02)
05. 20 Million Years Away (4:39)
06. Scream Of A Butterfly (4:40)
07. Immigrations (5:55)
08. People From The Other Side (3:50)
09. We Are The People (4:39)
10. Hara Hara (5:54)
11. World Of Today 2001 (3:44)
Код:
Exact Audio Copy V0.99 prebeta 3 from 28. July 2007
EAC extraction logfile from 28. March 2009, 15:19
Supermax / Save The World
Used drive : TSSTcorpCDDVDW SH-S203B Adapter: 7 ID: 0
Read mode : Secure
Utilize accurate stream : Yes
Defeat audio cache : Yes
Make use of C2 pointers : No
Read offset correction : 6
Overread into Lead-In and Lead-Out : No
Fill up missing offset samples with silence : Yes
Delete leading and trailing silent blocks : No
Null samples used in CRC calculations : Yes
Used interface : Installed external ASPI interface
Used output format : User Defined Encoder
Selected bitrate : 1024 kBit/s
Quality : High
Add ID3 tag : No
Command line compressor : C:\Program Files\FLAC\flac.exe
Additional command line options : -8 -V -T "ARTIST=%a" -T "TITLE=%t" -T "ALBUM=%g" -T "DATE=%y" -T "TRACKNUMBER=%n" -T "GENRE=%m" -T "COMMENT=%e" %s -o %d
Use compression offset : 48
TOC of the extracted CD
Track | Start | Length | Start sector | End sector
---------------------------------------------------------
1 | 0:00.00 | 5:45.13 | 0 | 25887
2 | 5:45.13 | 5:28.11 | 25888 | 50498
3 | 11:13.24 | 4:22.44 | 50499 | 70192
4 | 15:35.68 | 4:02.63 | 70193 | 88405
5 | 19:38.56 | 4:39.38 | 88406 | 109368
6 | 24:18.19 | 4:40.56 | 109369 | 130424
7 | 28:59.00 | 5:55.50 | 130425 | 157099
8 | 34:54.50 | 3:50.72 | 157100 | 174421
9 | 38:45.47 | 4:39.51 | 174422 | 195397
10 | 43:25.23 | 5:54.17 | 195398 | 221964
11 | 49:19.40 | 3:44.47 | 221965 | 238811
Range status and errors
Selected range
Filename T:\CD\Supermax - The Box\Supermax - Save The World\Supermax - Save The World.wav
Peak level 100.0 %
Range quality 99.9 %
Copy CRC DEFC9ADE
Copy OK
No errors occurred
AccurateRip summary
Track 1 not present in database
Track 2 not present in database
Track 3 not present in database
Track 4 not present in database
Track 5 not present in database
Track 6 not present in database
Track 7 not present in database
Track 8 not present in database
Track 9 not present in database
Track 10 not present in database
Track 11 not present in database
None of the tracks are present in the AccurateRip database
End of status report
Код:
REM GENRE Pop
REM DATE 2009
REM DISCID 970C700B
REM COMMENT "ExactAudioCopy v0.99pb3"
CATALOG 0602517741218
PERFORMER "Supermax"
TITLE "Save The World"
FILE "Supermax - Save The World.flac" WAVE
  TRACK 01 AUDIO
    TITLE "Living In A World"
    PERFORMER "Supermax"
    ISRC ;S5M70800371
    INDEX 01 00:00:00
  TRACK 02 AUDIO
    TITLE "Vision"
    PERFORMER "Supermax"
    ISRC ;S5M70800372
    INDEX 00 05:43:14
    INDEX 01 05:45:13
  TRACK 03 AUDIO
    TITLE "World Of Today"
    PERFORMER "Supermax"
    ISRC ;S5M70800359
    INDEX 00 11:12:72
    INDEX 01 11:13:24
  TRACK 04 AUDIO
    TITLE "Save The World"
    PERFORMER "Supermax"
    ISRC ;S5M70800627
    INDEX 00 15:33:69
    INDEX 01 15:35:68
  TRACK 05 AUDIO
    TITLE "20 Million Years Away"
    PERFORMER "Supermax"
    ISRC ;S5M70800628
    INDEX 00 19:36:57
    INDEX 01 19:38:56
  TRACK 06 AUDIO
    TITLE "Scream Of A Butterfly"
    PERFORMER "Supermax"
    ISRC ;S5M70800370
    INDEX 00 24:16:69
    INDEX 01 24:18:19
  TRACK 07 AUDIO
    TITLE "Immigrations"
    PERFORMER "Supermax"
    ISRC ;S5M70800629
    INDEX 00 28:57:33
    INDEX 01 28:59:00
  TRACK 08 AUDIO
    TITLE "People From The Other Side"
    PERFORMER "Supermax"
    ISRC ;S5M70800630
    INDEX 00 34:52:49
    INDEX 01 34:54:50
  TRACK 09 AUDIO
    TITLE "We Are The People"
    PERFORMER "Supermax"
    ISRC ;S5M70800631
    INDEX 00 38:45:32
    INDEX 01 38:45:47
  TRACK 10 AUDIO
    TITLE "Hara Hara"
    PERFORMER "Supermax"
    ISRC ;S5M70800632
    INDEX 00 43:24:46
    INDEX 01 43:25:23
  TRACK 11 AUDIO
    TITLE "World Of Today 2001"
    PERFORMER "Supermax"
    ISRC ;S5M70800633
    INDEX 00 49:18:09
    INDEX 01 49:19:40
Код:
-----------------------
DON'T MODIFY THIS FILE
-----------------------
PERFORMER: auCDtect Task Manager, ver. 1.6.0 RC1 build 1.6.0.1
Copyright (c) 2008-2010 y-soft. All rights reserved
http://y-soft.org
ANALYZER: auCDtect: CD records authenticity detector, version 0.8.2
Copyright (c) 2004 Oleg Berngardt. All rights reserved.
Copyright (c) 2004 Alexander Djourik. All rights reserved.
FILE: Supermax - Save The World.flac
  Size: 376388274 Hash: CD5EEBF57D545802EEC503150499645A Accuracy: -m0
  Conclusion: CDDA 100%
  Signature: 8CFA87A63D39A60BA76542B9982511EA6BD84B17
01. Going Back Home (5:02)
02. African Blood (4:26)
03. Bango Bongo (6:26)
04. Salongo (4:14)
05. Jungle Dance (3:44)
06. Purple People (4:09)
07. Voodoo-Dance (6:56)
08. Watch Out South Africa (3:38)
09. Red Dust (4:58)
10. Oi Dibango (6:57)
11. Jungle People (4:39)
12. Somewhere In Africa (2:25)
Код:
Exact Audio Copy V0.99 prebeta 3 from 28. July 2007
EAC extraction logfile from 28. March 2009, 15:42
Supermax / Spirits Of Africa
Used drive  : TSSTcorpCDDVDW SH-S203B   Adapter: 7  ID: 0
Read mode               : Secure
Utilize accurate stream : Yes
Defeat audio cache      : Yes
Make use of C2 pointers : No
Read offset correction                      : 6
Overread into Lead-In and Lead-Out          : No
Fill up missing offset samples with silence : Yes
Delete leading and trailing silent blocks   : No
Null samples used in CRC calculations       : Yes
Used interface                              : Installed external ASPI interface
Used output format              : User Defined Encoder
Selected bitrate                : 1024 kBit/s
Quality                         : High
Add ID3 tag                     : No
Command line compressor         : C:\Program Files\FLAC\flac.exe
Additional command line options : -8 -V -T "ARTIST=%a" -T "TITLE=%t" -T "ALBUM=%g" -T "DATE=%y" -T "TRACKNUMBER=%n" -T "GENRE=%m" -T "COMMENT=%e" %s -o %d
Use compression offset          : 48
TOC of the extracted CD
     Track |   Start  |  Length  | Start sector | End sector
    ---------------------------------------------------------
        1  |  0:00.00 |  5:02.56 |         0    |    22705
        2  |  5:02.56 |  4:26.65 |     22706    |    42720
        3  |  9:29.46 |  6:26.26 |     42721    |    71696
        4  | 15:55.72 |  4:14.34 |     71697    |    90780
        5  | 20:10.31 |  3:44.46 |     90781    |   107626
        6  | 23:55.02 |  4:09.49 |    107627    |   126350
        7  | 28:04.51 |  6:56.31 |    126351    |   157581
        8  | 35:01.07 |  3:38.31 |    157582    |   173962
        9  | 38:39.38 |  4:58.64 |    173963    |   196376
       10  | 43:38.27 |  6:55.70 |    196377    |   227571
       11  | 50:34.22 |  4:39.65 |    227572    |   248561
       12  | 55:14.12 |  2:25.22 |    248562    |   259458
Range status and errors
Selected range
     Filename T:\CD\Supermax - The Box\Supermax - Spirits Of Africa\Supermax - Spirits Of Africa.wav
     Peak level 99.9 %
     Range quality 99.9 %
     Copy CRC B6080E2A
     Copy OK
No errors occurred
AccurateRip summary
Track  1  not present in database
Track  2  not present in database
Track  3  not present in database
Track  4  not present in database
Track  5  not present in database
Track  6  not present in database
Track  7  not present in database
Track  8  not present in database
Track  9  not present in database
Track 10  not present in database
Track 11  not present in database
Track 12  not present in database
None of the tracks are present in the AccurateRip database
End of status report
Код:
REM GENRE Pop
REM DATE 2009
REM DISCID 860D830C
REM COMMENT "ExactAudioCopy v0.99pb3"
CATALOG 0602517741027
PERFORMER "Supermax"
TITLE "Spirits Of Africa"
FILE "Supermax - Spirits Of Africa.flac" WAVE
  TRACK 01 AUDIO
    TITLE "Going Back Home"
    PERFORMER "Supermax"
    ISRC ;S5M70800579
    INDEX 01 00:00:00
  TRACK 02 AUDIO
    TITLE "African Blood"
    PERFORMER "Supermax"
    ISRC ;S5M70800365
    INDEX 00 05:00:56
    INDEX 01 05:02:56
  TRACK 03 AUDIO
    TITLE "Bango Bongo"
    PERFORMER "Supermax"
    ISRC ;S5M70800580
    INDEX 00 09:29:37
    INDEX 01 09:29:46
  TRACK 04 AUDIO
    TITLE "Salongo"
    PERFORMER "Supermax"
    ISRC ;S5M70800581
    INDEX 00 15:53:73
    INDEX 01 15:55:72
  TRACK 05 AUDIO
    TITLE "Jungle Dance"
    PERFORMER "Supermax"
    ISRC ;S5M70800582
    INDEX 00 20:10:19
    INDEX 01 20:10:31
  TRACK 06 AUDIO
    TITLE "Purple People"
    PERFORMER "Supermax"
    ISRC ;S5M70800583
    INDEX 00 23:53:03
    INDEX 01 23:55:02
  TRACK 07 AUDIO
    TITLE "Voodoo-Dance"
    PERFORMER "Supermax"
    ISRC ;S5M70800584
    INDEX 00 28:03:63
    INDEX 01 28:04:51
  TRACK 08 AUDIO
    TITLE "Watch Out South Africa"
    PERFORMER "Supermax"
    ISRC ;S5M70800585
    INDEX 00 34:59:08
    INDEX 01 35:01:07
  TRACK 09 AUDIO
    TITLE "Red Dust"
    PERFORMER "Supermax"
    ISRC ;S5M70800586
    INDEX 00 38:37:39
    INDEX 01 38:39:38
  TRACK 10 AUDIO
    TITLE "Oi Dibango"
    PERFORMER "Supermax"
    ISRC ;S5M70800587
    INDEX 00 43:36:28
    INDEX 01 43:38:27
  TRACK 11 AUDIO
    TITLE "Jungle People"
    PERFORMER "Supermax"
    ISRC ;S5M70800588
    INDEX 00 50:34:10
    INDEX 01 50:34:22
  TRACK 12 AUDIO
    TITLE "Somewhere In Africa"
    PERFORMER "Supermax"
    ISRC ;S5M70800589
    INDEX 00 55:12:13
    INDEX 01 55:14:12
Код:
-----------------------
DON'T MODIFY THIS FILE
-----------------------
PERFORMER: auCDtect Task Manager, ver. 1.6.0 RC1 build 1.6.0.1
Copyright (c) 2008-2010 y-soft. All rights reserved
http://y-soft.org
ANALYZER: auCDtect: CD records authenticity detector, version 0.8.2
Copyright (c) 2004 Oleg Berngardt. All rights reserved.
Copyright (c) 2004 Alexander Djourik. All rights reserved.
FILE: Supermax - Spirits Of Africa.flac
  Size: 425008974 Hash: FCF5BBA2EECA939805F5E41BB2D7A247 Accuracy: -m0
  Conclusion: CDDA 100%
  Signature: 984DFCA4FA92514CE6E5B776C29820887261A751
01. Voodoo Asses (4:49)
02. Tears (5:40)
03. Miss You (5:17)
04. And Time Will Come (5:41)
05. Loversnight (5:42)
06. Love Is Deeper (3:50)
07. Something In My Heart (4:30)
08. I Need You (4:23)
09. Wonderchild (5:25)
10. It's A Long Way To Reach Heaven (4:29) Featuring - Precious Wilson
11. Whatever It Takes (5:39) Featuring - Amalia
12. Friends (4:55)
13. Just Before The Nightmare (4:35)
14. Amor Profundo (3:24)
Код:
Exact Audio Copy V0.99 prebeta 3 from 28. July 2007
EAC extraction logfile from 28. March 2009, 15:59
Supermax / Cool Love
Used drive : TSSTcorpCDDVDW SH-S203B Adapter: 7 ID: 0
Read mode : Secure
Utilize accurate stream : Yes
Defeat audio cache : Yes
Make use of C2 pointers : No
Read offset correction : 6
Overread into Lead-In and Lead-Out : No
Fill up missing offset samples with silence : Yes
Delete leading and trailing silent blocks : No
Null samples used in CRC calculations : Yes
Used interface : Installed external ASPI interface
Used output format : User Defined Encoder
Selected bitrate : 1024 kBit/s
Quality : High
Add ID3 tag : No
Command line compressor : C:\Program Files\FLAC\flac.exe
Additional command line options : -8 -V -T "ARTIST=%a" -T "TITLE=%t" -T "ALBUM=%g" -T "DATE=%y" -T "TRACKNUMBER=%n" -T "GENRE=%m" -T "COMMENT=%e" %s -o %d
Use compression offset : 48
TOC of the extracted CD
Track | Start | Length | Start sector | End sector
---------------------------------------------------------
1 | 0:00.00 | 4:49.16 | 0 | 21690
2 | 4:49.16 | 5:40.00 | 21691 | 47190
3 | 10:29.16 | 5:17.08 | 47191 | 70973
4 | 15:46.24 | 5:41.32 | 70974 | 96580
5 | 21:27.56 | 5:42.42 | 96581 | 122272
6 | 27:10.23 | 3:50.29 | 122273 | 139551
7 | 31:00.52 | 4:30.55 | 139552 | 159856
8 | 35:31.32 | 4:23.27 | 159857 | 179608
9 | 39:54.59 | 5:25.10 | 179609 | 203993
10 | 45:19.69 | 4:29.11 | 203994 | 224179
11 | 49:49.05 | 5:39.12 | 224180 | 249616
12 | 55:28.17 | 4:55.53 | 249617 | 271794
13 | 60:23.70 | 4:35.59 | 271795 | 292478
14 | 64:59.54 | 3:24.62 | 292479 | 307840
Range status and errors
Selected range
Filename T:\CD\Supermax - The Box\Supermax - Cool Love\Supermax - Cool Love.wav
Peak level 100.0 %
Range quality 100.0 %
Copy CRC CABECC3A
Copy OK
No errors occurred
AccurateRip summary
Track 1 not present in database
Track 2 not present in database
Track 3 not present in database
Track 4 not present in database
Track 5 not present in database
Track 6 not present in database
Track 7 not present in database
Track 8 not present in database
Track 9 not present in database
Track 10 not present in database
Track 11 not present in database
Track 12 not present in database
Track 13 not present in database
Track 14 not present in database
None of the tracks are present in the AccurateRip database
End of status report
Код:
REM GENRE Pop
REM DATE 2009
REM DISCID C210080E
REM COMMENT "ExactAudioCopy v0.99pb3"
CATALOG 0602517741102
PERFORMER "Supermax"
TITLE "Cool Love"
FILE "Supermax - Cool Love.flac" WAVE
  TRACK 01 AUDIO
    TITLE "Voodoo Asses"
    PERFORMER "Supermax"
    ISRC ;S5M70800374
    INDEX 01 00:00:00
  TRACK 02 AUDIO
    TITLE "Tears"
    PERFORMER "Supermax"
    ISRC ;S5M70800373
    INDEX 00 04:47:16
    INDEX 01 04:49:16
  TRACK 03 AUDIO
    TITLE "Miss You"
    PERFORMER "Supermax"
    ISRC ;S5M70800604
    INDEX 00 10:28:37
    INDEX 01 10:29:16
  TRACK 04 AUDIO
    TITLE "And Time Will Come"
    PERFORMER "Supermax"
    ISRC ;S5M70800375
    INDEX 00 15:44:25
    INDEX 01 15:46:24
  TRACK 05 AUDIO
    TITLE "Loversnight"
    PERFORMER "Supermax"
    ISRC ;S5M70800605
    INDEX 00 21:27:11
    INDEX 01 21:27:56
  TRACK 06 AUDIO
    TITLE "Love Is Deeper"
    PERFORMER "Supermax"
    ISRC ;S5M70800364
    INDEX 00 27:09:35
    INDEX 01 27:10:23
  TRACK 07 AUDIO
    TITLE "Something In My Heart"
    PERFORMER "Supermax"
    ISRC ;S5M70800606
    INDEX 00 31:00:08
    INDEX 01 31:00:52
  TRACK 08 AUDIO
    TITLE "I Need You"
    PERFORMER "Supermax"
    ISRC ;S5M70800607
    INDEX 00 35:30:23
    INDEX 01 35:31:32
  TRACK 09 AUDIO
    TITLE "Wonderchild"
    PERFORMER "Supermax"
    ISRC ;S5M70800608
    INDEX 00 39:53:60
    INDEX 01 39:54:59
  TRACK 10 AUDIO
    TITLE "Its A Long Way To Reach Heaven Feat. Precious Wilson"
    PERFORMER "Supermax"
    ISRC ;S5M70800609
    INDEX 00 45:18:28
    INDEX 01 45:19:69
  TRACK 11 AUDIO
    TITLE "Whatever It Takes Feat. Amalia"
    PERFORMER "Supermax"
    ISRC ;S5M70800610
    INDEX 00 49:47:71
    INDEX 01 49:49:05
  TRACK 12 AUDIO
    TITLE "Friends"
    PERFORMER "Supermax"
    ISRC ;S5M70800611
    INDEX 00 55:26:18
    INDEX 01 55:28:17
  TRACK 13 AUDIO
    TITLE "Just Before The Nightmare"
    PERFORMER "Supermax"
    ISRC ;S5M70800367
    INDEX 00 60:21:71
    INDEX 01 60:23:70
  TRACK 14 AUDIO
    TITLE "Amor Profundo"
    PERFORMER "Supermax"
    ISRC ;S5M70800612
    INDEX 00 64:57:55
    INDEX 01 64:59:54
Код:
-----------------------
DON'T MODIFY THIS FILE
-----------------------
PERFORMER: auCDtect Task Manager, ver. 1.6.0 RC1 build 1.6.0.1
Copyright (c) 2008-2010 y-soft. All rights reserved
http://y-soft.org
ANALYZER: auCDtect: CD records authenticity detector, version 0.8.2
Copyright (c) 2004 Oleg Berngardt. All rights reserved.
Copyright (c) 2004 Alexander Djourik. All rights reserved.
FILE: Supermax - Cool Love.flac
  Size: 468997508 Hash: F63C556E31D47BFB7A4383F04E9C22AF Accuracy: -m0
  Conclusion: CDDA 100%
  Signature: 3BAD65061A5FFE1457F64F80ED728AAFB6D738FE
01. Push Me Up (6:02)
02. Interplanetary (5:00)
03. Welcome To My Heart (4:23)
04. Madness Comes To Overload (5:25)
05. Scientist (4:39)
06. Tha Beat (4:42)
07. Members Only (4:27)
08. The Gule (4:07)
09. Crystal Clear (7:35)
10. Planet (5:06)
11. Night In Sofia (5:16)
12. Christalno Yasno (5:06)
13. 5 Past 4 (3:58)
14. Take Me To The Max (4:34)
Код:
Exact Audio Copy V0.99 prebeta 3 from 28. July 2007
EAC extraction logfile from 28. March 2009, 16:37
Supermax / Radical Phonetic
Used drive : TSSTcorpCDDVDW SH-S203B Adapter: 7 ID: 0
Read mode : Secure
Utilize accurate stream : Yes
Defeat audio cache : Yes
Make use of C2 pointers : No
Read offset correction : 6
Overread into Lead-In and Lead-Out : No
Fill up missing offset samples with silence : Yes
Delete leading and trailing silent blocks : No
Null samples used in CRC calculations : Yes
Used interface : Installed external ASPI interface
Used output format : User Defined Encoder
Selected bitrate : 1024 kBit/s
Quality : High
Add ID3 tag : No
Command line compressor : C:\Program Files\FLAC\flac.exe
Additional command line options : -8 -V -T "ARTIST=%a" -T "TITLE=%t" -T "ALBUM=%g" -T "DATE=%y" -T "TRACKNUMBER=%n" -T "GENRE=%m" -T "COMMENT=%e" %s -o %d
Use compression offset : 48
TOC of the extracted CD
Track | Start | Length | Start sector | End sector
---------------------------------------------------------
1 | 0:00.00 | 6:02.15 | 0 | 27164
2 | 6:02.15 | 5:00.63 | 27165 | 49727
3 | 11:03.03 | 4:23.42 | 49728 | 69494
4 | 15:26.45 | 5:25.24 | 69495 | 93893
5 | 20:51.69 | 4:39.54 | 93894 | 114872
6 | 25:31.48 | 4:42.13 | 114873 | 136035
7 | 30:13.61 | 4:28.01 | 136036 | 156136
8 | 34:41.62 | 4:06.62 | 156137 | 174648
9 | 38:48.49 | 7:35.59 | 174649 | 208832
10 | 46:24.33 | 5:06.73 | 208833 | 231855
11 | 51:31.31 | 5:16.05 | 231856 | 255560
12 | 56:47.36 | 5:06.35 | 255561 | 278545
13 | 61:53.71 | 3:58.55 | 278546 | 296450
14 | 65:52.51 | 4:34.02 | 296451 | 317002
Range status and errors
Selected range
Filename T:\CD\Supermax - The Box\Supermax - Radical Phonetic\Supermax - Radical Phonetic.wav
Peak level 99.9 %
Range quality 100.0 %
Copy CRC 34843B95
Copy OK
No errors occurred
AccurateRip summary
Track 1 not present in database
Track 2 not present in database
Track 3 not present in database
Track 4 not present in database
Track 5 not present in database
Track 6 not present in database
Track 7 not present in database
Track 8 not present in database
Track 9 not present in database
Track 10 not present in database
Track 11 not present in database
Track 12 not present in database
Track 13 not present in database
Track 14 not present in database
None of the tracks are present in the AccurateRip database
End of status report
Код:
-----------------------
DON'T MODIFY THIS FILE
-----------------------
PERFORMER: auCDtect Task Manager, ver. 1.6.0 RC1 build 1.6.0.1
Copyright (c) 2008-2010 y-soft. All rights reserved
http://y-soft.org
ANALYZER: auCDtect: CD records authenticity detector, version 0.8.2
Copyright (c) 2004 Oleg Berngardt. All rights reserved.
Copyright (c) 2004 Alexander Djourik. All rights reserved.
FILE: Supermax - Radical Phonetic.flac
  Size: 511982755 Hash: D3187734068C0517008943DB15E14283 Accuracy: -m0
  Conclusion: CDDA 100%
  Signature: 5F6878A0AED0A6D78EA5CCE130FA71B72E4E8743
Код:
REM GENRE Pop
REM DATE 2009
REM DISCID C910820E
REM COMMENT "ExactAudioCopy v0.99pb3"
CATALOG 0602517958937
PERFORMER "Supermax"
TITLE "Radical Phonetic"
FILE "Supermax - Radical Phonetic.flac" WAVE
  TRACK 01 AUDIO
    TITLE "Push Me Up"
    PERFORMER "Supermax"
    ISRC ;S5M70800613
    FLAGS DCP
    INDEX 01 00:00:00
  TRACK 02 AUDIO
    TITLE "Interplanetary"
    PERFORMER "Supermax"
    ISRC ;S5M70800613
    FLAGS DCP
    INDEX 01 06:02:15
  TRACK 03 AUDIO
    TITLE "Welcome To The Night"
    PERFORMER "Supermax"
    ISRC ;S5M70800615
    FLAGS DCP
    INDEX 01 11:03:03
  TRACK 04 AUDIO
    TITLE "Madness Comes To Overload"
    PERFORMER "Supermax"
    ISRC ;S5M70800616
    FLAGS DCP
    INDEX 01 15:26:45
  TRACK 05 AUDIO
    TITLE "Scentist"
    PERFORMER "Supermax"
    ISRC ;S5M70800617
    FLAGS DCP
    INDEX 01 20:51:69
  TRACK 06 AUDIO
    TITLE "Tha Beat"
    PERFORMER "Supermax"
    ISRC ;S5M70800618
    FLAGS DCP
    INDEX 01 25:31:48
  TRACK 07 AUDIO
    TITLE "Members Only"
    PERFORMER "Supermax"
    ISRC ;S5M70800619
    FLAGS DCP
    INDEX 01 30:13:61
  TRACK 08 AUDIO
    TITLE "The Gule"
    PERFORMER "Supermax"
    ISRC ;S5M70800620
    FLAGS DCP
    INDEX 01 34:41:62
  TRACK 09 AUDIO
    TITLE "Crystal Clear"
    PERFORMER "Supermax"
    ISRC ;S5M70800621
    FLAGS DCP
    INDEX 01 38:48:49
  TRACK 10 AUDIO
    TITLE "Planet"
    PERFORMER "Supermax"
    ISRC ;S5M70800622
    FLAGS DCP
    INDEX 01 46:24:33
  TRACK 11 AUDIO
    TITLE "Night In Sofia"
    PERFORMER "Supermax"
    ISRC ;S5M70800623
    FLAGS DCP
    INDEX 01 51:31:31
  TRACK 12 AUDIO
    TITLE "Christalno Yasno"
    PERFORMER "Supermax"
    ISRC ;S5M70800624
    FLAGS DCP
    INDEX 01 56:47:36
  TRACK 13 AUDIO
    TITLE "5 Past 4"
    PERFORMER "Supermax"
    ISRC ;S5M70800625
    FLAGS DCP
    INDEX 01 61:53:71
  TRACK 14 AUDIO
    TITLE "Take Me To The Max"
    PERFORMER "Supermax"
    ISRC ;S5M70800644
    FLAGS DCP
    INDEX 01 65:52:51
01. Electricity (Sequmix) (4:43)
02. Bango Bongo (Brass Mix) (6:22)
03. I Want You (Club Version) (5:01)
04. Heaven Of Music (FFT Mix) (5:48)
05. Watch Out South Africa (Soweto Mix) (3:30)
06. Amerikan Beauty Lovemachine (Amerikan Beauty Cover Version) (3:39)
07. It Ain't Easy (Club Mix) (4:23)
08. World Of Today (Techno Mix) (4:09)
09. Don't Stop The Music (Club Mix 2000) (4:37)
10. African Blood (Club Mix) (4:44)
11. Warriors (El Club Differente Mix) (4:28)
Код:
Exact Audio Copy V0.99 prebeta 3 from 28. July 2007
EAC extraction logfile from 28. March 2009, 17:17
Supermax / Special Remixes
Used drive : TSSTcorpCDDVDW SH-S203B Adapter: 7 ID: 0
Read mode : Secure
Utilize accurate stream : Yes
Defeat audio cache : Yes
Make use of C2 pointers : No
Read offset correction : 6
Overread into Lead-In and Lead-Out : No
Fill up missing offset samples with silence : Yes
Delete leading and trailing silent blocks : No
Null samples used in CRC calculations : Yes
Used interface : Installed external ASPI interface
Used output format : User Defined Encoder
Selected bitrate : 1024 kBit/s
Quality : High
Add ID3 tag : No
Command line compressor : C:\Program Files\FLAC\flac.exe
Additional command line options : -8 -V -T "ARTIST=%a" -T "TITLE=%t" -T "ALBUM=%g" -T "DATE=%y" -T "TRACKNUMBER=%n" -T "GENRE=%m" -T "COMMENT=%e" %s -o %d
Use compression offset : 48
TOC of the extracted CD
Track | Start | Length | Start sector | End sector
---------------------------------------------------------
1 | 0:00.00 | 4:43.17 | 0 | 21241
2 | 4:43.17 | 6:22.71 | 21242 | 49962
3 | 11:06.13 | 5:01.04 | 49963 | 72541
4 | 16:07.17 | 5:48.49 | 72542 | 98690
5 | 21:55.66 | 3:30.03 | 98691 | 114443
6 | 25:25.69 | 3:41.25 | 114444 | 131043
7 | 29:07.19 | 4:24.00 | 131044 | 150843
8 | 33:31.19 | 4:09.24 | 150844 | 169542
9 | 37:40.43 | 4:37.00 | 169543 | 190317
10 | 42:17.43 | 4:44.22 | 190318 | 211639
11 | 47:01.65 | 4:28.03 | 211640 | 231742
Range status and errors
Selected range
Filename T:\CD\Supermax - The Box\Supermax - Special Remixes\Supermax - Special Remixes.wav
Peak level 99.9 %
Range quality 100.0 %
Copy CRC 2D00F00A
Copy OK
No errors occurred
AccurateRip summary
Track 1 not present in database
Track 2 not present in database
Track 3 not present in database
Track 4 not present in database
Track 5 not present in database
Track 6 not present in database
Track 7 not present in database
Track 8 not present in database
Track 9 not present in database
Track 10 not present in database
Track 11 not present in database
None of the tracks are present in the AccurateRip database
End of status report
Код:
REM GENRE Pop
REM DATE 2009
REM DISCID A10C110B
REM COMMENT "ExactAudioCopy v0.99pb3"
CATALOG 0602517958791
PERFORMER "Supermax"
TITLE "Special Remixes"
FILE "Supermax - Special Remixes.flac" WAVE
  TRACK 01 AUDIO
    TITLE "Electricity [Sedumix]"
    PERFORMER "Supermax"
    ISRC ;S5M70800634
    FLAGS DCP
    INDEX 01 00:00:00
  TRACK 02 AUDIO
    TITLE "Bango Bongo [Brass Mix]"
    PERFORMER "Supermax"
    ISRC ;S5M70800635
    FLAGS DCP
    INDEX 01 04:43:17
  TRACK 03 AUDIO
    TITLE "I Want You [Club Mix]"
    PERFORMER "Supermax"
    ISRC ;S5M70800636
    FLAGS DCP
    INDEX 01 11:06:13
  TRACK 04 AUDIO
    TITLE "Heaven Of Music [FFt Mix]"
    PERFORMER "Supermax"
    ISRC ;S5M70800637
    FLAGS DCP
    INDEX 01 16:07:17
  TRACK 05 AUDIO
    TITLE "Watch Out South Africa [Soweto Mix]"
    PERFORMER "Supermax"
    ISRC ;S5M70800638
    FLAGS DCP
    INDEX 01 21:55:66
  TRACK 06 AUDIO
    TITLE "Lovemachine [Amerikan Beauty Cover Mix]"
    PERFORMER "Supermax"
    ISRC ;S5M70800638
    FLAGS DCP
    INDEX 01 25:25:69
  TRACK 07 AUDIO
    TITLE "It Ain't Easy [Club Mix]"
    PERFORMER "Supermax"
    ISRC ;S5M70801239
    FLAGS DCP
    INDEX 01 29:07:19
  TRACK 08 AUDIO
    TITLE "World Of Today [Techno Mix]"
    PERFORMER "Supermax"
    ISRC ;S5M70800646
    FLAGS DCP
    INDEX 01 33:31:19
  TRACK 09 AUDIO
    TITLE "Don't Stop The Music [Club Mix 2000]"
    PERFORMER "Supermax"
    ISRC ;S5M70800648
    FLAGS DCP
    INDEX 01 37:40:43
  TRACK 10 AUDIO
    TITLE "African Blood [Club Mix]"
    PERFORMER "Supermax"
    ISRC ;S5M70800651
    FLAGS DCP
    INDEX 01 42:17:43
  TRACK 11 AUDIO
    TITLE "Warriors [El Club Differente Mix]"
    PERFORMER "Supermax"
    ISRC ;S5M70800655
    FLAGS DCP
    INDEX 01 47:01:65
Код:
-----------------------
DON'T MODIFY THIS FILE
-----------------------
PERFORMER: auCDtect Task Manager, ver. 1.6.0 RC1 build 1.6.0.1
Copyright (c) 2008-2010 y-soft. All rights reserved
http://y-soft.org
ANALYZER: auCDtect: CD records authenticity detector, version 0.8.2
Copyright (c) 2004 Oleg Berngardt. All rights reserved.
Copyright (c) 2004 Alexander Djourik. All rights reserved.
FILE: Supermax - Special Remixes.flac
  Size: 368976883 Hash: DC0ACF1F87F332E5AD86A6EC1A41F56E Accuracy: -m0
  Conclusion: CDDA 100%
  Signature: A2D3C9923358A1165300948C10F08013FF04E78C
01. Camillo (Remaxed By Stefan Obermaier) (5:39)
Remix, Producer [Additional Production] - Stefan Obermaier
02. World Of Today (Honolulu-Spooky-Mix) (6:37)
Drums, Bongos - Mex Wolfsteiner
Programmed By, Guitar, Bass, Synthesizer [Rhodes] - Bernd Oberlinninger
Vocals, Flute - Mirjam Wllstedt
Vocals, Synthesizer [Moog], Organ - Supermax
03. It Ain't Easy (Remaxed By Moonbootica) (7:28)
Remix - Moonbootica
Remix [Credited To], Producer [Additional Production] - Kowesix , Tobitob
04. Vision (Remaxed By Spindoc) (5:41)
Drums [Additional Drums] - Dieter Herndl , Sebastian Baxant
Instruments, Programmed By - Rexhe Qufaj
Remix - Spindoc
Saxophone - Emanuel Toifl
Synthesizer - Christian Selinger
05. African Blood (Remaxed By Smoove) (7:51)
Bass [Additional Bass] - Bernie Grabner
Guitar [Additional Guitar] - Sebastian Wiesflecker
Keyboards [Additional Keyboards], Synthesizer - Sergio Flores
Percussion [Additional Percussion] - Flo Muigg
Remix - Smoove
Remix [Credited To], Producer - Hannes Peyer , Martin Strutzenberger
[GVideo]06. Elictricity (Remaxed By Supersultan & Mikeburns) (6:33)[/GVideo]
Remix - Mikeburns , Supersultan
[GVideo]07. World Of Today (Remaxed By Supermax) (3:44)[/GVideo]
Remix - Supermax
08. World Of Today (Remaxed By Supermax & Taliesin) (4:29)
Remix - Supermax , Taliesin
09. Lovemachine (Golden Flash Remix) (5:40)
Remix - Thomas Ranosz
10. Lovemachine (Dub Edit - Remaxed By Supermax) (9:13)
Remix - Supermax
11. Lovemachine (Sophat! Vs. Mousse T. Club Edit) (6:18)
Producer [Remix Production] - Mousse T. , Nils Ruzicka , Stavros Ioannou
Programmed By [Additional Programming] - Nils Ruzicka
Remix - Mousse T. , Sophat!*
12. Lovemachine (Goldfingers NRG Edit) (3:37)
Remix - Goldfinger*
Remix [Credited To], Producer - Deejay Goldfinger* , Mike Brubek
Код:
Exact Audio Copy V0.99 prebeta 3 from 28. July 2007
EAC extraction logfile from 28. March 2009, 18:17
Supermax / Best Of Remixes
Used drive : TSSTcorpCDDVDW SH-S203B Adapter: 7 ID: 0
Read mode : Secure
Utilize accurate stream : Yes
Defeat audio cache : Yes
Make use of C2 pointers : No
Read offset correction : 6
Overread into Lead-In and Lead-Out : No
Fill up missing offset samples with silence : Yes
Delete leading and trailing silent blocks : No
Null samples used in CRC calculations : Yes
Used interface : Installed external ASPI interface
Used output format : User Defined Encoder
Selected bitrate : 1024 kBit/s
Quality : High
Add ID3 tag : No
Command line compressor : C:\Program Files\FLAC\flac.exe
Additional command line options : -8 -V -T "ARTIST=%a" -T "TITLE=%t" -T "ALBUM=%g" -T "DATE=%y" -T "TRACKNUMBER=%n" -T "GENRE=%m" -T "COMMENT=%e" %s -o %d
Use compression offset : 48
TOC of the extracted CD
Track | Start | Length | Start sector | End sector
---------------------------------------------------------
1 | 0:00.00 | 5:39.19 | 0 | 25443
2 | 5:39.19 | 6:36.40 | 25444 | 55183
3 | 12:15.59 | 7:29.02 | 55184 | 88860
4 | 19:44.61 | 5:42.50 | 88861 | 114560
5 | 25:27.36 | 7:50.55 | 114561 | 149865
6 | 33:18.16 | 6:32.66 | 149866 | 179331
7 | 39:51.07 | 3:45.11 | 179332 | 196217
8 | 43:36.18 | 4:28.26 | 196218 | 216343
9 | 48:04.44 | 5:41.68 | 216344 | 241986
10 | 53:46.37 | 9:13.23 | 241987 | 283484
11 | 62:59.60 | 6:16.58 | 283485 | 311742
12 | 69:16.43 | 3:36.34 | 311743 | 327976
Range status and errors
Selected range
Filename T:\CD\Supermax - The Box\Supermax - Best Of Remixes\Supermax - Best Of Remixes.wav
Peak level 98.8 %
Range quality 100.0 %
Copy CRC C3490FDC
Copy OK
No errors occurred
AccurateRip summary
Track 1 not present in database
Track 2 not present in database
Track 3 not present in database
Track 4 not present in database
Track 5 not present in database
Track 6 not present in database
Track 7 not present in database
Track 8 not present in database
Track 9 not present in database
Track 10 not present in database
Track 11 not present in database
Track 12 not present in database
None of the tracks are present in the AccurateRip database
End of status report
Код:
REM GENRE Pop
REM DATE 2009
REM DISCID AC11150C
REM COMMENT "ExactAudioCopy v0.99pb3"
CATALOG 0602517958951
PERFORMER "Supermax"
TITLE "Best Of Remixes"
FILE "Supermax - Best Of Remixes.flac" WAVE
  TRACK 01 AUDIO
    TITLE "Camillo [Remaxed By Stefan Obermaier]"
    PERFORMER "Supermax"
    ISRC ;S5M70600364
    INDEX 01 00:00:00
  TRACK 02 AUDIO
    TITLE "World Of Today [Honolulu-Spooky-Mix]"
    PERFORMER "Supermax"
    ISRC ;S5M70700517
    INDEX 00 05:36:05
    INDEX 01 05:39:19
  TRACK 03 AUDIO
    TITLE "It Ain't Easy [Remaxed By Moonbootica]"
    PERFORMER "Supermax"
    ISRC ;S5M70700516
    INDEX 00 12:14:36
    INDEX 01 12:15:59
  TRACK 04 AUDIO
    TITLE "Vision [Remaxed By Spindoc]"
    PERFORMER "Supermax"
    ISRC ;S5M70700518
    INDEX 00 19:42:54
    INDEX 01 19:44:61
  TRACK 05 AUDIO
    TITLE "African Blood [Remaxed By Smoove]"
    PERFORMER "Supermax"
    ISRC ;S5M70600625
    INDEX 00 25:25:69
    INDEX 01 25:27:36
  TRACK 06 AUDIO
    TITLE "Electricity [Remaxed By Supersultan & Mikeburns]"
    PERFORMER "Supermax"
    ISRC ;S5M70600628
    INDEX 00 33:17:44
    INDEX 01 33:18:16
  TRACK 07 AUDIO
    TITLE "World Of Today [Remaxed By Supermax]"
    PERFORMER "Supermax"
    ISRC ;S5M70800411
    INDEX 00 39:49:28
    INDEX 01 39:51:07
  TRACK 08 AUDIO
    TITLE "World Of Today [Remaxed By Supermax & Taliesin]"
    PERFORMER "Supermax"
    ISRC ;S5M70600626
    INDEX 00 43:35:14
    INDEX 01 43:36:18
  TRACK 09 AUDIO
    TITLE "Lovemachine [Golden Flash Remix]"
    PERFORMER "Supermax"
    ISRC ;S5M70800413
    INDEX 00 48:03:09
    INDEX 01 48:04:44
  TRACK 10 AUDIO
    TITLE "Lovemachine [Dub Edit - Remaxed By Supermax]"
    PERFORMER "Supermax"
    ISRC ;S5M70800412
    INDEX 00 53:44:36
    INDEX 01 53:46:37
  TRACK 11 AUDIO
    TITLE "Lovemachine [Sophat VS. Mousse T. Club Edit]"
    PERFORMER "Supermax"
    ISRC ;S5M70800414
    INDEX 00 62:57:61
    INDEX 01 62:59:60
  TRACK 12 AUDIO
    TITLE "Lovemachine [Goldfingers Nrg Edit]"
    PERFORMER "Supermax"
    ISRC ;S5M70800415
    INDEX 00 69:16:11
    INDEX 01 69:16:43
Код:
-----------------------
DON'T MODIFY THIS FILE
-----------------------
PERFORMER: auCDtect Task Manager, ver. 1.6.0 RC1 build 1.6.0.1
Copyright (c) 2008-2010 y-soft. All rights reserved
http://y-soft.org
ANALYZER: auCDtect: CD records authenticity detector, version 0.8.2
Copyright (c) 2004 Oleg Berngardt. All rights reserved.
Copyright (c) 2004 Alexander Djourik. All rights reserved.
FILE: Supermax - Best Of Remixes.flac
  Size: 461232143 Hash: 737CDD98ACC0BE5C4B0053D44C66572D Accuracy: -m0
  Conclusion: CDDA 99%
  Signature: ACCABA903EA3198F83F9473660B25073FE098FF4
Download / Скачать

Хотите скачать бесплатно? Зарегистрируйтесь на сайте (ссылка на регистрацию). Pirat.ca - самый быстрый торрент трекер в рунете!

Как скачивать  ·   Что такое торрент  ·   Рейтинг и ограничения



Последний раз редактировалось: Борей_64 (2017-03-21 18:01), всего редактировалось 1 раз

kentu158

Корсар

Пост 02-Апр-2017 07:42 (спустя 12 дней)

[Q] 

Что-то знакомое... Попозже качну! На любителя Спасибо!!!

_________________
Не переживай о многом, и ты переживёшь многих! [img]https://nick-name.ru/forum4t3/Drause.gif[/img]
[Профиль]  [ЛС] 
Показать сообщения:    
Ответить на тему

Текущее время: Сегодня 11:49

Часовой пояс: GMT + 4



Вы не можете начинать темы
Вы не можете отвечать на сообщения
Вы не можете редактировать свои сообщения
Вы не можете удалять свои сообщения
Вы не можете голосовать в опросах
Вы не можете прикреплять файлы к сообщениям
Вы не можете скачивать файлы

Майнать ▼