(Electronic Music) Space - Magic Fly (Upmix) (1977, remaster'2006)[DTS, 1411 Кбит/сек]

Ответить на тему
 
Автор
Сообщение

Пост 29-Мар-2017 19:08

[Q] 

Борей_64

Корсар

-Space / Magic Fly (Upmix)-- Год: 1977, remaster'2006
Жанр: Electronic Music
Продолжительность: 0:37:11-Формат: DTS
Битрейт аудио: 1411 Кбит/сек
Наличие сканов в содержимом раздачи: нет-
1. Fasten Seat Belt
2. Ballad For Space Lovers
3. Tango In Space
4. Flying Nightmare
5. Magic Fly
6. Velvet Rape
7. Carry On. Turn Me On
8. Bank Theme (bonus track)
Код:
PERFORMER "Space"
TITLE "Magic Fly"
FILE "Space - Magic Fly [DTS 5.1] .wav" WAVE
  TRACK 01 AUDIO
    TITLE "Fasten Seat Belt"
    INDEX 01 00:00:00
  TRACK 02 AUDIO
    TITLE "Ballad for Space Lovers"
    INDEX 01 06:01:42
  TRACK 03 AUDIO
    TITLE "Tango in Space"
    INDEX 01 08:20:55
  TRACK 04 AUDIO
    TITLE "Flying Nightmare"
    INDEX 01 12:50:62
  TRACK 05 AUDIO
    TITLE "Magic Fly"
    INDEX 01 16:16:02
  TRACK 06 AUDIO
    TITLE "Velvet Rape"
    INDEX 01 20:36:22
  TRACK 07 AUDIO
    TITLE "Carry On. Turn Me On"
    INDEX 01 25:07:00
  TRACK 08 AUDIO
    TITLE "Bank Theme"
    INDEX 01 33:16:37
Код:
-----------------------
DON'T MODIFY THIS FILE
-----------------------
PERFORMER: auCDtect Task Manager, ver. 1.6.0 RC1 build 1.6.0.1
Copyright (c) 2008-2010 y-soft. All rights reserved
http://y-soft.org
ANALYZER: auCDtect: CD records authenticity detector, version 0.8.2
Copyright (c) 2004 Oleg Berngardt. All rights reserved.
Copyright (c) 2004 Alexander Djourik. All rights reserved.
FILE: Space - Magic Fly [DTS 5.1] .wav
  Size: 391082028 Hash: 2D9EAE5CD207ED6948EBF598A8CF1D73 Accuracy: -m0
  Conclusion: CDDA 100%
  Signature: 0387D14BF5AD3377C101002F810E15F7E5DB3E07
Код:
Общее
CompleteName                             : . . . . . Space - Magic Fly [DTS 5.1] .wav
Format                                   : Wave
FileSize/String                          : 373 Мбайт
Duration/String                          : 36 м.
OverallBitRate_Mode/String               : Постоянный
OverallBitRate/String                    : 1411 Кбит/сек
Аудио
ID/String                                : 0
Format                                   : DTS
Format/Info                              : Digital Theater Systems
Format_Settings_Endianness               : Little
MuxingMode                               : LE / 14
CodecID                                  : 1
Duration/String                          : 36 м.
BitRate_Mode/String                      : Постоянный
BitRate/String                           : 1411,2 Кбит/сек
Channel(s)/String                        : 6 каналов
ChannelPositions                         : Front: L C R, Side: L R, LFE
SamplingRate/String                      : 44,1 КГц
BitDepth/String                          : 24 бит
Compression_Mode/String                  : С потерями
StreamSize/String                        : 373 Мбайт (100%)
Download / Скачать

Хотите скачать бесплатно? Зарегистрируйтесь на сайте (ссылка на регистрацию). Pirat.ca - самый быстрый торрент трекер в рунете!

Как скачивать  ·   Что такое торрент  ·   Рейтинг и ограничения

Пост 31-Мар-2017 03:48 (спустя 1 день 8 часов)

Топик был перенесен из форума DTS (Трюм) в форум DTS
Koralina
 

kentu158

Корсар

Пост 31-Мар-2017 21:39 (спустя 2 дня 2 часа)

[Q] 

Не играет на Windows 10 Pro На любителя

_________________
Не переживай о многом, и ты переживёшь многих! [img]https://nick-name.ru/forum4t3/Drause.gif[/img]
[Профиль]  [ЛС] 

zpSaid

125

Пост 01-Апр-2017 08:01 (спустя 10 часов)

[Q] 

793370Не играет на Windows 10 Pro
По умолчанию Win.10 не является мультимедийной системой.
По этому для просмотра и прослушивания мультимедиа нужно в систему ставить соответствующие плееры и кодеки.

_________________
Джавдет трус! Абдула воин!
[Профиль]  [ЛС] 

Борей_64 ®

Корсар

3558

Пост 01-Апр-2017 18:04 (спустя 10 часов)

[Q] 

793370Не играет на Windows 10 Pro На любителя
AIMP3 , Foobar2000 - прекрасно воспроизводит данный формат

_________________
Ничто так не укрепляет зубы, как вежливость


Последний раз редактировалось: Борей_64 (2017-04-01 21:51), всего редактировалось 1 раз
[Профиль]  [ЛС] 

Борей_64 ®

Корсар

3558

Пост 01-Апр-2017 21:47 (спустя 3 часа)

[Q] 

.............

_________________
Ничто так не укрепляет зубы, как вежливость
[Профиль]  [ЛС] 

Ksu1315

Шкипер

Пост 02-Апр-2017 08:23 (спустя 10 часов)

[Q] 

Прям детство вспомнил!
Спасибо вам, добрый человек!
Лови бочку
[Профиль]  [ЛС] 
Показать сообщения:    
Ответить на тему

Текущее время: Сегодня 21:39

Часовой пояс: GMT + 4



Вы не можете начинать темы
Вы не можете отвечать на сообщения
Вы не можете редактировать свои сообщения
Вы не можете удалять свои сообщения
Вы не можете голосовать в опросах
Вы не можете прикреплять файлы к сообщениям
Вы не можете скачивать файлы

Майнать ▼