Битлз: Жёлтая подводная лодка / The Beatles: Yellow Submarine (Джордж Даннинг / George Dunning) [1968 г., мультфильм, мюзикл, фэнтези, комедия, приключения, DVDRip] AVO (Сергей Визгунов, Андрей Гаврилов [VHS]) + MVO (ОРТ) + Original (Eng)

Ответить на тему
 
Автор
Сообщение

Пост 25-Авг-2013 22:42

[Q] 

Jigsaw

 
-Битлз: Жёлтая подводная лодка
The Beatles: Yellow Submarine
«The forces of good! The forces of evil!»
-- Производство: Великобритания, США
Год выпуска: 1968 г.
Жанр: мультфильм, мюзикл, фэнтези, комедия, приключения
Продолжительность: 01:29:41
Мировая премьера: 17 июля 1968
Перевод: Авторский (одноголосый, закадровый) Сергей Визгунов, Андрей Гаврилов (VHS)
Перевод 2: Профессиональный (многоголосый, закадровый) Телеканал ОРТ
Оригинальный аудиопоток: английский
Режиссер: Джордж Даннинг / George Dunning-В ролях: The Beatles (The Beatles (в титрах: Sgt. Pepper's Lonely Hearts Club Band)), Пол Анджелис (Paul Angelis), Джон Клайв (John Clive), Дик Эмери (Dick Emery), Джефри Хьюз (Geoffrey Hughes (в титрах: Geoff Hughes)), Лэнс Персивал (Lance Percival), Питер Бэттен (Peter Batten)- -Описание: Мультипликационные персонажи, сильно напоминающие знаменитую четверку «Битлз», поют и совершают путешествие на желтой подводной лодке по фантастической стране Пепперлэнд, борясь за любовь, дружбу, цветы и музыку против злых и плохих уродцев — синих вреднючек.-
Рип был сделан с раздачи ZVNV (тру) "Битлз: Жёлтая подводная лодка / The Beatles: Yellow Submarine (Джордж Даннинг / George Dunning) [1968, Анимационный музыкальный фильм, комедия, приключения, BD>DVD5(custom)] VO(ОРТ, Жолобов)+AVO(Визгунов, Гаврилов)+ENG+sub"
При перезаливке указывайте источник!
- -Качество видео: DVDRip
Контейнер: AVI
Видео кодек: XviD
Аудио кодек: AC3
Видео: 720x400 (1.80:1), 23.976 fps, XviD MPEG-4 ~2040 kbps avg, 0.29 bit/pixel
Аудио: Rus: 48 kHz, AC3 Dolby Digital, 3/2 (L,C,R,l,r) + LFE ch, ~448 kbps - Сергей Визгунов
Аудио #2: Rus: 48 kHz, AC3 Dolby Digital, 1/0 (C) ch, ~128 kbps - Андрей Гаврилов (VHS)
Аудио #3: Rus: 48 kHz, AC3 Dolby Digital, 2/0 (L,R) ch, ~224 kbps - MVO (ОРТ)
Аудио #4: Eng: 48 kHz, AC3 Dolby Digital, 6 ch, ~448.00 kbps avg (оригинал)
Cубтитры: отсутствуют-
Общее
Полное имя : D:\The.Beatles.Yellow.Submarine.1968.DVDRip.2xAVO+MVO.by Jigsaw[pirat.ca].avi
Формат : AVI
Формат/Информация : Audio Video Interleave
Профиль формата : OpenDML
Размер файла : 2,06 Гбайт
Продолжительность : 1 ч. 29 м.
Общий поток : 3295 Кбит/сек
Название фильма : The Beatles Yellow Submarine DVDRip by Jigsaw (2хAVO+MVO) [pirat.ca]
Режиссёр : Internal release for pirat.ca by Jigsaw
Программа кодирования : VirtualDubMod 1.5.10.2 (build 2540/release)
Правообладатель : Jigsaw (club AVO) [pirat.ca]
Примечание : Еncode 25.08.2013
Видео
Идентификатор : 0
Формат : MPEG-4 Visual
Профиль формата : Advanced [email protected]
Параметр BVOP формата : 2
Параметр QPel формата : Нет
Параметр GMC формата : Без точки перехода
Параметр матрицы формата : Default (MPEG)
Идентификатор кодека : XVID
Идентификатор кодека/Подсказка : XviD
Продолжительность : 1 ч. 29 м.
Битрейт : 2017 Кбит/сек
Ширина : 720 пикселей
Высота : 400 пикселей
Соотношение сторон : 16:9
Частота кадров : 23,976 кадра/сек
Цветовое пространство : YUV
Субдискретизация насыщенности : 4:2:0
Битовая глубина : 8 бит
Тип развёртки : Прогрессивная
Метод сжатия : С потерями
Бит/(Пиксели*Кадры) : 0.292
Размер потока : 1,26 Гбайт (61%)
Библиотека кодирования : XviD 1.2.0.dev47 (UTC 2006-11-01)
Аудио #1
Идентификатор : 1
Формат : AC-3
Формат/Информация : Audio Coding 3
Расширение режима : CM (complete main)
Параметр Endianness формата : Big
Идентификатор кодека : 2000
Продолжительность : 1 ч. 29 м.
Вид битрейта : Постоянный
Битрейт : 448 Кбит/сек
Каналы : 6 каналов
Расположение каналов : Front: L C R, Side: L R, LFE
Частота : 48,0 КГц
Битовая глубина : 16 бит
Метод сжатия : С потерями
Размер потока : 287 Мбайт (14%)
Выравнивание : Разделение по промежуткам
Продолжительность промежутка : 42 мс. (1,00 видеокадр)
Время предзагрузки промежутка : 500 мс.
Заголовок : AVO (Сергей Визгунов)
Аудио #2
Идентификатор : 2
Формат : AC-3
Формат/Информация : Audio Coding 3
Расширение режима : CM (complete main)
Параметр Endianness формата : Big
Идентификатор кодека : 2000
Продолжительность : 1 ч. 29 м.
Вид битрейта : Постоянный
Битрейт : 128 Кбит/сек
Каналы : 1 канал
Расположение каналов : Front: C
Частота : 48,0 КГц
Битовая глубина : 16 бит
Метод сжатия : С потерями
Размер потока : 82,1 Мбайт (4%)
Выравнивание : Разделение по промежуткам
Продолжительность промежутка : 42 мс. (1,00 видеокадр)
Время предзагрузки промежутка : 500 мс.
Заголовок : AVO (Андрей Гаврилов)
Аудио #3
Идентификатор : 3
Формат : AC-3
Формат/Информация : Audio Coding 3
Расширение режима : CM (complete main)
Параметр Endianness формата : Big
Идентификатор кодека : 2000
Продолжительность : 1 ч. 29 м.
Вид битрейта : Постоянный
Битрейт : 224 Кбит/сек
Каналы : 2 канала
Расположение каналов : Front: L R
Частота : 48,0 КГц
Битовая глубина : 16 бит
Метод сжатия : С потерями
Размер потока : 144 Мбайт (7%)
Выравнивание : Разделение по промежуткам
Продолжительность промежутка : 42 мс. (1,00 видеокадр)
Время предзагрузки промежутка : 500 мс.
Заголовок : MVO (ОРТ)
Аудио #4
Идентификатор : 4
Формат : AC-3
Формат/Информация : Audio Coding 3
Расширение режима : CM (complete main)
Параметр Endianness формата : Big
Идентификатор кодека : 2000
Продолжительность : 1 ч. 29 м.
Вид битрейта : Постоянный
Битрейт : 448 Кбит/сек
Каналы : 6 каналов
Расположение каналов : Front: L C R, Side: L R, LFE
Частота : 48,0 КГц
Битовая глубина : 16 бит
Метод сжатия : С потерями
Размер потока : 287 Мбайт (14%)
Выравнивание : Разделение по промежуткам
Продолжительность промежутка : 42 мс. (1,00 видеокадр)
Время предзагрузки промежутка : 500 мс.
Заголовок : Original
-
- -
Download / Скачать

Хотите скачать бесплатно? Зарегистрируйтесь на сайте (ссылка на регистрацию). Pirat.ca - самый быстрый торрент трекер в рунете!

Как скачивать  ·   Что такое торрент  ·   Рейтинг и ограничения

Letyoha3

Легенда

1168

Пост 26-Авг-2013 06:48 (спустя 8 часов)

[Q] 

Спасибо!!!

_________________
Не стреляйте в пианиста - играет, как может
[Профиль]  [ЛС] 

prjadkin

Гроза морей

Пост 06-Авг-2014 16:31 (спустя 11 месяцев 11 дней)

[Q] 

спасибо, понравилось! Лови бочку
[Профиль]  [ЛС] 

prjadkin

Гроза морей

Пост 10-Авг-2014 07:31 (спустя 3 дня)

[Q] 

посмотрел и послушал с удовольствием! Лови бочку
[Профиль]  [ЛС] 

lightmaster

Гроза морей

Пост 02-Апр-2017 10:33 (спустя 2 года 7 месяцев)

[Q] 

Надо посмотреть обязательно, только на раздаче никого...
[Профиль]  [ЛС] 
Показать сообщения:    
Ответить на тему

Текущее время: Сегодня 07:59

Часовой пояс: GMT + 4



Вы не можете начинать темы
Вы не можете отвечать на сообщения
Вы не можете редактировать свои сообщения
Вы не можете удалять свои сообщения
Вы не можете голосовать в опросах
Вы не можете прикреплять файлы к сообщениям
Вы не можете скачивать файлы

Майнать ▼