(Rap, Hip-Hop) CENTR - Качели - 2007, FLAC (tracks+.cue) lossless

Ответить на тему
 
Автор
Сообщение

Пост 14-Май-2012 00:41

[Q] 

Roger

-CENTR / Качели-- --Жанр: Rap, Hip-Hop
Страна-производитель диска: Россия
Год издания диска: 2007
Аудио кодек: FLAC (*.flac)
Тип рипа: tracks+.cue
Битрейт аудио: lossless
Продолжительность: 01:06:39
--
1. Интро
2. Качели
3. Исповедь (feat. Стриж, Принцип)
4. Жара 77
5. Слайды
6. Город дорог (feat. Баста)
7. Легенды (feat. 5Плюх)
8. Не на экспорт (feat. TAHDEM Foundation)
9. Железное небо (feat. Принцип, Чума, Бледный)
10. Около клуба
11. Зима
12. Что успеем (feat. Стриж, Fame)
13. Мутные замуты (rmx)
14. Нюни (скит)
15. Нюни (feat. Джино)
16. Всем берегам (feat. Баста)
Exact Audio Copy V0.99 prebeta 5 from 4. May 2009
Отчёт EAC об извлечении, выполненном 27. января 2011, 19:40
CENTR / Качели
Дисковод: MATSHITADVD-RAM UJ-850S Adapter: 3 ID: 0
Режим чтения : Достоверность
Использование точного потока : Да
Отключение кэша аудио : Да
Использование указателей C2 : Нет
Коррекция смещения при чтении : 102
Способность читать области Lead-in и Lead-out : Нет
Заполнение пропущенных сэмплов тишиной : Да
Удаление блоков с тишиной в начале и конце : Нет
При вычислениях CRC использовались нулевые сэмплы : Да
Интерфейс : Встроенный Win32-интерфейс для Win NT/2000
Обработка зазоров : Добавлено к предыдущему треку
Выходной формат : Внутренние WAV-операции
Формат сэмплов : 44.100 Гц; 16 бит; стерео
TOC извлечённого CD
Трек | Старт | Длительность | Начальный сектор | Конечный сектор
---------------------------------------------------------------------
1 | 0:00.00 | 1:20.17 | 0 | 6016
2 | 1:20.17 | 4:57.53 | 6017 | 28344
3 | 6:17.70 | 4:25.07 | 28345 | 48226
4 | 10:43.02 | 4:11.46 | 48227 | 67097
5 | 14:54.48 | 3:56.54 | 67098 | 84851
6 | 18:51.27 | 4:30.43 | 84852 | 105144
7 | 23:21.70 | 4:20.02 | 105145 | 124646
8 | 27:41.72 | 4:13.58 | 124647 | 143679
9 | 31:55.55 | 4:46.36 | 143680 | 165165
10 | 36:42.16 | 4:43.00 | 165166 | 186390
11 | 41:25.16 | 4:43.37 | 186391 | 207652
12 | 46:08.53 | 5:12.06 | 207653 | 231058
13 | 51:20.59 | 3:46.74 | 231059 | 248082
14 | 55:07.58 | 0:56.42 | 248083 | 252324
15 | 56:04.25 | 5:36.21 | 252325 | 277545
16 | 61:40.46 | 5:05.07 | 277546 | 300427
17 | 69:17.53 | 9:13.59 | 311828 | 353361
Трек 1
Имя файла D:\Lossless\CENTR - Качели (2007)\01. CENTR - Интро.wav
Длина предзазора 0:00:02.00
Пиковый уровень 100.0 %
Качество трека 100.0 %
CRC теста 20ED9FD4
CRC копии 20ED9FD4
Точность не определена (достоверность 4) [5DB04062], AccurateRip вернул [59CBF7F7]
Копирование... OK
Трек 2
Имя файла D:\Lossless\CENTR - Качели (2007)\02. CENTR - Качели.wav
Пиковый уровень 100.0 %
Качество трека 100.0 %
CRC теста 186590E8
CRC копии 186590E8
Точность не определена (достоверность 4) [C777A7A9], AccurateRip вернул [A28BE1B9]
Копирование... OK
Трек 3
Имя файла D:\Lossless\CENTR - Качели (2007)\03. CENTR - Исповедь (feat. Стриж, Принцип).wav
Пиковый уровень 100.0 %
Качество трека 100.0 %
CRC теста 2C8AFB14
CRC копии 2C8AFB14
Точность не определена (достоверность 3) [4FF74207], AccurateRip вернул [53DE1377]
Копирование... OK
Трек 4
Имя файла D:\Lossless\CENTR - Качели (2007)\04. CENTR - Жара 77.wav
Пиковый уровень 100.0 %
Качество трека 100.0 %
CRC теста 4150B69F
CRC копии 4150B69F
Точность не определена (достоверность 3) [EF853922], AccurateRip вернул [E1D5EE72]
Копирование... OK
Трек 5
Имя файла D:\Lossless\CENTR - Качели (2007)\05. CENTR - Слайды.wav
Пиковый уровень 100.0 %
Качество трека 100.0 %
CRC теста C3E4F2C5
CRC копии C3E4F2C5
Точность не определена (достоверность 3) [F3702465], AccurateRip вернул [A6234405]
Копирование... OK
Трек 6
Имя файла D:\Lossless\CENTR - Качели (2007)\06. CENTR - Город дорог (feat. Баста).wav
Пиковый уровень 100.0 %
Качество трека 100.0 %
CRC теста B47E3572
CRC копии B47E3572
Точность не определена (достоверность 3) [3B3ECE78], AccurateRip вернул [35829180]
Копирование... OK
Трек 7
Имя файла D:\Lossless\CENTR - Качели (2007)\07. CENTR - Легенды (feat. 5Плюх).wav
Пиковый уровень 100.0 %
Качество трека 100.0 %
CRC теста 0FCD6109
CRC копии 0FCD6109
Точность не определена (достоверность 3) [596F9F18], AccurateRip вернул [349AC838]
Копирование... OK
Трек 8
Имя файла D:\Lossless\CENTR - Качели (2007)\08. CENTR - Не на экспорт (feat. TAHDEM Foundation).wav
Пиковый уровень 100.0 %
Качество трека 100.0 %
CRC теста 3C9EA615
CRC копии 3C9EA615
Точность не определена (достоверность 3) [737718F6], AccurateRip вернул [AD1670B6]
Копирование... OK
Трек 9
Имя файла D:\Lossless\CENTR - Качели (2007)\09. CENTR - Железное небо (feat. Принцип, Чума, Бледный).wav
Пиковый уровень 99.6 %
Качество трека 100.0 %
CRC теста E002EB5D
CRC копии E002EB5D
Точность не определена (достоверность 3) [07359A20], AccurateRip вернул [991935F0]
Копирование... OK
Трек 10
Имя файла D:\Lossless\CENTR - Качели (2007)\10. CENTR - Около клуба.wav
Пиковый уровень 100.0 %
Качество трека 100.0 %
CRC теста 941B060A
CRC копии 941B060A
Точность не определена (достоверность 3) [00DAADD0], AccurateRip вернул [10C17148]
Копирование... OK
Трек 11
Имя файла D:\Lossless\CENTR - Качели (2007)\11. CENTR - Зима.wav
Пиковый уровень 100.0 %
Качество трека 100.0 %
CRC теста 64D79E0E
CRC копии 64D79E0E
Точность не определена (достоверность 3) [90FBBC63], AccurateRip вернул [BB1FB153]
Копирование... OK
Трек 12
Имя файла D:\Lossless\CENTR - Качели (2007)\12. CENTR - Что успеем (feat. Стриж, Fame).wav
Пиковый уровень 100.0 %
Качество трека 100.0 %
CRC теста 9DF9A12B
CRC копии 9DF9A12B
Точность не определена (достоверность 3) [32832C95], AccurateRip вернул [41AB10BD]
Копирование... OK
Трек 13
Имя файла D:\Lossless\CENTR - Качели (2007)\13. CENTR - Мутные замуты (rmx).wav
Пиковый уровень 100.0 %
Качество трека 100.0 %
CRC теста A1C5FE25
CRC копии A1C5FE25
Точность не определена (достоверность 3) [7DC2FD75], AccurateRip вернул [50995095]
Копирование... OK
Трек 14
Имя файла D:\Lossless\CENTR - Качели (2007)\14. CENTR - Нюни (скит).wav
Пиковый уровень 100.0 %
Качество трека 100.0 %
CRC теста D1B7355C
CRC копии D1B7355C
Точность не определена (достоверность 3) [0C769186], AccurateRip вернул [C04D3956]
Копирование... OK
Трек 15
Имя файла D:\Lossless\CENTR - Качели (2007)\15. CENTR - Нюни (feat. Джино).wav
Пиковый уровень 100.0 %
Качество трека 100.0 %
CRC теста A50B73CC
CRC копии A50B73CC
Точность не определена (достоверность 3) [0153C728], AccurateRip вернул [D7F5D098]
Копирование... OK
Трек 16
Имя файла D:\Lossless\CENTR - Качели (2007)\16. CENTR - Всем берегам.wav
Пиковый уровень 100.0 %
Качество трека 100.0 %
CRC теста DE076D5F
CRC копии DE076D5F
Точность не определена (достоверность 3) [2B5E4C7F], AccurateRip вернул [BC50FE9E]
Копирование... OK
Ни один трек не прошёл проверки на точность
В вашей базе может быть иной вариант штамповки диска
Ошибок не произошло
Конец отчёта
REM GENRE Hip-Hop
REM DATE 2007
REM DISCID F1126711
REM COMMENT "ExactAudioCopy v0.99pb5"
PERFORMER "CENTR"
TITLE "Качели"
FILE "01. CENTR - Интро.flac" WAVE
TRACK 01 AUDIO
TITLE "Интро"
PERFORMER "CENTR"
INDEX 01 00:00:00
FILE "02. CENTR - Качели.flac" WAVE
TRACK 02 AUDIO
TITLE "Качели"
PERFORMER "CENTR"
INDEX 01 00:00:00
FILE "03. CENTR - Исповедь (feat. Стриж, Принцип).flac" WAVE
TRACK 03 AUDIO
TITLE "Исповедь (feat. Стриж, Принцип)"
PERFORMER "CENTR"
INDEX 01 00:00:00
FILE "04. CENTR - Жара 77.flac" WAVE
TRACK 04 AUDIO
TITLE "Жара 77"
PERFORMER "CENTR"
INDEX 01 00:00:00
FILE "05. CENTR - Слайды.flac" WAVE
TRACK 05 AUDIO
TITLE "Слайды"
PERFORMER "CENTR"
INDEX 01 00:00:00
FILE "06. CENTR - Город дорог (feat. Баста).flac" WAVE
TRACK 06 AUDIO
TITLE "Город дорог (feat. Баста)"
PERFORMER "CENTR"
INDEX 01 00:00:00
FILE "07. CENTR - Легенды (feat. 5Плюх).flac" WAVE
TRACK 07 AUDIO
TITLE "Легенды (feat. 5Плюх)"
PERFORMER "CENTR"
INDEX 01 00:00:00
FILE "08. CENTR - Не на экспорт (feat. TAHDEM Foundation).flac" WAVE
TRACK 08 AUDIO
TITLE "Не на экспорт (feat. TAHDEM Foundation)"
PERFORMER "CENTR"
INDEX 01 00:00:00
FILE "09. CENTR - Железное небо (feat. Принцип, Чума, Бледный).flac" WAVE
TRACK 09 AUDIO
TITLE "Железное небо (feat. Принцип, Чума, Бледный)"
PERFORMER "CENTR"
INDEX 01 00:00:00
FILE "10. CENTR - Около клуба.flac" WAVE
TRACK 10 AUDIO
TITLE "Около клуба"
PERFORMER "CENTR"
INDEX 01 00:00:00
FILE "11. CENTR - Зима.flac" WAVE
TRACK 11 AUDIO
TITLE "Зима"
PERFORMER "CENTR"
INDEX 01 00:00:00
FILE "12. CENTR - Что успеем (feat. Стриж, Fame).flac" WAVE
TRACK 12 AUDIO
TITLE "Что успеем (feat. Стриж, Fame)"
PERFORMER "CENTR"
INDEX 01 00:00:00
FILE "13. CENTR - Мутные замуты (rmx).flac" WAVE
TRACK 13 AUDIO
TITLE "Мутные замуты (rmx)"
PERFORMER "CENTR"
INDEX 01 00:00:00
FILE "14. CENTR - Нюни (скит).flac" WAVE
TRACK 14 AUDIO
TITLE "Нюни (скит)"
PERFORMER "CENTR"
INDEX 01 00:00:00
FILE "15. CENTR - Нюни (feat. Джино).flac" WAVE
TRACK 15 AUDIO
TITLE "Нюни (feat. Джино)"
PERFORMER "CENTR"
INDEX 01 00:00:00
FILE "16. CENTR - Всем берегам (feat. Баста).flac" WAVE
TRACK 16 AUDIO
TITLE "Всем берегам (feat. Баста)"
PERFORMER "CENTR"
INDEX 01 00:00:00
AUDIOCHECKER v2.0 beta (build 457) - by Dester - [email protected]
~~~~~~~~~~~~~~~~~~~~~~~~~~~~~~~~~~
Начато: четверг, 27. 01. 2011. - 19:55.05
Найдено файлов: 16
01 -===- D:\Lossless\CENTR - Качели (2007)\01. CENTR - Интро.wav
Заключение: этот трек - CDDA с вероятностью 100%
02 -===- D:\Lossless\CENTR - Качели (2007)\02. CENTR - Качели.wav
Заключение: этот трек - CDDA с вероятностью 100%
03 -===- D:\Lossless\CENTR - Качели (2007)\03. CENTR - Исповедь (feat. Стриж, Принцип).wav
Заключение: этот трек - CDDA с вероятностью 100%
04 -===- D:\Lossless\CENTR - Качели (2007)\04. CENTR - Жара 77.wav
Заключение: этот трек - CDDA с вероятностью 100%
05 -===- D:\Lossless\CENTR - Качели (2007)\05. CENTR - Слайды.wav
Заключение: этот трек - CDDA с вероятностью 100%
06 -===- D:\Lossless\CENTR - Качели (2007)\06. CENTR - Город дорог (feat. Баста).wav
Заключение: этот трек - CDDA с вероятностью 100%
07 -===- D:\Lossless\CENTR - Качели (2007)\07. CENTR - Легенды (feat. 5Плюх).wav
Заключение: этот трек - CDDA с вероятностью 100%
08 -===- D:\Lossless\CENTR - Качели (2007)\08. CENTR - Не на экспорт (feat. TAHDEM Foundation).wav
Заключение: этот трек - CDDA с вероятностью 100%
09 -===- D:\Lossless\CENTR - Качели (2007)\09. CENTR - Железное небо (feat. Принцип, Чума, Бледный).wav
Заключение: этот трек - CDDA с вероятностью 100%
10 -===- D:\Lossless\CENTR - Качели (2007)\10. CENTR - Около клуба.wav
Заключение: этот трек - CDDA с вероятностью 99%
11 -===- D:\Lossless\CENTR - Качели (2007)\11. CENTR - Зима.wav
Заключение: этот трек - CDDA с вероятностью 100%
12 -===- D:\Lossless\CENTR - Качели (2007)\12. CENTR - Что успеем (feat. Стриж, Fame).wav
Заключение: этот трек - CDDA с вероятностью 100%
13 -===- D:\Lossless\CENTR - Качели (2007)\13. CENTR - Мутные замуты (rmx).wav
Заключение: этот трек - CDDA с вероятностью 99%
14 -===- D:\Lossless\CENTR - Качели (2007)\14. CENTR - Нюни (скит).wav
Заключение: этот трек - CDDA с вероятностью 100%
15 -===- D:\Lossless\CENTR - Качели (2007)\15. CENTR - Нюни (feat. Джино).wav
Заключение: этот трек - CDDA с вероятностью 100%
16 -===- D:\Lossless\CENTR - Качели (2007)\16. CENTR - Всем берегам.wav
Заключение: этот трек - CDDA с вероятностью 100%
Завершено: четверг, 27. 01. 2011. - 20:03.11 (Время операции: 0:08.06)







--
--
Download / Скачать

Хотите скачать бесплатно? Зарегистрируйтесь на сайте (ссылка на регистрацию). Pirat.ca - самый быстрый торрент трекер в рунете!

Как скачивать  ·   Что такое торрент  ·   Рейтинг и ограничения

Mixrool

Корсар

Пост 14-Май-2012 20:39 (спустя 19 часов)

[Q] 

Альбом, ставший уже легендарным!
[Профиль]  [ЛС] 

Egoist31

Флибустьер

Пост 17-Апр-2017 00:53 (спустя 4 года 11 месяцев)

[Q] 

Автору респект!!!
Лови бочку
[Профиль]  [ЛС] 
Показать сообщения:    
Ответить на тему

Текущее время: Сегодня 23:18

Часовой пояс: GMT + 4



Вы не можете начинать темы
Вы не можете отвечать на сообщения
Вы не можете редактировать свои сообщения
Вы не можете удалять свои сообщения
Вы не можете голосовать в опросах
Вы не можете прикреплять файлы к сообщениям
Вы не можете скачивать файлы

Майнать ▼