(Pop-Folk) Белый День - Трактористка - 2003 [FLAC, image+.cue, lossless]

Ответить на тему
 
Автор
Сообщение

Пост 25-Апр-2017 22:13

[Q] 

Борей_64

Корсар

-Белый День / Трактористка-- Год издания: 2003
Страна: Россия
Жанр: Pop-Folk
Продолжительность: 00:48:16-Лейбл издания: Classic Company - CC CD 49/03
Формат: FLAC
Битрейт аудио: lossless
Тип рипа: image+.cue
Наличие сканов в содержимом раздачи: да-
01. Трактористка
02. Димочка
03. Дарья
04. Встали высокие сосны
05. Полюбила я еврея
06. Ласточка
07. От людей на деревне не спрячешься
08. Льются песни крылатые
09. Дальняя дорожка
10. Непогода
11. Так бывает
12. В День рождения
13. Люська
14. Сормовская лирическая
Код:
REM GENRE Pop-Folk
REM DATE 2003
REM DISCID C10B500E
REM COMMENT "ExactAudioCopy v1.3"
PERFORMER "Белый День"
TITLE "Трактористка"
REM COMPOSER ""
FILE "Белый День - Трактористка.flac" WAVE
  TRACK 01 AUDIO
    TITLE "Трактористка"
    PERFORMER "Белый День"
    REM COMPOSER ""
    INDEX 01 00:00:00
  TRACK 02 AUDIO
    TITLE "Димочка"
    PERFORMER "Белый День"
    REM COMPOSER ""
    INDEX 00 03:52:14
    INDEX 01 03:54:14
  TRACK 03 AUDIO
    TITLE "Дарья"
    PERFORMER "Белый День"
    REM COMPOSER ""
    INDEX 00 06:43:62
    INDEX 01 06:45:62
  TRACK 04 AUDIO
    TITLE "Встали высокие стены"
    PERFORMER "Белый День"
    REM COMPOSER ""
    INDEX 00 09:57:72
    INDEX 01 09:59:72
  TRACK 05 AUDIO
    TITLE "Полюбила я еврея"
    PERFORMER "Белый День"
    REM COMPOSER ""
    INDEX 00 12:44:01
    INDEX 01 12:46:01
  TRACK 06 AUDIO
    TITLE "Ласточка"
    PERFORMER "Белый День"
    REM COMPOSER ""
    INDEX 00 15:53:48
    INDEX 01 15:55:48
  TRACK 07 AUDIO
    TITLE "От людей на деревне не спрячешься"
    PERFORMER "Белый День"
    REM COMPOSER ""
    INDEX 00 20:56:64
    INDEX 01 20:58:64
  TRACK 08 AUDIO
    TITLE "Льются песни крылатые"
    PERFORMER "Белый День"
    REM COMPOSER ""
    INDEX 00 24:09:68
    INDEX 01 24:11:68
  TRACK 09 AUDIO
    TITLE "Дальняя дорожка"
    PERFORMER "Белый День"
    REM COMPOSER ""
    INDEX 00 28:30:50
    INDEX 01 28:32:50
  TRACK 10 AUDIO
    TITLE "Непогода"
    PERFORMER "Белый День"
    REM COMPOSER ""
    INDEX 00 31:25:58
    INDEX 01 31:27:58
  TRACK 11 AUDIO
    TITLE "Так бывает"
    PERFORMER "Белый День"
    REM COMPOSER ""
    INDEX 00 34:37:28
    INDEX 01 34:39:28
  TRACK 12 AUDIO
    TITLE "В День рождения"
    PERFORMER "Белый День"
    REM COMPOSER ""
    INDEX 00 38:03:11
    INDEX 01 38:05:11
  TRACK 13 AUDIO
    TITLE "Люська"
    PERFORMER "Белый День"
    REM COMPOSER ""
    INDEX 00 40:40:51
    INDEX 01 40:42:51
  TRACK 14 AUDIO
    TITLE "Сормовская лирическая"
    PERFORMER "Белый День"
    REM COMPOSER ""
    INDEX 00 43:59:55
    INDEX 01 44:01:55
Код:
-----------------------
DON'T MODIFY THIS FILE
-----------------------
PERFORMER: auCDtect Task Manager, ver. 1.6.0 RC1 build 1.6.0.1
Copyright (c) 2008-2010 y-soft. All rights reserved
http://y-soft.org
ANALYZER: auCDtect: CD records authenticity detector, version 0.8.2
Copyright (c) 2004 Oleg Berngardt. All rights reserved.
Copyright (c) 2004 Alexander Djourik. All rights reserved.
FILE: Белый День - Трактористка.flac
  Size: 331852674 Hash: 04A5866A076D5BA427F4B8C60AAC4DB7 Accuracy: -m0
  Conclusion: CDDA 100%
  Signature: 064DB7BA8EC5905810AC78A3C5830A20E70E9CCC
Код:
Exact Audio Copy V1.3 from 2. September 2016
Отчёт EAC об извлечении, выполненном 25. апреля 2017, 20:23
Белый День / Трактористка
Дисковод: Optiarc DVD RW AD-7173A   Adapter: 2  ID: 0
Режим чтения                 : Достоверность
Использование точного потока : Да
Отключение кэша аудио        : Да
Использование указателей C2  : Нет
Коррекция смещения при чтении                     : 48
Способность читать области Lead-in и Lead-out     : Нет
Заполнение пропущенных сэмплов тишиной            : Да
Удаление блоков с тишиной в начале и конце        : Нет
При вычислениях CRC использовались нулевые сэмплы : Да
Интерфейс                                         : Установленный внешний ASPI-интерфейс
Выходной формат          : Пользовательский кодировщик
Выбранный битрейт        : 128 kBit/s
Качество                 : Высокий
Добавление ID3-тега      : Нет
Утилита сжатия           : D:\Program Files\Exact_Audio Copy\Flac\flac.exe
Дополнительные параметры : -V -8 -T "Date=%year%" -T "Genre=%genre%" %source%
TOC извлечённого CD
     Трек |   Старт  | Длительность | Начальный сектор | Конечный сектор
    ---------------------------------------------------------------------
       1  |  0:00.00 |    3:54.14   |           0      |      17563
       2  |  3:54.14 |    2:51.48   |       17564      |      30436
       3  |  6:45.62 |    3:14.10   |       30437      |      44996
       4  |  9:59.72 |    2:46.04   |       44997      |      57450
       5  | 12:46.01 |    3:09.47   |       57451      |      71672
       6  | 15:55.48 |    5:03.16   |       71673      |      94413
       7  | 20:58.64 |    3:13.04   |       94414      |     108892
       8  | 24:11.68 |    4:20.57   |      108893      |     128449
       9  | 28:32.50 |    2:55.08   |      128450      |     141582
      10  | 31:27.58 |    3:11.45   |      141583      |     155952
      11  | 34:39.28 |    3:25.58   |      155953      |     171385
      12  | 38:05.11 |    2:37.40   |      171386      |     183200
      13  | 40:42.51 |    3:19.04   |      183201      |     198129
      14  | 44:01.55 |    4:14.41   |      198130      |     217220
Характеристики диапазона извлечения и сообщения об ошибках
Выбранный диапазон
     Имя файла D:\МУЗОН\Белый День - Трактористка.wav
     Пиковый уровень 96.6 %
     Скорость извлечения 5.1 X
     Качество диапазона 100.0 %
     CRC теста F0542890
     CRC копии F0542890
     Копирование... OK
Ошибок не произошло
Конец отчёта
==== Контрольная сумма отчёта B5AB178A48C16E47239920F28D23BFD8B7B70E939380A6A5286397707D75D983 ====
Код:
Общее
Полное имя                               : D:\МУЗОН\Белый День - Трактористка\Белый День - Трактористка.flac
Формат                                   : FLAC
Формат/Информация                        : Free Lossless Audio Codec
Размер файла                             : 316 Мбайт
Продолжительность                        : 48 м.
Режим общего битрейта                    : Переменный
Общий поток                              : 917 Кбит/сек
Жанр                                     : Pop-Folk
Дата записи                              : 2003
Аудио
Формат                                   : FLAC
Формат/Информация                        : Free Lossless Audio Codec
Продолжительность                        : 48 м.
Вид битрейта                             : Переменный
Битрейт                                  : 916 Кбит/сек
Каналы                                   : 2 канала
Частота                                  : 44,1 КГц
Битовая глубина                          : 16 бит
Размер потока                            : 316 Мбайт (100%)
Библиотека кодирования                   : libFLAC 1.3.1 (UTC 2014-11-25)
Download / Скачать

Хотите скачать бесплатно? Зарегистрируйтесь на сайте (ссылка на регистрацию). Pirat.ca - самый быстрый торрент трекер в рунете!

Как скачивать  ·   Что такое торрент  ·   Рейтинг и ограничения

Показать сообщения:    
Ответить на тему

Текущее время: Сегодня 11:24

Часовой пояс: GMT + 4



Вы не можете начинать темы
Вы не можете отвечать на сообщения
Вы не можете редактировать свои сообщения
Вы не можете удалять свои сообщения
Вы не можете голосовать в опросах
Вы не можете прикреплять файлы к сообщениям
Вы не можете скачивать файлы

Майнать ▼