Уважаемый Гость!
Вы можете поддержать проект и зарегистрироваться у наших партнеров - онлайн-стратегия MyLands. При регистрации в игре Вы получите код, который сможете активировать после регистрации на pirat.ca и получить 1000 дублонов.

Ваш код:
cbfc972db866f9f3df6a6fea4c2549cc4e2f5835
 
     

Порки 2: Следующий день / Porky's II: The Next Day (Боб Кларк / Bob Clark) [1983 г., комедия, BDRip, 720p] AVO (Гаврилов) + MVO

Ответить на тему
 
Автор
Сообщение

Пост 22-Апр-2017 22:54

[Q] 

leha1975

Гроза морей

Порки 2: Следующий день / Porky's II: The Next Day
Год выпуска: 1983
Производство: Канада, США
Жанр: комедия
Продолжительность: 01:37:38
Перевод: Авторский (одноголосый, закадровый) Гаврилов
Перевод 2: Профессиональный (многоголосый, закадровый)
Режиссер: Боб Кларк / Bob Clark

В ролях: Дэн Монахан, Уайатт Найт, Марк Херриер, Роджер Уилсон, Сирил О’Райлли, Тони Гэниос, Кэки Хантер, Скотт Коломби, Нэнси Парсонс, Джозеф Раннингфокс...
Описание: Едва расправившись с Порки, подростки из старшей школы Энджел Бич сталкиваются с новыми неприятностями: Школьный драматический клуб готовится организовать фестиваль Шекспира. К сожалению, религиозный лидер по имени преподобный Бабба Флавел хочет отменить фестиваль, потому, что он и его группа «Справедливое Скопление» считают, что Шекспир неприличен. Также в дело вступает местный Ку-клукс-клан, который крайне не доволен, тем, что Ромео играет индеец.

Сэмпл , [img]https://rating.kinopoisk.ru/64094.gif[/img]
Качество видео: BDRip
Контейнер: MKV
Стандарт разрешения: 720p
Видео кодек: H.264
Аудио кодек: AC3
Видео: 5 176 Kbps, 1 280*692 pixels, 1.850, 23.976 fps
Аудио : AC3, 48.0 kHz, 192 kb/s, 2 channels - Гаврилов
Аудио #2: AC3, 48.0 kHz, 192 kb/s, 2 channels - MVO
E:\PIRAT.CA\РАЗДАЧИ\Порки 2 Следующий день. BDRip 720p.mkv
General
Unique ID : 189941124521525620643123961347670663976 (0x8EE55476DC2677F08636B5F54E75E328)
Complete name : E:\PIRAT.CA\РАЗДАЧИ\Порки 2 Следующий день. BDRip 720p.mkv
Format : Matroska
Format version : Version 2
File size : 3.79 GiB
Duration : 1h 37mn
Overall bit rate : 5 561 Kbps
Encoded date : UTC 2017-04-23 11:57:32
Writing application : mkvmerge v7.8.0 ('River Man') 32bit built on Apr 3 2015 12:11:22
Writing library : libebml v1.3.1 + libmatroska v1.4.2
Video #1
ID : 1
Format : AVC
Format/Info : Advanced Video Codec
Format profile : [email protected]
Format settings, CABAC : Yes
Format settings, ReFrames : 9 frames
Codec ID : V_MPEG4/ISO/AVC
Duration : 1h 37mn
Bit rate : 5 176 Kbps
Width : 1 280 pixels
Height : 692 pixels
Display aspect ratio : 1.850
Frame rate : 23.976 fps
Color space : YUV
Chroma subsampling : 4:2:0
Bit depth : 8 bits
Scan type : Progressive
Bits/(Pixel*Frame) : 0.244
Stream size : 3.45 GiB (91%)
Writing library : x264 core 146 r2538 121396c
Encoding settings : cabac=1 / ref=9 / deblock=1:-2:-2 / analyse=0x3:0x133 / me=umh / subme=10 / psy=1 / psy_rd=1.00:0.00 / mixed_ref=1 / me_range=32 / chroma_me=1 / trellis=2 / 8x8dct=1 / cqm=0 / deadzone=21,11 / fast_pskip=0 / chroma_qp_offset=-2 / threads=12 / lookahead_threads=2 / sliced_threads=0 / nr=0 / decimate=0 / interlaced=0 / bluray_compat=0 / constrained_intra=0 / bframes=8 / b_pyramid=2 / b_adapt=2 / b_bias=0 / direct=3 / weightb=1 / open_gop=0 / weightp=2 / keyint=250 / keyint_min=23 / scenecut=40 / intra_refresh=0 / rc=2pass / mbtree=0 / bitrate=5176 / ratetol=1.0 / qcomp=0.60 / qpmin=0 / qpmax=69 / qpstep=4 / cplxblur=20.0 / qblur=0.5 / ip_ratio=1.40 / pb_ratio=1.30 / aq=1:1.00
Audio #2
ID : 2
Format : AC-3
Format/Info : Audio Coding 3
Mode extension : CM (complete main)
Codec ID : A_AC3
Duration : 1h 37mn
Bit rate mode : Constant
Bit rate : 192 Kbps
Channel(s) : 2 channels
Channel positions : Front: L R
Sampling rate : 48.0 KHz
Bit depth : 16 bits
Compression mode : Lossy
Stream size : 134 MiB (3%)
Title : ГАВРИЛОВ
Language : Russian
Audio #3
ID : 3
Format : AC-3
Format/Info : Audio Coding 3
Mode extension : CM (complete main)
Codec ID : A_AC3
Duration : 1h 37mn
Bit rate mode : Constant
Bit rate : 192 Kbps
Channel(s) : 2 channels
Channel positions : Front: L R
Sampling rate : 48.0 KHz
Bit depth : 16 bits
Compression mode : Lossy
Stream size : 134 MiB (3%)
Title : MVO
Language : Russian
avs4x26x.exe: -L x264_64.exe --pass 2 --bitrate 5176 --preset veryslow --profile high --level 4.1 --deblock -2:-2 --merange 32 --no-fast-pskip --no-dct-decimate --no-mbtree --psnr --ssim --sar 1:1 --stats "C:\Temp\0412.log" --output "C:\Temp\0412.264" "C:\Temp\0412.avs"
raw [info]: 1280x692p 1:1 @ 24000/1001 fps (cfr)
x264 [warning]: --psnr used with psy on: results will be invalid!
x264 [warning]: --tune psnr should be used if attempting to benchmark psnr!
x264 [info]: using SAR=1/1
x264 [info]: using cpu capabilities: MMX2 SSE2Fast SSSE3 SSE4.2 AVX
x264 [info]: profile High, level 4.1
x264 [info]: frame I:922 Avg QP:18.40 size: 99517 PSNR Mean Y:45.82 U:49.29 V:49.96 Avg:46.74 Global:46.54
x264 [info]: frame P:29469 Avg QP:21.06 size: 45744 PSNR Mean Y:43.78 U:47.85 V:48.40 Avg:44.79 Global:44.58
x264 [info]: frame B:110049 Avg QP:22.45 size: 21350 PSNR Mean Y:42.70 U:47.12 V:47.84 Avg:43.77 Global:43.55
x264 [info]: consecutive B-frames: 1.1% 1.3% 5.8% 28.7% 15.3% 41.9% 3.3% 1.2% 1.5%
x264 [info]: mb I I16..4: 1.6% 88.0% 10.4%
x264 [info]: mb P I16..4: 0.6% 16.3% 1.7% P16..4: 40.6% 25.5% 13.4% 0.2% 0.0% skip: 1.7%
x264 [info]: mb B I16..4: 0.1% 1.8% 0.2% B16..8: 45.5% 16.6% 3.9% direct:11.1% skip:20.9% L0:45.3% L1:43.7% BI:11.0%
x264 [info]: 8x8 transform intra:87.5% inter:70.2%
x264 [info]: direct mvs spatial:99.5% temporal:0.5%
x264 [info]: coded y,uvDC,uvAC intra: 91.9% 86.4% 47.0% inter: 46.0% 48.4% 7.6%
x264 [info]: i16 v,h,dc,p: 44% 11% 5% 41%
x264 [info]: i8 v,h,dc,ddl,ddr,vr,hd,vl,hu: 12% 6% 5% 10% 14% 15% 13% 12% 12%
x264 [info]: i4 v,h,dc,ddl,ddr,vr,hd,vl,hu: 25% 5% 2% 7% 13% 15% 12% 11% 10%
x264 [info]: i8c dc,h,v,p: 39% 21% 22% 17%
x264 [info]: Weighted P-Frames: Y:5.5% UV:2.9%
x264 [info]: ref P L0: 38.0% 12.6% 20.0% 7.3% 6.6% 4.7% 4.7% 2.8% 2.9% 0.3% 0.0%
x264 [info]: ref B L0: 66.1% 14.0% 7.4% 4.2% 3.2% 2.8% 1.6% 0.6%
x264 [info]: ref B L1: 91.6% 8.4%
x264 [info]: SSIM Mean Y:0.9696848 (15.183db)
x264 [info]: PSNR Mean Y:42.950 U:47.283 V:47.972 Avg:44.005 Global:43.764 kb/s:5175.26
x264 [total]: encoded 140440 frames, 5.50 fps, 5175.26 kb/s
Download / Скачать

Хотите скачать бесплатно? Зарегистрируйтесь на сайте (ссылка на регистрацию). Pirat.ca - самый быстрый торрент трекер в рунете!

Как скачивать  ·   Что такое торрент  ·   Рейтинг и ограничения

anton966

10209

Пост 27-Апр-2017 00:38 (спустя 4 дня)

[Q] 

Avg QP:18.40
Avg QP:21.06
Avg QP:22.45

Для HD этого многовато.

_________________
" ...потому что во многой мудрости много печали; и кто умножает познания, умножает скорбь" ( Еккл 1:17,18)
[Профиль]  [ЛС] 

leha1975 ®

Гроза морей

3435

Пост 27-Апр-2017 21:53 (спустя 21 час)

[Q] 

795817Avg QP:18.40
Avg QP:21.06
Avg QP:22.45

Для HD этого многовато.
А сколько надо?

_________________

[Профиль]  [ЛС] 
Показать сообщения:    
Ответить на тему

Текущее время: Сегодня 07:58

Часовой пояс: GMT + 4



Вы не можете начинать темы
Вы не можете отвечать на сообщения
Вы не можете редактировать свои сообщения
Вы не можете удалять свои сообщения
Вы не можете голосовать в опросах
Вы не можете прикреплять файлы к сообщениям
Вы не можете скачивать файлы

▼ Вниз