Уважаемый Гость!
Вы можете поддержать проект и зарегистрироваться у наших партнеров - онлайн-стратегия MyLands. При регистрации в игре Вы получите код, который сможете активировать после регистрации на pirat.ca и получить 1000 дублонов.

Ваш код:
e97448b672ad9b92bef9c116971d883e11324603
 
     

Девять ярдов / The Whole Nine Yards (Джонатан Линн / Jonathan Lynn) [2000, США, Криминальная комедия, WEBRip, 720p] AVO (Гаврилов, Визгунов)

Ответить на тему
 
Автор
Сообщение

Пост 05-Дек-2016 19:40

[Q] 

anton966

Девять ярдов / The Whole Nine Yards
«В каждой душе киллера живёт мечта о спокойной жизни. Неосуществимая»
- Страна: США
Жанр: Криминальная комедия
Год выпуска: 2000
Продолжительность: 01:38:53
Перевод: Авторский (одноголосый закадровый): Андрей Гаврилов + Сергей Визгунов;
Cубтитры: нет
Режиссер: Джонатан Линн / Jonathan Lynn
В ролях: Мэттью Перри / Matthew Perry, Брюс Уиллис / Bruce Willis, Майкл Кларк Данкан / Michael Clarke Duncan, Розанна Аркетт / Rosanna Arquette, Аманда Пит / Amanda Peet, Кевин Поллак / Kevin Pollak, Наташа Хенстридж / Natasha Henstridge
Описание: Простоватого и немного наивного дантиста Николаса Озерански (Перри) хотят убить жена Фиби (Аркетт) и теща, чтобы получить деньги по страховке. Оз, так называют его друзья, давно бы развелся со стервозной и алчной супругой, но знает, что останется гол как сокол. Действие происходит в Канаде. В доме рядом с Озом поселяется замечательный сосед (Уиллис), в котором Оз узнает знаменитого профессионального киллера из Чикаго Джимми Тедески, "сдавшего" в трудную минуту своего босса полиции. Фиби, пообещав Озу развод, немедленно отсылает мужа в Чикаго сообщить бывшему боссу о местонахождении Тедески, надеясь на "премиальные". Сама же нанимает киллера, чтобы тот прикончил мужа, если последний вернется домой живым. Но тщательно разработанный план дал сбой... Оз и Синтия, жена Джимми, познакомившись в Чикаго, влюбляются друг в друга, а Джимми влюбляется в Джилл (Пит), новую ассистентку Оза, мечтающую стать... профессиональной киллершей...
Классный комедийный боевик с остроумными диалогами, динамичным сюжетом и великолепно подобранными актерами
. (М. Иванов)

Качество видео: WEBRip-AVC
Контейнер: MKV
Видео кодек: MPEG-4 AVC / H.264
Видео: 1272x716 / 2812 kbps / 23,976 fps / 16:9 / High Profile 4.1
Аудио #1: 48 kHz, AC3 Dolby Digital, 3/2 (L,C,R,l,r) + LFE ch, ~448 kbps - Гаврилов
Аудио #2: 48 kHz, AC3 Dolby Digital, 3/2 (L,C,R,l,r) + LFE ch, ~448 kbps - Визгунов
О Дорожках: Гаврилов с DVD. Хоть и срезаны частоты по верхам, но голос более-менее нормально расставлен, а в HDTV 1080i на тру, где дорога сделана с выделенного голоса из дорожки с DVD и наложен на оригинал с того же DVD, сдвинутого на 2 сек. и слушать просто невозможно. Визгунов с того же HDTV 1080i на тру, но выделенный голос не сдвигался. Дорожки синхронизированны без перекодирования с помощью eac3to 3.29.
Сравнение видео ряда: http://screenshotcomparison.com/comparison/192521
Формат : Matroska
Версия формата : Version 4 / Version 2
Размер файла : 2,56 Гбайт
Продолжительность : 1 ч. 38 м.
Общий поток : 3710 Кбит/сек
Название фильма : The Whole Nine Yards.2000.720p.WEBRip-AVC -=anton966=-
Дата кодирования : UTC 2016-12-04 23:23:09
Программа кодирования : mkvmerge v8.3.0 ('Over the Horizon') 64bit
Библиотека кодирования : libebml v1.3.1 + libmatroska v1.4.2
Видео
Идентификатор : 1
Формат : AVC
Формат/Информация : Advanced Video Codec
Профиль формата : [email protected]
Параметр CABAC формата : Да
Параметр ReFrames формата : 9 кадров
Идентификатор кодека : V_MPEG4/ISO/AVC
Продолжительность : 1 ч. 38 м.
Битрейт : 2812 Кбит/сек
Ширина : 1272 пикселя
Высота : 716 пикселей
Соотношение сторон : 16:9
Режим частоты кадров : Постоянный
Частота кадров : 23,976 (23976/1000) кадра/сек
Цветовое пространство : YUV
Субдискретизация насыщенности : 4:2:0
Битовая глубина : 8 бит
Тип развёртки : Прогрессивная
Бит/(Пиксели*Кадры) : 0.129
Размер потока : 1,94 Гбайт (76%)
Заголовок : The Whole Nine Yards.2000.720p.WEBRip-AVC
Библиотека кодирования : x264 core 148 r2721kMod 72d53ab
Настройки программы : cabac=1 / ref=9 / deblock=1:-3:-3 / analyse=0x3:0x113 / me=umh / subme=11 / psy=1 / fade_compensate=0.00 / psy_rd=1.15:0.20 / mixed_ref=1 / me_range=32 / chroma_me=1 / trellis=2 / 8x8dct=1 / cqm=0 / deadzone=21,11 / fast_pskip=1 / chroma_qp_offset=-3 / threads=6 / lookahead_threads=8 / sliced_threads=0 / nr=0 / decimate=1 / interlaced=0 / bluray_compat=0 / constrained_intra=0 / fgo=0 / bframes=9 / b_pyramid=2 / b_adapt=2 / b_bias=0 / direct=1 / weightb=1 / open_gop=0 / weightp=2 / keyint=250 / keyint_min=23 / scenecut=40 / intra_refresh=0 / rc_lookahead=40 / rc=crf / mbtree=0 / crf=19.9000 / qcomp=0.60 / qpmin=0 / qpmax=69 / qpstep=4 / vbv_maxrate=50000 / vbv_bufsize=62500 / crf_max=0.0 / nal_hrd=none / filler=0 / ip_ratio=1.40 / pb_ratio=1.30 / aq=3:1.00
Язык : English
Default : Да
Forced : Нет
Цветовой диапазон : Limited
Основные цвета : BT.709
Характеристики трансфера : BT.709
Коэффициенты матрицы : BT.709
Аудио #1
Идентификатор : 2
Формат : AC-3
Формат/Информация : Audio Coding 3
Расширение режима : CM (complete main)
Параметр Endianness формата : Big
Идентификатор кодека : A_AC3
Продолжительность : 1 ч. 38 м.
Вид битрейта : Постоянный
Битрейт : 448 Кбит/сек
Каналы : 6 каналов
Расположение каналов : Front: L C R, Side: L R, LFE
Частота : 48,0 КГц
Частота кадров : 31,250 кадров/сек (1536 spf)
Битовая глубина : 16 бит
Метод сжатия : С потерями
Размер потока : 317 Мбайт (12%)
Заголовок : Gavrilov
Язык : Russian
Default : Да
Forced : Нет
Аудио #2
Идентификатор : 3
Формат : AC-3
Формат/Информация : Audio Coding 3
Расширение режима : CM (complete main)
Параметр Endianness формата : Big
Идентификатор кодека : A_AC3
Продолжительность : 1 ч. 38 м.
Вид битрейта : Постоянный
Битрейт : 448 Кбит/сек
Каналы : 6 каналов
Расположение каналов : Front: L C R, Side: L R, LFE
Частота : 48,0 КГц
Частота кадров : 31,250 кадров/сек (1536 spf)
Битовая глубина : 16 бит
Метод сжатия : С потерями
Размер потока : 317 Мбайт (12%)
Заголовок : Vizguтov
Язык : Russian
Default : Нет
Forced : Нет
Меню
00:00:00.000 : en:1.
00:02:54.000 : en:2.
00:05:11.000 : en:3.
00:07:23.000 : en:4.
00:11:33.000 : en:5.
00:15:15.000 : en:6.
00:19:32.000 : en:7.
00:23:01.000 : en:8.
00:28:16.000 : en:9.
00:30:29.000 : en:10.
00:36:40.000 : en:11.
00:39:24.000 : en:12.
00:45:45.000 : en:13.
00:47:14.000 : en:14.
00:53:44.000 : en:15.
00:57:59.000 : en:16.
01:02:29.000 : en:17.
01:05:54.000 : en:18.
01:09:27.000 : en:19.
01:14:10.000 : en:20.
01:18:57.000 : en:21.
01:23:50.000 : en:22.
01:28:04.000 : en:23.
01:31:47.000 : en:24.
01:35:16.000 : en:25.
avs [info]: 1272x716p 1:1 @ 2997/125 fps (cfr)
x264 [info]: using SAR=1/1
x264 [info]: using cpu capabilities: MMX2 SSE2Fast SSSE3 SSE4.2 AVX XOP FMA4 FMA3 LZCNT BMI1
x264 [info]: profile High, level 4.1
x264 [info]: cabac=1 ref=9 deblock=1:-3:-3 analyse=0x3:0x113 me=umh subme=11 psy=1 fade_compensate=0.00 psy_rd=1.15:0.20 mixed_ref=1 me_range=32 chroma_me=1 trellis=2 8x8dct=1 cqm=0 deadzone=21,11 fast_pskip=1 chroma_qp_offset=-3 threads=6 lookahead_threads=8 sliced_threads=0 nr=0 decimate=1 interlaced=0 bluray_compat=0 constrained_intra=0 fgo=0 bframes=9 b_pyramid=2 b_adapt=2 b_bias=0 direct=1 weightb=1 open_gop=0 weightp=2 keyint=250 keyint_min=23 scenecut=40 intra_refresh=0 rc_lookahead=40 rc=crf mbtree=0 crf=19.9000 qcomp=0.60 qpmin=0 qpmax=69 qpstep=4 vbv_maxrate=50000 vbv_bufsize=62500 crf_max=0.0 nal_hrd=none filler=0 ip_ratio=1.40 pb_ratio=1.30 aq=3:1.00
x264 [info]: frame I:1296 Avg QP:16.27 size: 81827
x264 [info]: frame P:38898 Avg QP:17.78 size: 29506
x264 [info]: frame B:102058 Avg QP:20.37 size: 8152
x264 [info]: consecutive B-frames: 2.3% 5.5% 5.3% 82.8% 2.3% 1.4% 0.1% 0.1% 0.0% 0.1%
x264 [info]: mb I I16..4: 5.9% 78.3% 15.8%
x264 [info]: mb P I16..4: 0.5% 10.1% 0.9% P16..4: 32.6% 38.8% 11.9% 0.0% 0.0% skip: 5.2%
x264 [info]: mb B I16..4: 0.1% 0.9% 0.1% B16..8: 32.2% 17.2% 2.3% direct: 4.9% skip:42.4% L0:38.3% L1:48.1% BI:13.6%
x264 [info]: 8x8 transform intra:85.8% inter:49.5%
x264 [info]: coded y,uvDC,uvAC intra: 92.5% 73.7% 40.1% inter: 16.9% 12.8% 0.7%
x264 [info]: i16 v,h,dc,p: 26% 9% 6% 59%
x264 [info]: i8 v,h,dc,ddl,ddr,vr,hd,vl,hu: 12% 11% 7% 8% 11% 13% 12% 13% 14%
x264 [info]: i4 v,h,dc,ddl,ddr,vr,hd,vl,hu: 16% 10% 3% 8% 14% 15% 13% 11% 11%
x264 [info]: i8c dc,h,v,p: 30% 30% 22% 18%
x264 [info]: Weighted P-Frames: Y:1.5% UV:0.9%
x264 [info]: ref P L0: 50.5% 8.7% 20.3% 5.5% 5.1% 3.2% 3.2% 1.6% 1.8% 0.1% 0.0%
x264 [info]: ref B L0: 84.5% 9.1% 2.8% 1.4% 0.9% 0.7% 0.5% 0.2%
x264 [info]: ref B L1: 98.0% 2.0%
x264 [info]: kb/s:2812.34
Download / Скачать

Хотите скачать бесплатно? Зарегистрируйтесь на сайте (ссылка на регистрацию). Pirat.ca - самый быстрый торрент трекер в рунете!

Как скачивать  ·   Что такое торрент  ·   Рейтинг и ограничения

Rei1

Легенда

Пост 28-Апр-2017 18:44 (спустя 4 месяца 22 дня)

[Q] 

Классный фильм! Всем качать!!!
[Профиль]  [ЛС] 
Показать сообщения:    
Ответить на тему

Текущее время: Сегодня 21:35

Часовой пояс: GMT + 4



Вы не можете начинать темы
Вы не можете отвечать на сообщения
Вы не можете редактировать свои сообщения
Вы не можете удалять свои сообщения
Вы не можете голосовать в опросах
Вы не можете прикреплять файлы к сообщениям
Вы не можете скачивать файлы

▼ Вниз