Уважаемый Гость!
Вы можете поддержать проект и зарегистрироваться у наших партнеров - онлайн-стратегия MyLands. При регистрации в игре Вы получите код, который сможете активировать после регистрации на pirat.ca и получить 1000 дублонов.

Ваш код:
d3bbd906dcd3cb9e17457607e92a6e485b6941fd
 
     

(Chanson) VA - Конкретные песни о жизни. [1998 г.] [FLAC, image+.cue, lossless]

Ответить на тему
 
Автор
Сообщение

Пост 14-Май-2017 00:35

[Q] 

Борей_64

Корсар

-Конкретные песни о жизни-- Год издания: 1998
Страна: Россия
Жанр: Chanson
Продолжительность: 00:55:28-Лейбл издания: Тандем-рекордз
Страна-выпуска диска: Россия
Номер по каталогу: СТCD 001-98-Формат: FLAC
Битрейт аудио: lossless
Тип рипа: image+.cue
Наличие сканов в содержимом раздачи: да-
01. Вячеслав Ворон "Я вернулся домой"
02. Александр Розенбаум "101-й километр"
03. Михаил Круг "Воробьи"
04. Владимир Утесов "Бубновый туз"
05. Юрий Алмазов "Русский мужик"
06. Алла Вторая "Полюбила я"
07. Владимир Асмолов "Моя Россия"
08. Саня Черный "Светка"
09. Гр.Персона "Мальчик я босой"
10. Петлюра "Бродяга-странник"
11. Сергей Гинзбург "Тетя Надя"
12. Вика Чинская "Молдаванка"
13. Геннадий Жаров и гр.Амнистия 2 "Измайлово"
14. Иван Московский "Огурчик"
15. Валерьян "Отчего,почему"
16. Вячеслав Ворон "Мариуполь"
Код:
Exact Audio Copy V1.3 from 2. September 2016
Отчёт EAC об извлечении, выполненном 13. мая 2017, 16:23
Various Artists / Конкретные песни о жизни
Дисковод: Optiarc DVD RW AD-7173A   Adapter: 1  ID: 0
Режим чтения                 : Достоверность
Использование точного потока : Да
Отключение кэша аудио        : Да
Использование указателей C2  : Нет
Коррекция смещения при чтении                     : 48
Способность читать области Lead-in и Lead-out     : Нет
Заполнение пропущенных сэмплов тишиной            : Да
Удаление блоков с тишиной в начале и конце        : Нет
При вычислениях CRC использовались нулевые сэмплы : Да
Интерфейс                                         : Встроенный Win32-интерфейс для Win NT/2000
Выходной формат          : Пользовательский кодировщик
Выбранный битрейт        : 128 kBit/s
Качество                 : Высокий
Добавление ID3-тега      : Да
Утилита сжатия           : D:\Program Files\FLAC\flac.exe
Дополнительные параметры :  -V -8 -T "Date=%year%" -T "Genre=%genre%" %source%
TOC извлечённого CD
     Трек |   Старт  | Длительность | Начальный сектор | Конечный сектор
    ---------------------------------------------------------------------
       1  |  0:00.55 |    3:12.05   |          55      |      14459
       2  |  3:12.60 |    2:55.07   |       14460      |      27591
       3  |  6:07.67 |    2:50.03   |       27592      |      40344
       4  |  8:57.70 |    4:19.06   |       40345      |      59775
       5  | 13:17.01 |    2:32.16   |       59776      |      71191
       6  | 15:49.17 |    3:08.71   |       71192      |      85362
       7  | 18:58.13 |    3:36.52   |       85363      |     101614
       8  | 22:34.65 |    4:38.68   |      101615      |     122532
       9  | 27:13.58 |    4:29.17   |      122533      |     142724
      10  | 31:43.00 |    4:46.26   |      142725      |     164200
      11  | 36:29.26 |    2:30.07   |      164201      |     175457
      12  | 38:59.33 |    3:13.63   |      175458      |     189995
      13  | 42:13.21 |    3:46.55   |      189996      |     207000
      14  | 46:00.01 |    1:58.43   |      207001      |     215893
      15  | 47:58.44 |    3:41.52   |      215894      |     232520
      16  | 51:40.21 |    3:49.29   |      232521      |     249724
Характеристики диапазона извлечения и сообщения об ошибках
Выбранный диапазон
     Имя файла C:\Users\Pavel\Desktop\0\00\Various Artists - Конкретные песни о жизни.wav
     Пиковый уровень 100.0 %
     Скорость извлечения 5.3 X
     Качество диапазона 100.0 %
     CRC теста A7586685
     CRC копии A7586685
     Копирование... OK
Ошибок не произошло
Конец отчёта
==== Контрольная сумма отчёта 9647086CC09F3EC935D692F99C4E4CC5CE4BE04CAA588266EBC9FF75928BD882 ====
Код:
REM GENRE Chanson
REM DATE 1998
REM DISCID DD0D0110
REM COMMENT "ExactAudioCopy v1.3"
PERFORMER "Various Artists"
TITLE "Конкретные песни о жизни"
REM COMPOSER ""
FILE "Various Artists - Конкретные песни о жизни.flac" WAVE
  TRACK 01 AUDIO
    TITLE "Я вернулся домой"
    PERFORMER "Вячеслав Ворон"
    REM COMPOSER ""
    INDEX 00 00:00:00
    INDEX 01 00:00:55
  TRACK 02 AUDIO
    TITLE "101-Й Километр"
    PERFORMER "Александр Розенбаум"
    REM COMPOSER ""
    INDEX 00 03:11:25
    INDEX 01 03:12:60
  TRACK 03 AUDIO
    TITLE "Воробьи"
    PERFORMER "Михаил Круг"
    REM COMPOSER ""
    INDEX 00 06:06:32
    INDEX 01 06:07:67
  TRACK 04 AUDIO
    TITLE "Бубновый туз"
    PERFORMER "Владимир Утесов"
    REM COMPOSER ""
    INDEX 00 08:56:35
    INDEX 01 08:57:70
  TRACK 05 AUDIO
    TITLE "Русский мужик"
    PERFORMER "Юрий Алмазов"
    REM COMPOSER ""
    INDEX 00 13:15:41
    INDEX 01 13:17:01
  TRACK 06 AUDIO
    TITLE "Полюбила я"
    PERFORMER "Алла Вторая"
    REM COMPOSER ""
    INDEX 00 15:47:57
    INDEX 01 15:49:17
  TRACK 07 AUDIO
    TITLE "Моя Россия"
    PERFORMER "Владимир Асмолов"
    REM COMPOSER ""
    INDEX 00 18:56:53
    INDEX 01 18:58:13
  TRACK 08 AUDIO
    TITLE "Светка"
    PERFORMER "Саня Черный"
    REM COMPOSER ""
    INDEX 00 22:33:30
    INDEX 01 22:34:65
  TRACK 09 AUDIO
    TITLE "Мальчик я босой"
    PERFORMER "Гр.Персона"
    REM COMPOSER ""
    INDEX 00 27:12:23
    INDEX 01 27:13:58
  TRACK 10 AUDIO
    TITLE "Бродяга-странник"
    PERFORMER "Петлюра"
    REM COMPOSER ""
    INDEX 00 31:41:40
    INDEX 01 31:43:00
  TRACK 11 AUDIO
    TITLE "Тетя Надя"
    PERFORMER "Сергей Гинзбург"
    REM COMPOSER ""
    INDEX 00 36:27:66
    INDEX 01 36:29:26
  TRACK 12 AUDIO
    TITLE "Молдаванка"
    PERFORMER "Вика Чинская"
    REM COMPOSER ""
    INDEX 00 38:57:73
    INDEX 01 38:59:33
  TRACK 13 AUDIO
    TITLE "Измайлово"
    PERFORMER "Геннадий Жаров и гр.Амнистия ||"
    REM COMPOSER ""
    INDEX 00 42:11:61
    INDEX 01 42:13:21
  TRACK 14 AUDIO
    TITLE "Огурчик"
    PERFORMER "Иван Московский"
    REM COMPOSER ""
    INDEX 00 45:58:41
    INDEX 01 46:00:01
  TRACK 15 AUDIO
    TITLE "Отчего,почему"
    PERFORMER "Валерьян"
    REM COMPOSER ""
    INDEX 00 47:57:09
    INDEX 01 47:58:44
  TRACK 16 AUDIO
    TITLE "Мариуполь"
    PERFORMER "Вячеслав Ворон"
    REM COMPOSER ""
    INDEX 00 51:38:61
    INDEX 01 51:40:21
Код:
AUDIOCHECKER v2.0 beta (build 457) - by Dester - [email protected]
~~~~~~~~~~~~~~~~~~~~~~~~~~~~~~~~~~
-=== НЕ РЕДАКТИРУЙТЕ ЭТОТ ФАЙЛ! ===-
Путь: ...\VA - Конкретные песни о жизни (1998 г)
1 -=- Various Artists - Конкретные песни о жизни.flac -=- CDDA (100%)
40769380
Download / Скачать

Хотите скачать бесплатно? Зарегистрируйтесь на сайте (ссылка на регистрацию). Pirat.ca - самый быстрый торрент трекер в рунете!

Как скачивать  ·   Что такое торрент  ·   Рейтинг и ограничения

Показать сообщения:    
Ответить на тему

Текущее время: Сегодня 09:46

Часовой пояс: GMT + 4



Вы не можете начинать темы
Вы не можете отвечать на сообщения
Вы не можете редактировать свои сообщения
Вы не можете удалять свои сообщения
Вы не можете голосовать в опросах
Вы не можете прикреплять файлы к сообщениям
Вы не можете скачивать файлы

▼ Вниз