Поезд в Пусан / Train to Busan (Ён Сан-хо / Yeon Sang-ho) [2016 г., боевик, триллер, ужасы, BDRip, 1080p] Dub (Rus, Eng) + VO (М. Чадов) + Original (Kor) + Sub (Rus, Eng)

Ответить на тему
 
Автор
Сообщение

Пост 04-Июн-2017 17:13

[Q] 

TERMOS

Легенда

-Поезд в Пусан / Train to Busan
«Остаться в живых или остаться человеком»
-- Производство: Южная Корея | Next Entertainment World
Год выпуска: 2016 г.
Жанр: боевик, триллер, ужасы
Продолжительность: 01:58:08
Перевод: Профессиональный (полное дублирование) [iTunes]
Перевод 2: Любительский (одноголосый, закадровый) [М. Чадов]
Оригинальный аудиопоток: корейский
Режиссёр: Ён Сан-хо / Yeon Sang-ho-В ролях: Кон Ю, Ма Дон-сок, Чон Ю-ми, Ким Су-ан, Ким И-сон, Чхве У-щик, Ан Со-хи, Чхве Гви-хва, Чон Сог-ён, Е Су-джон-Описание: У маленькой Су-ан день рождения. Девочка живет с отцом в Сеуле и очень хочет отправиться к маме в Пусан. По дороге случается непредвиденное, и на страну обрушивается загадочный вирус. Пассажирам поезда в Пусан - единственного города, отразившего атаки вируса- придется бороться за выживание. 442 километра в пути. Добро пожаловать на борт и помните - в этой гонке недостаточно выжить, чтобы остаться человеком.
- - -Качество видео: BDRip
Источник: Train to Busan (2016) Blu-ray 1080p Pro100ET
Контейнер: MKV
Стандарт разрешения: 1080p
Видео кодек: H.264/AVC
Аудио кодек: AC3
Видео: 1920x1040 at 23.976 fps , MPEG-4 AVC, ~15000 kbps avg
Аудио: Русский: 48 kHz, AC3, 3/2 (L,C,R,l,r) + LFE ch, ~384.00 kbps avg - |Дубляж, iTunes Russia|
Аудио #2: Русский: 48 kHz, DTS, 3/2 (L,C,R,l,r) + LFE ch, 1509.00 kbps avg - |Одноголосый закадровый, М. Чадов|
Аудио #3: English: 48 kHz, AC3, 3/2 (L,C,R,l,r) + LFE ch, ~384.00 kbps avg
Аудио #4: Korean: 48 kHz, AC3, 3/2 (L,C,R,l,r) + LFE ch, 640.00 kbps avg
Cубтитры: Russian (full), English (full)
• Актер Ма Дон-сок, сыгравший пассажира с беременной женой, был персональным тренером Кон Ю.
• Ён Сан-хо снял анимационный приквел к фильму под названием «Станция “Сеул”». События в нем разворачиваются за день до того, что происходит в продолжении.
• Это первая игровая картина режиссера Ён Сан-хо. До этого он снимал только анимационные ленты.
• «Поезд в Пусан» – первый южнокорейский фильм, собравший более $1 млн долларов в сингапурском бокс-офисе.
• Съемки картины продолжались с 26 апреля по 19 августа 2015 года.
• Кон Ю на самом деле родился в Пусане.
• Ан Со-хи, исполняющая роль Чин-хи, в прошлом пела в известной южнокорейской поп-группе Wonder Girls.
Код:
Format                      : Matroska
Format version              : Version 4 / Version 2
File size                   : 14.8 GiB
Duration                    : 1h 58mn
Overall bit rate            : 17.9 Mbps
Movie name                  : Train to Busan (2016) 1080P BDRip HDCLUB
Encoded date                : UTC 2017-05-18 09:07:07
Writing application         : mkvmerge v9.3.1 ('Mask Machine') 64bit
Writing library             : libebml v1.3.4 + libmatroska v1.4.5
Attachements                : cover.jpg
DURATION                    : 01:53:31.391000000
NUMBER_OF_FRAMES            : 863
NUMBER_OF_BYTES             : 19008
_STATISTICS_WRITING_APP     : mkvmerge v9.3.1 ('Mask Machine') 64bit
_STATISTICS_WRITING_DATE_UT : 2017-05-18 09:07:07
_STATISTICS_TAGS            : BPS DURATION NUMBER_OF_FRAMES NUMBER_OF_BYTES
Video
ID                          : 1
Format                      : AVC
Format/Info                 : Advanced Video Codec
Format profile              : High@L4.1
Format settings, CABAC      : Yes
Format settings, ReFrames   : 5 frames
Codec ID                    : V_MPEG4/ISO/AVC
Duration                    : 1h 58mn
Bit rate                    : 15.0 Mbps
Width                       : 1 920 pixels
Height                      : 1 040 pixels
Display aspect ratio        : 1.85:1
Frame rate mode             : Constant
Frame rate                  : 23.976 fps
Color space                 : YUV
Chroma subsampling          : 4:2:0
Bit depth                   : 8 bits
Scan type                   : Progressive
Bits/(Pixel*Frame)          : 0.313
Stream size                 : 12.1 GiB (82%)
Title                       : HD 1080P || Pro100 Encoding Team Japan
Writing library             : x264 core 129 M9479+75 64bit by ProCoder[2016.07.08]Japan
Encoding settings           : cabac=1 / ref=5 / deblock=1:-3:-3 / analyse=0x3:0x110 / me=umh / subme=11 / psy=1 / fade_compensate=0.00 / psy_rd=1.30:0.30 / mixed_ref=1 / me_range=48 / chroma_me=1 / trellis=2 / 8x8dct=1 / cqm=0 / deadzone=21,11 / fast_pskip=0 / chroma_qp_offset=-2 / threads=16 / lookahead_threads=4 / sliced_threads=0 / slices=60 / nr=0 / decimate=1 / interlaced=0 / bluray_compat=0 / constrained_intra=0 / fgo=0 / bframes=16 / b_pyramid=2 / b_adapt=2 / b_bias=16 / direct=2 / weightb=1 / open_gop=1 / weightp=2 / keyint=240 / keyint_min=23 / scenecut=40 / intra_refresh=0 / rc_lookahead=60 / rc=2pass / mbtree=1 / bitrate=14988 / ratetol=1.0 / qcomp=0.60 / qpmin=0 / qpmax=69 / qpstep=4 / cplxblur=20.0 / qblur=0.5 / vbv_maxrate=45000 / vbv_bufsize=97500 / nal_hrd=none / ip_ratio=1.35 / aq=3:0.60
Language                    : Korean
Default                     : Yes
Forced                      : No
Color primaries             : BT.709
Transfer characteristics    : BT.709
Matrix coefficients         : BT.709
Color range                 : Limited
Audio #1
ID                          : 2
Format                      : AC-3
Format/Info                 : Audio Coding 3
Mode extension              : CM (complete main)
Format settings, Endianness : Big
Codec ID                    : A_AC3
Duration                    : 1h 58mn
Bit rate mode               : Constant
Bit rate                    : 384 Kbps
Channel(s)                  : 6 channels
Channel positions           : Front: L C R, Side: L R, LFE
Sampling rate               : 48.0 KHz
Bit depth                   : 16 bits
Compression mode            : Lossy
Stream size                 : 324 MiB (2%)
Title                       : [Дубляж]
Language                    : Russian
Default                     : No
Forced                      : No
Audio #2
ID                          : 3
Format                      : DTS
Format/Info                 : Digital Theater Systems
Mode                        : 16
Format settings, Endianness : Big
Codec ID                    : A_DTS
Duration                    : 1h 58mn
Bit rate mode               : Constant
Bit rate                    : 1 509 Kbps
Channel(s)                  : 6 channels
Channel positions           : Front: L C R, Side: L R, LFE
Sampling rate               : 48.0 KHz
Bit depth                   : 24 bits
Compression mode            : Lossy
Stream size                 : 1.25 GiB (8%)
Title                       : [Авторский  М.Чадов]
Language                    : Russian
Default                     : No
Forced                      : No
Audio #3
ID                          : 4
Format                      : AC-3
Format/Info                 : Audio Coding 3
Mode extension              : CM (complete main)
Format settings, Endianness : Big
Codec ID                    : A_AC3
Duration                    : 1h 58mn
Bit rate mode               : Constant
Bit rate                    : 384 Kbps
Channel(s)                  : 6 channels
Channel positions           : Front: L C R, Side: L R, LFE
Sampling rate               : 48.0 KHz
Bit depth                   : 16 bits
Compression mode            : Lossy
Stream size                 : 324 MiB (2%)
Title                       : [Дубляж]
Language                    : English
Default                     : No
Forced                      : No
Audio #4
ID                          : 5
Format                      : AC-3
Format/Info                 : Audio Coding 3
Mode extension              : CM (complete main)
Format settings, Endianness : Big
Codec ID                    : A_AC3
Duration                    : 1h 58mn
Bit rate mode               : Constant
Bit rate                    : 640 Kbps
Channel(s)                  : 6 channels
Channel positions           : Front: L C R, Side: L R, LFE
Sampling rate               : 48.0 KHz
Bit depth                   : 16 bits
Compression mode            : Lossy
Stream size                 : 541 MiB (4%)
Title                       : [Korean Original]
Language                    : Korean
Default                     : No
Forced                      : No
Text #1
ID                          : 6
Format                      : UTF-8
Codec ID                    : S_TEXT/UTF8
Codec ID/Info               : UTF-8 Plain Text
Title                       : [русские субтитры]
Language                    : Russian
Default                     : No
Forced                      : No
Text #2
ID                          : 7
Format                      : UTF-8
Codec ID                    : S_TEXT/UTF8
Codec ID/Info               : UTF-8 Plain Text
Title                       : [английские субтитры]
Language                    : English
Default                     : No
Forced                      : No
Menu
00:00:00.000                : :Обострение конфликта
00:11:02.537                : :Посадка в поезд
00:19:35.216                : :Паника в поезде, инфицированные
00:29:38.443                : :Развитие конфликта
00:39:13.518                : :Инцидент на вокзале
00:51:01.850                : :Попытка пробиться сквозь зомби
00:59:30.025                : :Спасение выживших
01:08:15.091                : :Сдержать инфицированных
01:20:56.060                : :Истерия
01:29:58.268                : :Героизм машиниста
01:38:03.544                : :Столкновение поездов
01:49:07.583                : :Спасение ценой жизни, конец
Download / Скачать

Хотите скачать бесплатно? Зарегистрируйтесь на сайте (ссылка на регистрацию). Pirat.ca - самый быстрый торрент трекер в рунете!

Как скачивать  ·   Что такое торрент  ·   Рейтинг и ограничения

Gravida

Гроза морей

2318

Пост 04-Июн-2017 17:22 (спустя 9 минут)

[Q] 

Классный фильм) Теща аж подпрыгивала_
Автору респект!!!
[Профиль]  [ЛС] 
Показать сообщения:    
Ответить на тему

Текущее время: Сегодня 04:56

Часовой пояс: GMT + 4



Вы не можете начинать темы
Вы не можете отвечать на сообщения
Вы не можете редактировать свои сообщения
Вы не можете удалять свои сообщения
Вы не можете голосовать в опросах
Вы не можете прикреплять файлы к сообщениям
Вы не можете скачивать файлы

Майнать ▼