Уважаемый Гость!
Вы можете поддержать проект и зарегистрироваться у наших партнеров - онлайн-стратегия MyLands. При регистрации в игре Вы получите код, который сможете активировать после регистрации на pirat.ca и получить 1000 дублонов.

Ваш код:
26839cd8c6b4848714d1d2f8fd66233fc251c7ab
 
     

Везучий случай (Роман Самгин) [2017 г.,комедия, WEB-DLRip] Original (iTunes)

Ответить на тему
 
Автор
Сообщение

Пост 14-Апр-2017 20:27

[Q] 

ara1205

-Везучий случай-- Производство: Россия
Год выпуска: 2017 г.
Жанр: комедия
Продолжительность: 01:32:52
Перевод: Не требуется [iTunes]-Режиссер: Роман Самгин-В ролях: Андрей Рожков, Дмитрий Брекоткин, Вячеслав Мясников, Михаил Трухин, Алексей Маклаков, Олеся Железняк, Ольга Медынич, Ольга Дибцева, Валентина Мазунина, Юлия Михалкова-Описание: По сюжету фильма, Валерка с друзьями обнаруживает у себя лотерейный билет, который даже не помнит, кто и как покупал. А билет оказывается выигрышный — 43 миллиона рублей! Целое состояние для скромного Екатеринбурга! Да чего уж там, для целого отдела продавцов — Валерки и его друзей. Выигрыш решили делить на всех, устроили гулянку, настроили планов… но быстро поняли, что не видать им денег, если о них узнают жены. Мужики выкрадывают свои паспорта и сбегают из дома в Москву. А жены следуют за ними по пятам.- -Качество видео: WEB-DLRip
Контейнер: AVI
Видео кодек: XviD
Аудио кодек: AC3
Видео: 720x304, 24 fps, 2052 kbps avg, 0.391 bit/pixel
Аудио: 48 kHz, AC3 Dolby Digital, 2 ch, ~192 kbps
C:\Users\Roman\Pictures\НОВИНКИ\Везучий случай\Vezuchiy.sluchay.2017.WEB-DLRip.[pirat.ca].avi
General
Complete name : C:\Users\Roman\Pictures\НОВИНКИ\Везучий случай\Vezuchiy.sluchay.2017.WEB-DLRip.[pirat.ca].avi
Format : AVI
Format/Info : Audio Video Interleave
File size : 1.46 GiB
Duration : 1h 32mn
Overall bit rate : 2 251 Kbps
Video #0
ID : 0
Format : MPEG-4 Visual
Format profile : Advanced [email protected]
Format settings, BVOP : 1
Format settings, QPel : No
Format settings, GMC : No warppoints
Format settings, Matrix : Custom
Codec ID : XVID
Codec ID/Hint : XviD
Duration : 1h 32mn
Bit rate : 2 052 Kbps
Width : 720 pixels
Height : 304 pixels
Display aspect ratio : 2.35:1
Frame rate : 24.000 fps
Color space : YUV
Chroma subsampling : 4:2:0
Bit depth : 8 bits
Scan type : Progressive
Compression mode : Lossy
Bits/(Pixel*Frame) : 0.391
Stream size : 1.33 GiB (91%)
Writing library : XviD 73
Audio #1
ID : 1
Format : AC-3
Format/Info : Audio Coding 3
Mode extension : CM (complete main)
Codec ID : 2000
Duration : 1h 32mn
Bit rate mode : Constant
Bit rate : 192 Kbps
Channel(s) : 2 channels
Channel positions : Front: L R
Sampling rate : 48.0 KHz
Bit depth : 16 bits
Compression mode : Lossy
Stream size : 128 MiB (9%)
Alignment : Aligned on interleaves
Interleave, duration : 64 ms (1.54 video frames)
Interleave, preload duration : 192 ms
Title : iTunes
-
-
Download / Скачать

Хотите скачать бесплатно? Зарегистрируйтесь на сайте (ссылка на регистрацию). Pirat.ca - самый быстрый торрент трекер в рунете!

Как скачивать  ·   Что такое торрент  ·   Рейтинг и ограничения

Артур333

Лоцман

Пост 14-Апр-2017 22:09 (спустя 1 час 41 минута)

[Q] 

Не рекомендую к просмотру! Редкостная дрянь! За весь фильм нечего смешного не увидел и не услышал. Герои сделаны инфантильными. Смотреть немного противно.
[Профиль]  [ЛС] 

Sector_X

310

Пост 14-Апр-2017 22:10 (спустя 46 секунд)

[Q] 

Посмотрим чем нас "Пельмени" удивят ! Автору респект!!!

_________________

[Профиль]  [ЛС] 

Serprim

Лоцман

Пост 15-Апр-2017 14:51 (спустя 16 часов)

[Q] 

Фильм не понравился, время не тратить не стоит..
[Профиль]  [ЛС] 

SB

Штурман

Пост 15-Апр-2017 19:13 (спустя 4 часа)

[Q] 

Это и фильмом назвать сложно...Бредятина. Отказать
[Профиль]  [ЛС] 

grosboy

Гроза морей

Пост 16-Апр-2017 00:47 (спустя 5 часов)

[Q] 

В принципе фильм понравился. Юмор понятный смотреть можно.

_________________
Щастье есть - его не может не быть...
[Профиль]  [ЛС] 

realyu

Корсар

Пост 16-Апр-2017 01:55 (спустя 1 час 7 минут)

[Q] 

удалено, дабы у Курочки (ник такой) пукан не разрывало
[Профиль]  [ЛС] 

dronich74

Флибустьер

Пост 16-Апр-2017 21:50 (спустя 19 часов)

[Q] 

Спасибо посмотрю! Спасибо!!! Лови бочку
[Профиль]  [ЛС] 

Фундук

Штурман

Пост 19-Апр-2017 12:53 (спустя 2 дня 15 часов)

[Q] 

боюсь даже скачивать, у них и так в последнее время проблемы с юмором...
[Профиль]  [ЛС] 

windj

Корсар

73

Пост 19-Апр-2017 14:47 (спустя 1 час 53 минуты)

[Q] 

Из всей семьи, до конца досмотрел только я, в надежде, что хоть в конце что-то изменится и будет логическое завершение всего этого мракобесия... но нет.
Такое ощущение сложилось, что КВН-щики собрались поржать сами по себе и за одно сняли всё на камеру.
Два бала из десяти.

_________________
[Профиль]  [ЛС] 

baltimor30

Корсар

Пост 21-Апр-2017 16:14 (спустя 2 дня 1 час)

[Q] 

С перемоткой за 30 мин в принципе осилил
[Профиль]  [ЛС] 

s.v.l

Корсар

Пост 26-Апр-2017 01:07 (спустя 4 дня)

[Q] 

Ой как стыдно-то...
Смотреть это сложно, но высмеивать современную жизнь нужно!
[Профиль]  [ЛС] 

Alexlogin

Гроза морей

106

Пост 07-Май-2017 07:43 (спустя 11 дней)

[Q] 

Спасибо автору попробую посмотреть
[Профиль]  [ЛС] 

Пост 06-Июн-2017 00:07 (спустя 29 дней)

Топик был перенесен из форума Новинки (HD|DVD|BD| TV|SAT|PDTV| - Rips) в форум Российские фильмы
kugesan
 
Показать сообщения:    
Ответить на тему

Текущее время: Сегодня 08:10

Часовой пояс: GMT + 4



Вы не можете начинать темы
Вы не можете отвечать на сообщения
Вы не можете редактировать свои сообщения
Вы не можете удалять свои сообщения
Вы не можете голосовать в опросах
Вы не можете прикреплять файлы к сообщениям
Вы не можете скачивать файлы

▼ Вниз