Уважаемый Гость!
Вы можете поддержать проект и зарегистрироваться у наших партнеров - онлайн-стратегия MyLands. При регистрации в игре Вы получите код, который сможете активировать после регистрации на pirat.ca и получить 1000 дублонов.

Ваш код:
d3bbd906dcd3cb9e17457607e92a6e485b6941fd
 
     

Терминатор: Да придёт спаситель / Terminator Salvation (МакДжи / McG) [2009 г., фантастика, боевик, BDRip, 720р] Dub + MVO + AVO (Гаврилов, Володарский, Сербин, Горчаков) + original (Eng) + Sub (Rus, Eng)

Ответить на тему
 
Автор
Сообщение

Пост 15-Фев-2015 22:11

[Q] 

gross1978

-Терминатор: Да придёт спаситель / Terminator Salvation Режиссерская версия / Directed cut-- Год выпуска: 2009
Производство: США, The Halcyon Company
Жанр: фантастика, боевик
Продолжительность: 01:57:31-Перевод 1: Профессиональный (полное дублирование) Лицензия (с театралки)
Перевод 2: Профессиональный (многоголосый закадроый) Киномания
Перевод 3: Авторский (одноголосый, закадровый) Гаврилов
Перевод 4: Авторский (одноголосый, закадровый) Володарский
Перевод 5: Авторский (одноголосый, закадровый) Сербин
Перевод 6: Авторский (одноголосый, закадровый) Горчаков -Оригинальный аудиопоток: Английский
Субтитры: русские, английские
Режиссер: МакДжи / McG
В ролях: Кристиан Бэйл, Сэм Уортингтон, Мун Бладгуд, Хелена Бонем Картер, Антон Ельчин, Брайс Даллас Ховард, Коммон, Майкл Айронсайд, Майкл Пападжон, Терри Крюс
Описание: 2018 год. В мире наступила война с машинами. Джон Коннор — человек, чья судьба — возглавить Сопротивление электронному мозгу Скайнет и армии Терминаторов. Но в будущее, с верой в которое он возвращен, вклинивается таинственный Маркус Райт: незнакомец, чьи последние воспоминания рисуют камеру смертников.
Коннор должен понять, кто такой этот Маркус и с какой целью пожаловал к людям. И на фоне подготовки Скайнетом решающего удара, Коннор и Райт отправляются в путешествие, приводящее их в самую сердцевину взбунтовавшейся операционной системы, где открывается ужасная тайна, кроющаяся за потенциальным уничтожением человечества.
IMDB , КиноПоиск
Качество видео: BDRip, 720р
Контейнер: MKV
Видео кодек: AVC / h.264
Аудио кодек: AC3
Видео: 1280x536, 23.976fps, 4 129kbps, 0.251 bt/px
Аудио 1: 48 kHz, AC3 Dolby Digital, 3/2 (L,C,R,l,r) + LFE ch, ~448 kbps – дубляж
Аудио 2: 48 kHz, AC3 Dolby Digital, 3/2 (L,C,R,l,r) + LFE ch, ~448 kbps – закадровый
Аудио 3: 48 kHz, AC3 Dolby Digital, 3/2 (L,C,R,l,r) + LFE ch, ~448 kbps – Гаврилов
Аудио 4: 48 kHz, AC3 Dolby Digital, 3/2 (L,C,R,l,r) + LFE ch, ~384 kbps – Володарский
Аудио 5: 48 kHz, AC3 Dolby Digital, 3/2 (L,C,R,l,r) + LFE ch, ~448 kbps – Сербин
Аудио 6: 48 kHz, AC3 Dolby Digital, 3/2 (L,C,R,l,r) + LFE ch, ~448 kbps – Горчаков
Аудио 7: 48 kHz, AC3 Dolby Digital, 3/2 (L,C,R,l,r) + LFE ch, ~448 kbps – оригинал
Общее
Уникальный идентификатор : 193863340281550166657050673590027111446 (0x91D8B8A1A8A4B623BC796F0116734C16)
Полное имя : F:\Фильмы архив\__по актерам\Сэм Уортингтон\Терминатор. Да придет спаситель (Terminator Salvation, Director's cut, 2009, BDRip, 720p) dub-pm-Gavrilov-Volodarsky-Gorchakov-Serbin.mkv
Формат : Matroska
Версия формата : Version 2
Размер файла : 6,03 Гбайт
Продолжительность : 1 ч. 57 м.
Общий поток : 7347 Кбит/сек
Название фильма : rip by Gross
Дата кодирования : UTC 2015-01-31 12:39:50
Программа кодирования : mkvmerge v4.7.0 ('Just Like You Imagined') сборка от Apr 21 2011 01:13:14
Библиотека кодирования : libebml v1.2.0 + libmatroska v1.1.0
Видео
Идентификатор : 1
Формат : AVC
Формат/Информация : Advanced Video Codec
Профиль формата : [email protected]
Параметр CABAC формата : Да
Параметр ReFrames формата : 11 кадров
Идентификатор кодека : V_MPEG4/ISO/AVC
Продолжительность : 1 ч. 57 м.
Битрейт : 4129 Кбит/сек
Ширина : 1280 пикселей
Высота : 536 пикселей
Соотношение сторон : 2,40:1
Режим частоты кадров : Постоянный
Частота кадров : 23,976 кадра/сек
Цветовое пространство : YUV
Субдискретизация насыщенности : 4:2:0
Битовая глубина : 8 бит
Тип развёртки : Прогрессивная
Бит/(Пиксели*Кадры) : 0.251
Размер потока : 3,39 Гбайт (56%)
Библиотека кодирования : x264 core 142 r2431 ac76440
Настройки программы : cabac=1 / ref=11 / deblock=1:-3:-3 / analyse=0x3:0x133 / me=umh / subme=11 / psy=1 / psy_rd=1.00:0.05 / mixed_ref=1 / me_range=32 / chroma_me=1 / trellis=2 / 8x8dct=1 / cqm=0 / deadzone=21,11 / fast_pskip=0 / chroma_qp_offset=-3 / threads=3 / lookahead_threads=2 / sliced_threads=0 / nr=0 / decimate=1 / interlaced=0 / bluray_compat=0 / constrained_intra=0 / bframes=9 / b_pyramid=2 / b_adapt=2 / b_bias=0 / direct=1 / weightb=1 / open_gop=0 / weightp=2 / keyint=250 / keyint_min=23 / scenecut=40 / intra_refresh=0 / rc=crf / mbtree=0 / crf=18.0 / qcomp=0.60 / qpmin=0 / qpmax=69 / qpstep=4 / ip_ratio=1.40 / pb_ratio=1.30 / aq=1:1.00
Язык : English
Default : Да
Forced : Нет
Аудио #1
Идентификатор : 2
Формат : AC-3
Формат/Информация : Audio Coding 3
Расширение режима : CM (complete main)
Параметр Endianness формата : Big
Идентификатор кодека : A_AC3
Продолжительность : 1 ч. 57 м.
Вид битрейта : Постоянный
Битрейт : 448 Кбит/сек
Каналы : 6 каналов
Расположение каналов : Front: L C R, Side: L R, LFE
Частота : 48,0 КГц
Битовая глубина : 16 бит
Метод сжатия : С потерями
Размер потока : 377 Мбайт (6%)
Заголовок : dub (R5)
Язык : Russian
Default : Да
Forced : Нет
Аудио #2
Идентификатор : 3
Формат : AC-3
Формат/Информация : Audio Coding 3
Расширение режима : CM (complete main)
Параметр Endianness формата : Big
Идентификатор кодека : A_AC3
Продолжительность : 1 ч. 57 м.
Вид битрейта : Постоянный
Битрейт : 448 Кбит/сек
Каналы : 6 каналов
Расположение каналов : Front: L C R, Side: L R, LFE
Частота : 48,0 КГц
Битовая глубина : 16 бит
Метод сжатия : С потерями
Размер потока : 377 Мбайт (6%)
Заголовок : pm (Kinomania)
Язык : Russian
Default : Нет
Forced : Нет
Аудио #3
Идентификатор : 4
Формат : AC-3
Формат/Информация : Audio Coding 3
Расширение режима : CM (complete main)
Параметр Endianness формата : Big
Идентификатор кодека : A_AC3
Продолжительность : 1 ч. 57 м.
Вид битрейта : Постоянный
Битрейт : 448 Кбит/сек
Каналы : 6 каналов
Расположение каналов : Front: L C R, Side: L R, LFE
Частота : 48,0 КГц
Битовая глубина : 16 бит
Метод сжатия : С потерями
Размер потока : 377 Мбайт (6%)
Заголовок : A1 (Gavrilov)
Язык : Russian
Default : Нет
Forced : Нет
Аудио #4
Идентификатор : 5
Формат : AC-3
Формат/Информация : Audio Coding 3
Расширение режима : CM (complete main)
Параметр Endianness формата : Big
Идентификатор кодека : A_AC3
Продолжительность : 1 ч. 57 м.
Вид битрейта : Постоянный
Битрейт : 384 Кбит/сек
Каналы : 6 каналов
Расположение каналов : Front: L C R, Side: L R, LFE
Частота : 48,0 КГц
Битовая глубина : 16 бит
Метод сжатия : С потерями
Размер потока : 323 Мбайт (5%)
Заголовок : A1 (Volodarsky)
Язык : Russian
Default : Нет
Forced : Нет
Аудио #5
Идентификатор : 6
Формат : AC-3
Формат/Информация : Audio Coding 3
Расширение режима : CM (complete main)
Параметр Endianness формата : Big
Идентификатор кодека : A_AC3
Продолжительность : 1 ч. 57 м.
Вид битрейта : Постоянный
Битрейт : 448 Кбит/сек
Каналы : 6 каналов
Расположение каналов : Front: L C R, Side: L R, LFE
Частота : 48,0 КГц
Битовая глубина : 16 бит
Метод сжатия : С потерями
Размер потока : 377 Мбайт (6%)
Заголовок : A1 (Serbin)
Язык : Russian
Default : Нет
Forced : Нет
Аудио #6
Идентификатор : 7
Формат : AC-3
Формат/Информация : Audio Coding 3
Расширение режима : CM (complete main)
Параметр Endianness формата : Big
Идентификатор кодека : A_AC3
Продолжительность : 1 ч. 57 м.
Вид битрейта : Постоянный
Битрейт : 448 Кбит/сек
Каналы : 6 каналов
Расположение каналов : Front: L C R, Side: L R, LFE
Частота : 48,0 КГц
Битовая глубина : 16 бит
Метод сжатия : С потерями
Размер потока : 377 Мбайт (6%)
Заголовок : A1 (Gorchakov)
Язык : Russian
Default : Нет
Forced : Нет
Аудио #7
Идентификатор : 8
Формат : AC-3
Формат/Информация : Audio Coding 3
Расширение режима : CM (complete main)
Параметр Endianness формата : Big
Идентификатор кодека : A_AC3
Продолжительность : 1 ч. 57 м.
Вид битрейта : Постоянный
Битрейт : 448 Кбит/сек
Каналы : 6 каналов
Расположение каналов : Front: L C R, Side: L R, LFE
Частота : 48,0 КГц
Битовая глубина : 16 бит
Метод сжатия : С потерями
Размер потока : 377 Мбайт (6%)
Заголовок : original
Язык : English
Default : Нет
Forced : Нет
Текст #1
Идентификатор : 9
Формат : UTF-8
Идентификатор кодека : S_TEXT/UTF8
Идентификатор кодека/Информация : UTF-8 Plain Text
Язык : Russian
Default : Нет
Forced : Нет
Текст #2
Идентификатор : 10
Формат : UTF-8
Идентификатор кодека : S_TEXT/UTF8
Идентификатор кодека/Информация : UTF-8 Plain Text
Язык : English
Default : Нет
Forced : Нет
x264 [info]: frame I:1232 Avg QP:15.37 size: 86239
x264 [info]: frame P:44790 Avg QP:16.98 size: 40283
x264 [info]: frame B:123035 Avg QP:20.35 size: 15070
x264 [info]: consecutive B-frames: 5.0% 5.6% 14.3% 20.4% 19.5% 30.0% 3.7% 0.9% 0.5% 0.2%
x264 [info]: mb I I16..4: 5.4% 82.0% 12.6%
x264 [info]: mb P I16..4: 0.7% 20.3% 1.5% P16..4: 27.3% 36.0% 11.4% 1.7% 0.1% skip: 1.0%
x264 [info]: mb B I16..4: 0.1% 3.0% 0.2% B16..8: 39.1% 24.0% 3.8% direct: 5.0% skip:24.8% L0:42.7% L1:46.7% BI:10.6%
x264 [info]: 8x8 transform intra:90.0% inter:61.0%
x264 [info]: coded y,uvDC,uvAC intra: 95.9% 68.0% 43.1% inter: 29.0% 14.2% 2.0%
x264 [info]: i16 v,h,dc,p: 11% 10% 7% 73%
x264 [info]: i8 v,h,dc,ddl,ddr,vr,hd,vl,hu: 9% 7% 10% 10% 14% 12% 13% 11% 13%
x264 [info]: i4 v,h,dc,ddl,ddr,vr,hd,vl,hu: 11% 7% 3% 10% 16% 14% 15% 11% 13%
x264 [info]: i8c dc,h,v,p: 34% 34% 18% 14%
x264 [info]: Weighted P-Frames: Y:29.2% UV:20.6%
x264 [info]: ref P L0: 44.0% 7.9% 17.4% 7.4% 5.9% 4.4% 4.1% 2.4% 2.1% 1.8% 1.7% 0.8% 0.2%
x264 [info]: ref B L0: 75.0% 10.0% 5.0% 2.8% 2.0% 1.7% 1.6% 1.1% 0.6% 0.3%
x264 [info]: ref B L1: 94.4% 5.6%
x264 [info]: kb/s:4271.26
encoded 169057 frames, 1.02 fps, 4271.27 kb/s
Автор рипа:
За Володарского Спасибо Wolf Larsen, остальные переводы из своей коллекции.
Download / Скачать

Хотите скачать бесплатно? Зарегистрируйтесь на сайте (ссылка на регистрацию). Pirat.ca - самый быстрый торрент трекер в рунете!

Как скачивать  ·   Что такое торрент  ·   Рейтинг и ограничения



Последний раз редактировалось: gross1978 (2016-03-17 21:20), всего редактировалось 2 раз(а)

Antarres

Легенда

Пост 15-Фев-2015 22:56 (спустя 44 минуты)

[Q] 

Thanks!

_________________
[Профиль]  [ЛС] 

gross1978 ®

7580

Пост 17-Мар-2016 21:20 (спустя 1 год 1 месяц)

[Q] 

Обновил торрент в связи с отсутствием сидов. Стою на раздаче.

_________________
Употребляйте правильно слова, и вы избавите мир от половины недоразумений (Р.Декарт).
Если у Вас есть переводы в авторском, которых нет в моих раздачах и желание ими поделиться, пишите, добавим:)
[Профиль]  [ЛС] 

Alastor

Лоцман

2

Пост 18-Мар-2016 00:11 (спустя 2 часа 50 минут)

[Q] 

сегодня перед сном заценю в авторском.
Спасибо!!!
[Профиль]  [ЛС] 

Purshun

Морской Волк

123

Пост 19-Мар-2016 01:50 (спустя 1 день 1 час)

[Q] 

Спасибо gross1978!
Автору респект!!! Лови бочку

_________________
[Профиль]  [ЛС] 

Wolfmother

Пост 08-Июн-2017 02:04 (спустя 1 год 2 месяца)

[Q] 

Господа!
19-го числа этого месяца исполнится ровно год, как на одной планете с нами нет прекрасного актёра и просто хорошего парня Антона Ельчина.
Хотелось очень пересмотреть этот замечательный фильм в авторских переводах,если можно.
Раздайте,пожалуйста!
Спасибо. ax
[Профиль]  [ЛС] 
Показать сообщения:    
Ответить на тему

Текущее время: Сегодня 09:38

Часовой пояс: GMT + 4



Вы не можете начинать темы
Вы не можете отвечать на сообщения
Вы не можете редактировать свои сообщения
Вы не можете удалять свои сообщения
Вы не можете голосовать в опросах
Вы не можете прикреплять файлы к сообщениям
Вы не можете скачивать файлы

▼ Вниз