(Euro-Disco, Synth-pop, Europop) Lian Ross - And The Beat Goes On (2CD) - 2016 [FLAC, image +.cue, lossless]

Ответить на тему
 
Автор
Сообщение

Пост 02-Июл-2017 19:10

[Q] 

sergej644

-Lian Ross - And The Beat Goes On (2CD)--
Год издания: 2016
Страна: Germany
Жанр: Euro-Disco, Synth-pop, Europop
Продолжительность: 01:34:46-Лейбл издания: Team 33 Music, Weiss Records
Страна-выпуска диска: Germany
Номер по каталогу: 332016148-Формат: FLAC
Битрейт аудио: Lossless
Тип рипа: image +.cue
Наличие сканов в содержимом раздачи: да
-

01. All We Need Is Love (4:11)
02. Game Of Love (3:58)
03. You're My Heart You're My Soul ft. Big Daddi (4:05)
04. Dr. Mabuse (3:54)
05. Everything is Possible (3:29)
06. Bang Bang ft. Luigi Ricco & Tapo y Raya (3:03)
07. You're The One ft. Big Daddi (3:25)
08. A Night To Remember (3:27)
09. Cassanova (3:24)
10. Looking Through The Eyes Of Love (4:34)
11. All We Need Is Love ft. TQ (Extended Mix) (6:53)
12. Game Of Love ft. Mode One (Extended Mix) (6:01)
13. Everything Is Possible ft. Kafй Pa 3 (3:27)

01. Make A Party (3:25)
02. All About You (3:22)
03. Get Closer ft. David Tavarй (3:53)
04. Good Feeling Power ft. Big Daddi (3:34)
05. You're My Heart You're My Soul (Bobby To & Phillyboy Remix) (6:32)
06. Young Hearts Run Free (Deep Mix) (6:05)
07. Around The World (Deep Mix) (5:36)
08. Make A Party (Phillyboy Remix) (3:19)
09. Around The World (Original Extended) (5:11)
-
Код:
Exact Audio Copy V1.0 beta 3 from 29. August 2011
EAC extraction logfile from 7. September 2016, 0:38
Lian Ross / And The Beat Goes On - DISC 1
Used drive  : PIONEER BD-RW   BDR-TD03   Adapter: 0  ID: 1
Read mode               : Secure
Utilize accurate stream : Yes
Defeat audio cache      : Yes
Make use of C2 pointers : No
Read offset correction                      : 667
Overread into Lead-In and Lead-Out          : No
Fill up missing offset samples with silence : Yes
Delete leading and trailing silent blocks   : No
Null samples used in CRC calculations       : Yes
Used interface                              : Native Win32 interface for Win NT & 2000
Used output format              : User Defined Encoder
Selected bitrate                : 768 kBit/s
Quality                         : High
Add ID3 tag                     : No
Command line compressor         : C:\Program Files (x86)\Exact Audio Copy\FLAC\FLAC.EXE
Additional command line options : -6 -V -T "ARTIST=%artist%" -T "TITLE=%title%" -T "ALBUM=%albumtitle%" -T "DATE=%year%" -T "TRACKNUMBER=%tracknr%" -T "GENRE=%genre%" -T "COMMENT=%comment%" -T "BAND=%albuminterpret%" -T "ALBUMARTIST=%albuminterpret%" -T "COMPOSER=%composer%" %haslyrics%--tag-from-file=LYRICS="%lyricsfile%"%haslyrics% -T "DISCNUMBER=%cdnumber%" -T "TOTALDISCS=%totalcds%" -T "TOTALTRACKS=%numtracks%" %hascover%--picture="%coverfile%"%hascover% %source% -o %dest%
TOC of the extracted CD
     Track |   Start  |  Length  | Start sector | End sector
    ---------------------------------------------------------
        1  |  0:00.00 |  4:10.64 |         0    |    18813
        2  |  4:10.64 |  3:57.46 |     18814    |    36634
        3  |  8:08.35 |  4:05.21 |     36635    |    55030
        4  | 12:13.56 |  3:53.60 |     55031    |    72565
        5  | 16:07.41 |  3:28.43 |     72566    |    88208
        6  | 19:36.09 |  3:02.41 |     88209    |   101899
        7  | 22:38.50 |  3:24.38 |    101900    |   117237
        8  | 26:03.13 |  3:27.02 |    117238    |   132764
        9  | 29:30.15 |  3:24.34 |    132765    |   148098
       10  | 32:54.49 |  4:33.40 |    148099    |   168613
       11  | 37:28.14 |  6:53.37 |    168614    |   199625
       12  | 44:21.51 |  6:00.69 |    199626    |   226694
       13  | 50:22.45 |  3:27.20 |    226695    |   242239
Range status and errors
Selected range
     Filename C:\Users\Deris\Desktop\kpnemo.eu\LiRos\CD1\Lian Ross - And The Beat Goes On - DISC 1.wav
     Peak level 100.0 %
     Extraction speed 4.7 X
     Range quality 100.0 %
     Test CRC FE66F110
     Copy CRC FE66F110
     Copy OK
No errors occurred
AccurateRip summary
Track  1  not present in database
Track  2  not present in database
Track  3  not present in database
Track  4  not present in database
Track  5  not present in database
Track  6  not present in database
Track  7  not present in database
Track  8  not present in database
Track  9  not present in database
Track 10  not present in database
Track 11  not present in database
Track 12  not present in database
Track 13  not present in database
None of the tracks are present in the AccurateRip database
End of status report
Код:
Exact Audio Copy V1.0 beta 3 from 29. August 2011
EAC extraction logfile from 7. September 2016, 1:52
Lian Ross / And The Beat Goes On - DISC 2
Used drive  : PIONEER BD-RW   BDR-TD03   Adapter: 0  ID: 1
Read mode               : Secure
Utilize accurate stream : Yes
Defeat audio cache      : Yes
Make use of C2 pointers : No
Read offset correction                      : 667
Overread into Lead-In and Lead-Out          : No
Fill up missing offset samples with silence : Yes
Delete leading and trailing silent blocks   : No
Null samples used in CRC calculations       : Yes
Used interface                              : Native Win32 interface for Win NT & 2000
Used output format              : User Defined Encoder
Selected bitrate                : 768 kBit/s
Quality                         : High
Add ID3 tag                     : No
Command line compressor         : C:\Program Files (x86)\Exact Audio Copy\FLAC\FLAC.EXE
Additional command line options : -6 -V -T "ARTIST=%artist%" -T "TITLE=%title%" -T "ALBUM=%albumtitle%" -T "DATE=%year%" -T "TRACKNUMBER=%tracknr%" -T "GENRE=%genre%" -T "COMMENT=%comment%" -T "BAND=%albuminterpret%" -T "ALBUMARTIST=%albuminterpret%" -T "COMPOSER=%composer%" %haslyrics%--tag-from-file=LYRICS="%lyricsfile%"%haslyrics% -T "DISCNUMBER=%cdnumber%" -T "TOTALDISCS=%totalcds%" -T "TOTALTRACKS=%numtracks%" %hascover%--picture="%coverfile%"%hascover% %source% -o %dest%
TOC of the extracted CD
     Track |   Start  |  Length  | Start sector | End sector
    ---------------------------------------------------------
        1  |  0:00.00 |  3:24.38 |         0    |    15337
        2  |  3:24.38 |  3:22.16 |     15338    |    30503
        3  |  6:46.54 |  3:53.11 |     30504    |    47989
        4  | 10:39.65 |  3:33.51 |     47990    |    64015
        5  | 14:13.41 |  6:31.42 |     64016    |    93382
        6  | 20:45.08 |  6:05.13 |     93383    |   120770
        7  | 26:50.21 |  5:35.45 |    120771    |   145940
        8  | 32:25.66 |  3:19.35 |    145941    |   160900
        9  | 35:45.26 |  5:11.18 |    160901    |   184243
Range status and errors
Selected range
     Filename C:\Users\Deris\Desktop\kpnemo.eu\LiRos\Cd2\Lian Ross - And The Beat Goes On - DISC 2.wav
     Peak level 100.0 %
     Extraction speed 4.4 X
     Range quality 100.0 %
     Test CRC 9592EA2B
     Copy CRC 9592EA2B
     Copy OK
No errors occurred
AccurateRip summary
Track  1  not present in database
Track  2  not present in database
Track  3  not present in database
Track  4  not present in database
Track  5  not present in database
Track  6  not present in database
Track  7  not present in database
Track  8  not present in database
Track  9  not present in database
None of the tracks are present in the AccurateRip database
End of status report
Код:
REM GENRE Eurodance
REM DATE 2016
REM DISCID B60C9D0D
REM COMMENT "ExactAudioCopy v1.0b3"
PERFORMER "Lian Ross"
TITLE "And The Beat Goes On - DISC 1"
FILE "Lian Ross - And The Beat Goes On - DISC 1.flac" WAVE
  TRACK 01 AUDIO
    TITLE "All We Need Is Love"
    PERFORMER "Lian Ross"
    INDEX 01 00:00:00
  TRACK 02 AUDIO
    TITLE "Game Of Love"
    PERFORMER "Lian Ross"
    INDEX 01 04:10:64
  TRACK 03 AUDIO
    TITLE "You're My Heart You're My Soul ft. Big Daddi"
    PERFORMER "Lian Ross"
    INDEX 01 08:08:35
  TRACK 04 AUDIO
    TITLE "Dr. Mabuse"
    PERFORMER "Lian Ross"
    INDEX 01 12:13:56
  TRACK 05 AUDIO
    TITLE "Everything is Possible"
    PERFORMER "Lian Ross"
    INDEX 01 16:07:41
  TRACK 06 AUDIO
    TITLE "Bang Bang ft. Luigi Ricco & Tapo y Raya"
    PERFORMER "Lian Ross"
    INDEX 01 19:36:09
  TRACK 07 AUDIO
    TITLE "You're The One ft. Big Daddi"
    PERFORMER "Lian Ross"
    INDEX 01 22:38:50
  TRACK 08 AUDIO
    TITLE "A Night To Remember"
    PERFORMER "Lian Ross"
    INDEX 01 26:03:13
  TRACK 09 AUDIO
    TITLE "Cassanova "
    PERFORMER "Lian Ross"
    INDEX 01 29:30:15
  TRACK 10 AUDIO
    TITLE "Looking Through The Eyes Of Love"
    PERFORMER "Lian Ross"
    INDEX 01 32:54:49
  TRACK 11 AUDIO
    TITLE "All We Need Is Love ft. TQ (Extended Mix)"
    PERFORMER "Lian Ross"
    INDEX 01 37:28:14
  TRACK 12 AUDIO
    TITLE "Game Of Love ft. Mode One (Extended Mix)"
    PERFORMER "Lian Ross"
    INDEX 01 44:21:51
  TRACK 13 AUDIO
    TITLE "Everything Is Possible ft. Kafй Pa 3"
    PERFORMER "Lian Ross"
    INDEX 01 50:22:45
Код:
REM GENRE Eurodance
REM DATE 2016
REM DISCID 6E099809
REM COMMENT "ExactAudioCopy v1.0b3"
PERFORMER "Lian Ross"
TITLE "And The Beat Goes On - DISC 2"
FILE "Lian Ross - And The Beat Goes On - DISC 2.flac" WAVE
  TRACK 01 AUDIO
    TITLE "Make A Party"
    PERFORMER "Lian Ross"
    INDEX 01 00:00:00
  TRACK 02 AUDIO
    TITLE "All About You"
    PERFORMER "Lian Ross"
    INDEX 01 03:24:38
  TRACK 03 AUDIO
    TITLE "Get Closer ft. David Tavarй"
    PERFORMER "Lian Ross"
    INDEX 01 06:46:54
  TRACK 04 AUDIO
    TITLE "Good Feeling Power ft. Big Daddi"
    PERFORMER "Lian Ross"
    INDEX 01 10:39:65
  TRACK 05 AUDIO
    TITLE "You're My Heart You're My Soul (Bobby To & Phillyboy Remix)"
    PERFORMER "Lian Ross"
    INDEX 01 14:13:41
  TRACK 06 AUDIO
    TITLE "Young Hearts Run Free (Deep Mix)"
    PERFORMER "Lian Ross"
    INDEX 01 20:45:08
  TRACK 07 AUDIO
    TITLE "Around The World (Deep Mix)"
    PERFORMER "Lian Ross"
    INDEX 01 26:50:21
  TRACK 08 AUDIO
    TITLE "Make A Party (Phillyboy Remix)"
    PERFORMER "Lian Ross"
    INDEX 01 32:25:66
  TRACK 09 AUDIO
    TITLE "Around The World (Original Extended)"
    PERFORMER "Lian Ross"
    INDEX 01 35:45:26
- --
Download / Скачать

Хотите скачать бесплатно? Зарегистрируйтесь на сайте (ссылка на регистрацию). Pirat.ca - самый быстрый торрент трекер в рунете!

Как скачивать  ·   Что такое торрент  ·   Рейтинг и ограничения

Показать сообщения:    
Ответить на тему

Текущее время: Сегодня 20:11

Часовой пояс: GMT + 4



Вы не можете начинать темы
Вы не можете отвечать на сообщения
Вы не можете редактировать свои сообщения
Вы не можете удалять свои сообщения
Вы не можете голосовать в опросах
Вы не можете прикреплять файлы к сообщениям
Вы не можете скачивать файлы

Майнать ▼