(Euro-Disco, Pop, Disco) Lian Ross - Greatest Hits & Remixes (2CD) - 2016 [FLAC, tracks +.cue, lossless]

Ответить на тему
 
Автор
Сообщение

Пост 02-Июл-2017 19:14

[Q] 

sergej644

-Lian Ross - Greatest Hits & Remixes (2CD)--
Год издания: 2016
Страна: Germany
Жанр:
Продолжительность: 02:33:20-Лейбл издания: ZYX Music
Страна-выпуска диска: Germany
Номер по каталогу: ZYX 23011-2-Формат: FLAC
Битрейт аудио: Lossless
Тип рипа: tracks +.cue
Наличие сканов в содержимом раздачи: да
-

01. Fantasy(7' Single) (3:46)
02. Say You'll Never(7' Single) (3:39)
03. Neverending Love (song)(7' Single) (3:18)
04. Saturday Night(7' Single) (3:01)
05. Say Say Say(7' Single) (3:48)
06. It's Up To You(7' Single) (3:09)
07. Never Gonna Lose(Radio Mix) (3:49)
08. Fantasy '98(Single) (3:41)
09. Do You Wanna Funk(Radio Version) (3:50)
10. Scratch My Name(Radio Version) (3:49)
11. Russian Millionaire (feat. 2 Eivissa) (3:27)
12. Young Hearts Run Free(Original Radio Edit) (3:26)
13. Say You'll Never 2013 (3:41)
14. All We Need Is Love (feat. Tq)(Radio Version) (3:54)
15. You're My Heart, You're My Soul(Radio Version) (3:34)
16. I Wanna(Radio Mix) (4:29)
17. Don't You Go Away (3:34)
18. Keep This Feeling(Radio Mix) (3:30)
19. Feel So Good(Radio Version) (3:21)
20. Oh Won't You Tell Me (3:22)
21. Reach Out (3:37)

01. Saturday Night(Maxi Version) (5:30)
02. Fantasy(Maxi Version) (6:55)
03. Say You'll Never(Maxi Version) (6:41)
04. Neverending Love (song)(Maxi Version) (5:47)
05. Say Say Say(Maxi Version) (7:02)
06. It's Up To You(Special D.J. Mix) (7:38)
07. Fantasy(New Remix) (6:57)
08. Saturday Night(New Remix) (5:08)
09. Say You'll Never(D.J. Alternative Mix) (6:29)
10. Trying To Forget You(Pop Extension) (6:25)
11. Young Hearts Run Free(Original Extended Mix) (6:23)
12. Never Gonna Lose(Extended Mix) (6:40)
-
Код:
Exact Audio Copy V1.1 from 23. June 2015
EAC extraction logfile from 10. October 2016, 16:41
Lian Ross / Greatest Hits & Remixes Cd1
Used drive  : ASUS    SDRW-08D1S-U   Adapter: 1  ID: 1
Read mode               : Secure
Utilize accurate stream : Yes
Defeat audio cache      : Yes
Make use of C2 pointers : No
Read offset correction                      : 103
Overread into Lead-In and Lead-Out          : No
Fill up missing offset samples with silence : Yes
Delete leading and trailing silent blocks   : No
Null samples used in CRC calculations       : Yes
Used interface                              : Native Win32 interface for Win NT & 2000
Gap handling                                : Appended to previous track
Used output format              : User Defined Encoder
Selected bitrate                : 1024 kBit/s
Quality                         : High
Add ID3 tag                     : No
Command line compressor         : J:\Program Files (x86)\Exact Audio Copy\Flac\flac.exe
Additional command line options : -V -8 -T "COMMENT=ripped by Krevetka1972 special for new-team.org" -T "ARTIST=%artist%" -T "TITLE=%title%" -T "ALBUM=%albumtitle%" -T "DATE=%year%" -T "TRACKNUMBER=%tracknr%" -T "GENRE=%genre%" -T "ALBUMARTIST=%albuminterpret%" %source% -o %dest%
TOC of the extracted CD
     Track |   Start  |  Length  | Start sector | End sector
    ---------------------------------------------------------
        1  |  0:00.00 |  3:46.05 |         0    |    16954
        2  |  3:46.05 |  3:38.56 |     16955    |    33360
        3  |  7:24.61 |  3:17.66 |     33361    |    48201
        4  | 10:42.52 |  3:01.08 |     48202    |    61784
        5  | 13:43.60 |  3:48.02 |     61785    |    78886
        6  | 17:31.62 |  3:08.73 |     78887    |    93059
        7  | 20:40.60 |  3:48.62 |     93060    |   110221
        8  | 24:29.47 |  3:41.21 |    110222    |   126817
        9  | 28:10.68 |  3:49.72 |    126818    |   144064
       10  | 32:00.65 |  3:48.39 |    144065    |   161203
       11  | 35:49.29 |  3:26.71 |    161204    |   176724
       12  | 39:16.25 |  3:25.73 |    176725    |   192172
       13  | 42:42.23 |  3:40.59 |    192173    |   208731
       14  | 46:23.07 |  3:53.63 |    208732    |   226269
       15  | 50:16.70 |  3:34.35 |    226270    |   242354
       16  | 53:51.30 |  4:29.23 |    242355    |   262552
       17  | 58:20.53 |  3:34.06 |    262553    |   278608
       18  | 61:54.59 |  3:30.10 |    278609    |   294368
       19  | 65:24.69 |  3:21.26 |    294369    |   309469
       20  | 68:46.20 |  3:22.16 |    309470    |   324635
       21  | 72:08.36 |  3:37.36 |    324636    |   340946
Track  1
     Filename J:\Lian Ross\2016 - Greatest Hits & Remixes (ZYX Music # ZYX 23011-2)\CD 1\01. Lian Ross - Fantasy(7'' Single).wav
     Pre-gap length  0:00:02.00
     Peak level 97.7 %
     Extraction speed 1.1 X
     Track quality 99.9 %
     Test CRC 1C4A1496
     Copy CRC 1C4A1496
     Accurately ripped (confidence 3)  [77D86604]  (AR v2)
     Copy OK
Track  2
     Filename J:\Lian Ross\2016 - Greatest Hits & Remixes (ZYX Music # ZYX 23011-2)\CD 1\02. Lian Ross - Say You'll Never(7'' Single).wav
     Peak level 97.7 %
     Extraction speed 1.4 X
     Track quality 100.0 %
     Test CRC 571CAF3C
     Copy CRC 571CAF3C
     Accurately ripped (confidence 3)  [2D5934D2]  (AR v2)
     Copy OK
Track  3
     Filename J:\Lian Ross\2016 - Greatest Hits & Remixes (ZYX Music # ZYX 23011-2)\CD 1\03. Lian Ross - Neverending Love (song)(7'' Single).wav
     Peak level 97.7 %
     Extraction speed 1.2 X
     Track quality 99.9 %
     Test CRC C5077C06
     Copy CRC C5077C06
     Accurately ripped (confidence 3)  [1B0AA90F]  (AR v2)
     Copy OK
Track  4
     Filename J:\Lian Ross\2016 - Greatest Hits & Remixes (ZYX Music # ZYX 23011-2)\CD 1\04. Lian Ross - Saturday Night(7'' Single).wav
     Peak level 97.7 %
     Extraction speed 1.5 X
     Track quality 100.0 %
     Test CRC 960D7113
     Copy CRC 960D7113
     Accurately ripped (confidence 3)  [D6BFD264]  (AR v2)
     Copy OK
Track  5
     Filename J:\Lian Ross\2016 - Greatest Hits & Remixes (ZYX Music # ZYX 23011-2)\CD 1\05. Lian Ross - Say Say Say(7'' Single).wav
     Peak level 97.7 %
     Extraction speed 1.6 X
     Track quality 100.0 %
     Test CRC CBB56D3B
     Copy CRC CBB56D3B
     Accurately ripped (confidence 3)  [D3E4C2B6]  (AR v2)
     Copy OK
Track  6
     Filename J:\Lian Ross\2016 - Greatest Hits & Remixes (ZYX Music # ZYX 23011-2)\CD 1\06. Lian Ross - It's Up To You(7'' Single).wav
     Peak level 97.7 %
     Extraction speed 1.7 X
     Track quality 100.0 %
     Test CRC FEB74AAE
     Copy CRC FEB74AAE
     Accurately ripped (confidence 3)  [4EB21140]  (AR v2)
     Copy OK
Track  7
     Filename J:\Lian Ross\2016 - Greatest Hits & Remixes (ZYX Music # ZYX 23011-2)\CD 1\07. Lian Ross - Never Gonna Lose(Radio Mix).wav
     Peak level 97.7 %
     Extraction speed 1.8 X
     Track quality 100.0 %
     Test CRC B00BCBC3
     Copy CRC B00BCBC3
     Accurately ripped (confidence 3)  [8DB16DF6]  (AR v2)
     Copy OK
Track  8
     Filename J:\Lian Ross\2016 - Greatest Hits & Remixes (ZYX Music # ZYX 23011-2)\CD 1\08. Lian Ross - Fantasy '98(Single).wav
     Peak level 89.3 %
     Extraction speed 1.9 X
     Track quality 100.0 %
     Test CRC 89796D7E
     Copy CRC 89796D7E
     Accurately ripped (confidence 3)  [BC4D4282]  (AR v2)
     Copy OK
Track  9
     Filename J:\Lian Ross\2016 - Greatest Hits & Remixes (ZYX Music # ZYX 23011-2)\CD 1\09. Lian Ross - Do You Wanna Funk(Radio Version).wav
     Peak level 97.7 %
     Extraction speed 2.0 X
     Track quality 100.0 %
     Test CRC 4FF11945
     Copy CRC 4FF11945
     Accurately ripped (confidence 3)  [431F426B]  (AR v2)
     Copy OK
Track 10
     Filename J:\Lian Ross\2016 - Greatest Hits & Remixes (ZYX Music # ZYX 23011-2)\CD 1\10. Lian Ross - Scratch My Name(Radio Version).wav
     Peak level 97.7 %
     Extraction speed 2.0 X
     Track quality 100.0 %
     Test CRC E9EDD7FA
     Copy CRC E9EDD7FA
     Accurately ripped (confidence 3)  [386ABD5C]  (AR v2)
     Copy OK
Track 11
     Filename J:\Lian Ross\2016 - Greatest Hits & Remixes (ZYX Music # ZYX 23011-2)\CD 1\11. Lian Ross - Russian Millionaire (feat. 2 Eivissa).wav
     Peak level 84.9 %
     Extraction speed 2.1 X
     Track quality 100.0 %
     Test CRC 3AA18150
     Copy CRC 3AA18150
     Accurately ripped (confidence 3)  [1A958E46]  (AR v2)
     Copy OK
Track 12
     Filename J:\Lian Ross\2016 - Greatest Hits & Remixes (ZYX Music # ZYX 23011-2)\CD 1\12. Lian Ross - Young Hearts Run Free(Original Radio Edit).wav
     Peak level 97.7 %
     Extraction speed 2.1 X
     Track quality 100.0 %
     Test CRC 9C49B413
     Copy CRC 9C49B413
     Accurately ripped (confidence 3)  [91D7020D]  (AR v2)
     Copy OK
Track 13
     Filename J:\Lian Ross\2016 - Greatest Hits & Remixes (ZYX Music # ZYX 23011-2)\CD 1\13. Lian Ross - Say You'll Never 2013.wav
     Peak level 97.7 %
     Extraction speed 1.9 X
     Track quality 99.9 %
     Test CRC B48E0B93
     Copy CRC B48E0B93
     Accurately ripped (confidence 3)  [4486775A]  (AR v2)
     Copy OK
Track 14
     Filename J:\Lian Ross\2016 - Greatest Hits & Remixes (ZYX Music # ZYX 23011-2)\CD 1\14. Lian Ross - All We Need Is Love (feat. Tq)(Radio Version).wav
     Peak level 93.6 %
     Extraction speed 2.3 X
     Track quality 100.0 %
     Test CRC 5D355A12
     Copy CRC 5D355A12
     Accurately ripped (confidence 3)  [FE136B72]  (AR v2)
     Copy OK
Track 15
     Filename J:\Lian Ross\2016 - Greatest Hits & Remixes (ZYX Music # ZYX 23011-2)\CD 1\15. Lian Ross - You're My Heart, You're My Soul(Radio Version).wav
     Peak level 97.7 %
     Extraction speed 2.0 X
     Track quality 99.9 %
     Test CRC 226A42BF
     Copy CRC 226A42BF
     Accurately ripped (confidence 3)  [4C5CA6C2]  (AR v2)
     Copy OK
Track 16
     Filename J:\Lian Ross\2016 - Greatest Hits & Remixes (ZYX Music # ZYX 23011-2)\CD 1\16. Lian Ross - I Wanna(Radio Mix).wav
     Peak level 86.1 %
     Extraction speed 2.5 X
     Track quality 100.0 %
     Test CRC 54B479FE
     Copy CRC 54B479FE
     Accurately ripped (confidence 3)  [570BDCBF]  (AR v2)
     Copy OK
Track 17
     Filename J:\Lian Ross\2016 - Greatest Hits & Remixes (ZYX Music # ZYX 23011-2)\CD 1\17. Lian Ross - Don't You Go Away.wav
     Peak level 97.7 %
     Extraction speed 2.4 X
     Track quality 100.0 %
     Test CRC F26949EF
     Copy CRC F26949EF
     Accurately ripped (confidence 3)  [121A8D83]  (AR v2)
     Copy OK
Track 18
     Filename J:\Lian Ross\2016 - Greatest Hits & Remixes (ZYX Music # ZYX 23011-2)\CD 1\18. Lian Ross - Keep This Feeling(Radio Mix).wav
     Peak level 97.7 %
     Extraction speed 2.2 X
     Track quality 99.9 %
     Test CRC 36B681E5
     Copy CRC 36B681E5
     Accurately ripped (confidence 3)  [23610F04]  (AR v2)
     Copy OK
Track 19
     Filename J:\Lian Ross\2016 - Greatest Hits & Remixes (ZYX Music # ZYX 23011-2)\CD 1\19. Lian Ross - Feel So Good(Radio Version).wav
     Peak level 97.7 %
     Extraction speed 2.5 X
     Track quality 100.0 %
     Test CRC FB49679B
     Copy CRC FB49679B
     Accurately ripped (confidence 3)  [831301CD]  (AR v2)
     Copy OK
Track 20
     Filename J:\Lian Ross\2016 - Greatest Hits & Remixes (ZYX Music # ZYX 23011-2)\CD 1\20. Lian Ross - Oh Won't You Tell Me.wav
     Peak level 97.7 %
     Extraction speed 2.6 X
     Track quality 100.0 %
     Test CRC 6CC59CA5
     Copy CRC 6CC59CA5
     Accurately ripped (confidence 3)  [392B9B0B]  (AR v2)
     Copy OK
Track 21
     Filename J:\Lian Ross\2016 - Greatest Hits & Remixes (ZYX Music # ZYX 23011-2)\CD 1\21. Lian Ross - Reach Out.wav
     Peak level 97.7 %
     Extraction speed 2.3 X
     Track quality 99.9 %
     Test CRC 82BA579F
     Copy CRC 82BA579F
     Accurately ripped (confidence 3)  [34090848]  (AR v2)
     Copy OK
All tracks accurately ripped
No errors occurred
End of status report
---- CUETools DB Plugin V2.1.6
[CTDB TOCID: otgi5igQDWaQ.TkOiu6Pj7ikiv0-] found
Submit result: otgi5igQDWaQ.TkOiu6Pj7ikiv0- has been confirmed
Track | CTDB Status
  1   | (3/3) Accurately ripped
  2   | (3/3) Accurately ripped
  3   | (3/3) Accurately ripped
  4   | (3/3) Accurately ripped
  5   | (3/3) Accurately ripped
  6   | (3/3) Accurately ripped
  7   | (3/3) Accurately ripped
  8   | (3/3) Accurately ripped
  9   | (3/3) Accurately ripped
10   | (3/3) Accurately ripped
11   | (3/3) Accurately ripped
12   | (3/3) Accurately ripped
13   | (3/3) Accurately ripped
14   | (3/3) Accurately ripped
15   | (3/3) Accurately ripped
16   | (3/3) Accurately ripped
17   | (3/3) Accurately ripped
18   | (3/3) Accurately ripped
19   | (3/3) Accurately ripped
20   | (3/3) Accurately ripped
21   | (3/3) Accurately ripped
Код:
Exact Audio Copy V1.1 from 23. June 2015
EAC extraction logfile from 10. October 2016, 17:57
Lian Ross / Greatest Hits & Remixes Cd2
Used drive  : ASUS    SDRW-08D1S-U   Adapter: 1  ID: 1
Read mode               : Secure
Utilize accurate stream : Yes
Defeat audio cache      : Yes
Make use of C2 pointers : No
Read offset correction                      : 103
Overread into Lead-In and Lead-Out          : No
Fill up missing offset samples with silence : Yes
Delete leading and trailing silent blocks   : No
Null samples used in CRC calculations       : Yes
Used interface                              : Native Win32 interface for Win NT & 2000
Gap handling                                : Not detected, thus appended to previous track
Used output format              : User Defined Encoder
Selected bitrate                : 1024 kBit/s
Quality                         : High
Add ID3 tag                     : No
Command line compressor         : J:\Program Files (x86)\Exact Audio Copy\Flac\flac.exe
Additional command line options : -V -8 -T "COMMENT=ripped by Krevetka1972 special for new-team.org" -T "ARTIST=%artist%" -T "TITLE=%title%" -T "ALBUM=%albumtitle%" -T "DATE=%year%" -T "TRACKNUMBER=%tracknr%" -T "GENRE=%genre%" -T "ALBUMARTIST=%albuminterpret%" %source% -o %dest%
TOC of the extracted CD
     Track |   Start  |  Length  | Start sector | End sector
    ---------------------------------------------------------
        1  |  0:00.00 |  5:29.60 |         0    |    24734
        2  |  5:29.60 |  6:54.59 |     24735    |    55843
        3  | 12:24.44 |  6:41.23 |     55844    |    85941
        4  | 19:05.67 |  5:46.40 |     85942    |   111931
        5  | 24:52.32 |  7:02.37 |    111932    |   143618
        6  | 31:54.69 |  7:37.38 |    143619    |   177931
        7  | 39:32.32 |  6:57.08 |    177932    |   209214
        8  | 46:29.40 |  5:08.01 |    209215    |   232315
        9  | 51:37.41 |  6:28.74 |    232316    |   261489
       10  | 58:06.40 |  6:24.63 |    261490    |   290352
       11  | 64:31.28 |  6:22.51 |    290353    |   319053
       12  | 70:54.04 |  6:39.63 |    319054    |   349041
Track  1
     Filename J:\Lian Ross\2016 - Greatest Hits & Remixes (ZYX Music # ZYX 23011-2)\CD 2\01. Lian Ross - Saturday Night(Maxi Version).wav
     Peak level 97.7 %
     Extraction speed 1.4 X
     Track quality 100.0 %
     Test CRC 728182AE
     Copy CRC 728182AE
     Accurately ripped (confidence 3)  [98C1B3D0]  (AR v2)
     Copy OK
Track  2
     Filename J:\Lian Ross\2016 - Greatest Hits & Remixes (ZYX Music # ZYX 23011-2)\CD 2\02. Lian Ross - Fantasy(Maxi Version).wav
     Peak level 97.7 %
     Extraction speed 1.6 X
     Track quality 100.0 %
     Test CRC 2DD7B293
     Copy CRC 2DD7B293
     Accurately ripped (confidence 3)  [650CBEC2]  (AR v2)
     Copy OK
Track  3
     Filename J:\Lian Ross\2016 - Greatest Hits & Remixes (ZYX Music # ZYX 23011-2)\CD 2\03. Lian Ross - Say You'll Never(Maxi Version).wav
     Peak level 97.7 %
     Extraction speed 1.7 X
     Track quality 100.0 %
     Test CRC D3843D53
     Copy CRC D3843D53
     Accurately ripped (confidence 3)  [A17CF38F]  (AR v2)
     Copy OK
Track  4
     Filename J:\Lian Ross\2016 - Greatest Hits & Remixes (ZYX Music # ZYX 23011-2)\CD 2\04. Lian Ross - Neverending Love (song)(Maxi Version).wav
     Peak level 97.7 %
     Extraction speed 1.9 X
     Track quality 100.0 %
     Test CRC 2DA2865D
     Copy CRC 2DA2865D
     Accurately ripped (confidence 3)  [3118B695]  (AR v2)
     Copy OK
Track  5
     Filename J:\Lian Ross\2016 - Greatest Hits & Remixes (ZYX Music # ZYX 23011-2)\CD 2\05. Lian Ross - Say Say Say(Maxi Version).wav
     Peak level 97.7 %
     Extraction speed 2.1 X
     Track quality 100.0 %
     Test CRC 141609B5
     Copy CRC 141609B5
     Accurately ripped (confidence 3)  [B83D182C]  (AR v2)
     Copy OK
Track  6
     Filename J:\Lian Ross\2016 - Greatest Hits & Remixes (ZYX Music # ZYX 23011-2)\CD 2\06. Lian Ross - It's Up To You(Special D.J. Mix).wav
     Peak level 97.7 %
     Extraction speed 2.1 X
     Track quality 99.9 %
     Test CRC 6F6F5AEA
     Copy CRC 6F6F5AEA
     Accurately ripped (confidence 3)  [A5593F31]  (AR v2)
     Copy OK
Track  7
     Filename J:\Lian Ross\2016 - Greatest Hits & Remixes (ZYX Music # ZYX 23011-2)\CD 2\07. Lian Ross - Fantasy(New Remix).wav
     Peak level 97.7 %
     Extraction speed 2.3 X
     Track quality 100.0 %
     Test CRC 9CA9D475
     Copy CRC 9CA9D475
     Accurately ripped (confidence 3)  [6E1BB945]  (AR v2)
     Copy OK
Track  8
     Filename J:\Lian Ross\2016 - Greatest Hits & Remixes (ZYX Music # ZYX 23011-2)\CD 2\08. Lian Ross - Saturday Night(New Remix).wav
     Peak level 97.7 %
     Extraction speed 2.4 X
     Track quality 100.0 %
     Test CRC C0A20A24
     Copy CRC C0A20A24
     Accurately ripped (confidence 3)  [31F9B247]  (AR v2)
     Copy OK
Track  9
     Filename J:\Lian Ross\2016 - Greatest Hits & Remixes (ZYX Music # ZYX 23011-2)\CD 2\09. Lian Ross - Say You'll Never(D.J. Alternative Mix).wav
     Peak level 97.7 %
     Extraction speed 2.5 X
     Track quality 100.0 %
     Test CRC BEBD7AF1
     Copy CRC BEBD7AF1
     Accurately ripped (confidence 3)  [9EDD1EEC]  (AR v2)
     Copy OK
Track 10
     Filename J:\Lian Ross\2016 - Greatest Hits & Remixes (ZYX Music # ZYX 23011-2)\CD 2\10. Lian Ross - Trying To Forget You(Pop Extension).wav
     Peak level 97.7 %
     Extraction speed 2.6 X
     Track quality 100.0 %
     Test CRC E7BEC742
     Copy CRC E7BEC742
     Accurately ripped (confidence 3)  [F38A2F83]  (AR v2)
     Copy OK
Track 11
     Filename J:\Lian Ross\2016 - Greatest Hits & Remixes (ZYX Music # ZYX 23011-2)\CD 2\11. Lian Ross - Young Hearts Run Free(Original Extended Mix).wav
     Peak level 97.7 %
     Extraction speed 2.7 X
     Track quality 100.0 %
     Test CRC A547D994
     Copy CRC A547D994
     Accurately ripped (confidence 3)  [5720AB2F]  (AR v2)
     Copy OK
Track 12
     Filename J:\Lian Ross\2016 - Greatest Hits & Remixes (ZYX Music # ZYX 23011-2)\CD 2\12. Lian Ross - Never Gonna Lose(Extended Mix).wav
     Peak level 97.7 %
     Extraction speed 2.8 X
     Track quality 100.0 %
     Test CRC CA8CF947
     Copy CRC CA8CF947
     Accurately ripped (confidence 3)  [AEADB826]  (AR v2)
     Copy OK
All tracks accurately ripped
No errors occurred
End of status report
---- CUETools DB Plugin V2.1.6
[CTDB TOCID: a457BjgwDhJv7JvMywaSYf4dIqY-] found
Submit result: a457BjgwDhJv7JvMywaSYf4dIqY- has been confirmed
Track | CTDB Status
  1   | (6/6) Accurately ripped
  2   | (6/6) Accurately ripped
  3   | (6/6) Accurately ripped
  4   | (6/6) Accurately ripped
  5   | (6/6) Accurately ripped
  6   | (6/6) Accurately ripped
  7   | (6/6) Accurately ripped
  8   | (6/6) Accurately ripped
  9   | (6/6) Accurately ripped
10   | (6/6) Accurately ripped
11   | (6/6) Accurately ripped
12   | (6/6) Accurately ripped
Код:
REM GENRE Euro-Disco
REM DATE 2016
REM DISCID 1A11C115
REM COMMENT "ExactAudioCopy v1.1"
CATALOG 0090204694495
PERFORMER "Lian Ross"
TITLE "Greatest Hits & Remixes Cd1"
FILE "01. Lian Ross - Fantasy(7'' Single).wav" WAVE
  TRACK 01 AUDIO
    TITLE "Fantasy(7' Single)"
    PERFORMER "Lian Ross"
    ISRC DEA311501972
    INDEX 01 00:00:00
FILE "02. Lian Ross - Say You'll Never(7'' Single).wav" WAVE
  TRACK 02 AUDIO
    TITLE "Say You'll Never(7' Single)"
    PERFORMER "Lian Ross"
    ISRC DEA311501956
    INDEX 01 00:00:00
FILE "03. Lian Ross - Neverending Love (song)(7'' Single).wav" WAVE
  TRACK 03 AUDIO
    TITLE "Neverending Love (song)(7' Single)"
    PERFORMER "Lian Ross"
    ISRC DEA311601089
    INDEX 01 00:00:00
FILE "04. Lian Ross - Saturday Night(7'' Single).wav" WAVE
  TRACK 04 AUDIO
    TITLE "Saturday Night(7' Single)"
    PERFORMER "Lian Ross"
    ISRC DEA311601090
    INDEX 01 00:00:00
FILE "05. Lian Ross - Say Say Say(7'' Single).wav" WAVE
  TRACK 05 AUDIO
    TITLE "Say Say Say(7' Single)"
    PERFORMER "Lian Ross"
    ISRC DEA311601091
    INDEX 01 00:00:00
FILE "06. Lian Ross - It's Up To You(7'' Single).wav" WAVE
  TRACK 06 AUDIO
    TITLE "It's Up To You(7' Single)"
    PERFORMER "Lian Ross"
    ISRC DEA311601091
    INDEX 01 00:00:00
FILE "07. Lian Ross - Never Gonna Lose(Radio Mix).wav" WAVE
  TRACK 07 AUDIO
    TITLE "Never Gonna Lose(Radio Mix)"
    PERFORMER "Lian Ross"
    ISRC DEA310501565
    INDEX 01 00:00:00
FILE "08. Lian Ross - Fantasy '98(Single).wav" WAVE
  TRACK 08 AUDIO
    TITLE "Fantasy '98(Single)"
    PERFORMER "Lian Ross"
    ISRC DEA311601093
    INDEX 01 00:00:00
FILE "09. Lian Ross - Do You Wanna Funk(Radio Version).wav" WAVE
  TRACK 09 AUDIO
    TITLE "Do You Wanna Funk(Radio Version)"
    PERFORMER "Lian Ross"
    ISRC DEA311601094
    INDEX 01 00:00:00
FILE "10. Lian Ross - Scratch My Name(Radio Version).wav" WAVE
  TRACK 10 AUDIO
    TITLE "Scratch My Name(Radio Version)"
    PERFORMER "Lian Ross"
    ISRC DEA311601095
    INDEX 01 00:00:00
FILE "11. Lian Ross - Russian Millionaire (feat. 2 Eivissa).wav" WAVE
  TRACK 11 AUDIO
    TITLE "Russian Millionaire (feat. 2 Eivissa)"
    PERFORMER "Lian Ross"
    ISRC DEA311601096
    INDEX 01 00:00:00
FILE "12. Lian Ross - Young Hearts Run Free(Original Radio Edit).wav" WAVE
  TRACK 12 AUDIO
    TITLE "Young Hearts Run Free(Original Radio Edit)"
    PERFORMER "Lian Ross"
    ISRC DEA311601097
    INDEX 01 00:00:00
FILE "13. Lian Ross - Say You'll Never 2013.wav" WAVE
  TRACK 13 AUDIO
    TITLE "Say You'll Never 2013"
    PERFORMER "Lian Ross"
    ISRC DEA311601098
    INDEX 01 00:00:00
FILE "14. Lian Ross - All We Need Is Love (feat. Tq)(Radio Version).wav" WAVE
  TRACK 14 AUDIO
    TITLE "All We Need Is Love (feat. Tq)(Radio Version)"
    PERFORMER "Lian Ross"
    ISRC DEA311402897
    INDEX 01 00:00:00
FILE "15. Lian Ross - You're My Heart, You're My Soul(Radio Version).wav" WAVE
  TRACK 15 AUDIO
    TITLE "You're My Heart, You're My Soul(Radio Version)"
    PERFORMER "Lian Ross"
    ISRC DEA311601099
    INDEX 01 00:00:00
FILE "16. Lian Ross - I Wanna(Radio Mix).wav" WAVE
  TRACK 16 AUDIO
    TITLE "I Wanna(Radio Mix)"
    PERFORMER "Lian Ross"
    ISRC DEA311601100
    INDEX 01 00:00:00
FILE "17. Lian Ross - Don't You Go Away.wav" WAVE
  TRACK 17 AUDIO
    TITLE "Don't You Go Away"
    PERFORMER "Lian Ross"
    ISRC DEA311601101
    INDEX 01 00:00:00
FILE "18. Lian Ross - Keep This Feeling(Radio Mix).wav" WAVE
  TRACK 18 AUDIO
    TITLE "Keep This Feeling(Radio Mix)"
    PERFORMER "Lian Ross"
    ISRC DEA311601102
    INDEX 01 00:00:00
FILE "19. Lian Ross - Feel So Good(Radio Version).wav" WAVE
  TRACK 19 AUDIO
    TITLE "Feel So Good(Radio Version)"
    PERFORMER "Lian Ross"
    ISRC DEA311601103
    INDEX 01 00:00:00
FILE "20. Lian Ross - Oh Won't You Tell Me.wav" WAVE
  TRACK 20 AUDIO
    TITLE "Oh Won't You Tell Me"
    PERFORMER "Lian Ross"
    ISRC DEA311601103
    INDEX 01 00:00:00
FILE "21. Lian Ross - Reach Out.wav" WAVE
  TRACK 21 AUDIO
    TITLE "Reach Out"
    PERFORMER "Lian Ross"
    ISRC DEA311601105
    INDEX 01 00:00:00
Код:
REM GENRE Euro-Disco
REM DATE 2016
REM DISCID BF122D0C
REM COMMENT "ExactAudioCopy v1.1"
CATALOG 0090204694495
PERFORMER "Lian Ross"
TITLE "Greatest Hits & Remixes Cd2"
FILE "01. Lian Ross - Saturday Night(Maxi Version).wav" WAVE
  TRACK 01 AUDIO
    TITLE "Saturday Night(Maxi Version)"
    PERFORMER "Lian Ross"
    ISRC DEA311403165
    INDEX 01 00:00:00
FILE "02. Lian Ross - Fantasy(Maxi Version).wav" WAVE
  TRACK 02 AUDIO
    TITLE "Fantasy(Maxi Version)"
    PERFORMER "Lian Ross"
    ISRC DEA311601106
    INDEX 01 00:00:00
FILE "03. Lian Ross - Say You'll Never(Maxi Version).wav" WAVE
  TRACK 03 AUDIO
    TITLE "Say You'll Never(Maxi Version)"
    PERFORMER "Lian Ross"
    ISRC DEA311601107
    INDEX 01 00:00:00
FILE "04. Lian Ross - Neverending Love (song)(Maxi Version).wav" WAVE
  TRACK 04 AUDIO
    TITLE "Neverending Love (song)(Maxi Version)"
    PERFORMER "Lian Ross"
    ISRC DEA310500933
    INDEX 01 00:00:00
FILE "05. Lian Ross - Say Say Say(Maxi Version).wav" WAVE
  TRACK 05 AUDIO
    TITLE "Say Say Say(Maxi Version)"
    PERFORMER "Lian Ross"
    ISRC DEA310500933
    INDEX 01 00:00:00
FILE "06. Lian Ross - It's Up To You(Special D.J. Mix).wav" WAVE
  TRACK 06 AUDIO
    TITLE "It's Up To You(Special D.J. Mix)"
    PERFORMER "Lian Ross"
    ISRC DEA311601109
    INDEX 01 00:00:00
FILE "07. Lian Ross - Fantasy(New Remix).wav" WAVE
  TRACK 07 AUDIO
    TITLE "Fantasy(New Remix)"
    PERFORMER "Lian Ross"
    ISRC DEA311601109
    INDEX 01 00:00:00
FILE "08. Lian Ross - Saturday Night(New Remix).wav" WAVE
  TRACK 08 AUDIO
    TITLE "Saturday Night(New Remix)"
    PERFORMER "Lian Ross"
    ISRC DEA311601110
    INDEX 01 00:00:00
FILE "09. Lian Ross - Say You'll Never(D.J. Alternative Mix).wav" WAVE
  TRACK 09 AUDIO
    TITLE "Say You'll Never(D.J. Alternative Mix)"
    PERFORMER "Lian Ross"
    ISRC DEA311601111
    INDEX 01 00:00:00
FILE "10. Lian Ross - Trying To Forget You(Pop Extension).wav" WAVE
  TRACK 10 AUDIO
    TITLE "Trying To Forget You(Pop Extension)"
    PERFORMER "Lian Ross"
    ISRC DEA311601112
    INDEX 01 00:00:00
FILE "11. Lian Ross - Young Hearts Run Free(Original Extended Mix).wav" WAVE
  TRACK 11 AUDIO
    TITLE "Young Hearts Run Free(Original Extended Mix)"
    PERFORMER "Lian Ross"
    ISRC DEA311601113
    INDEX 01 00:00:00
FILE "12. Lian Ross - Never Gonna Lose(Extended Mix).wav" WAVE
  TRACK 12 AUDIO
    TITLE "Never Gonna Lose(Extended Mix)"
    PERFORMER "Lian Ross"
    ISRC DEA310501566
    INDEX 01 00:00:00
- --
Download / Скачать

Хотите скачать бесплатно? Зарегистрируйтесь на сайте (ссылка на регистрацию). Pirat.ca - самый быстрый торрент трекер в рунете!

Как скачивать  ·   Что такое торрент  ·   Рейтинг и ограничения

Показать сообщения:    
Ответить на тему

Текущее время: Сегодня 06:07

Часовой пояс: GMT + 4



Вы не можете начинать темы
Вы не можете отвечать на сообщения
Вы не можете редактировать свои сообщения
Вы не можете удалять свои сообщения
Вы не можете голосовать в опросах
Вы не можете прикреплять файлы к сообщениям
Вы не можете скачивать файлы

Майнать ▼