(Chanson) Анатолий Полотно - Наша сторона - 2015 [FLAC, image +.cue, lossless]

Ответить на тему
 
Автор
Сообщение

Пост 03-Июл-2017 11:46

[Q] 

sergej644

-Анатолий Полотно - Наша сторона--
Год издания: 2015
Страна: Russia
Жанр: Chanson
Продолжительность: 01:15:37-Лейбл издания: UMG Music
Страна-выпуска диска: Russia
Номер по каталогу: UMG15 CD-5075-Формат: FLAC
Битрейт аудио: Lossless
Тип рипа: image +.cue
Наличие сканов в содержимом раздачи: да
-

01. Наша сторона (3:06)
02. Ледостав (Посвящается моему другу Артуру Чилингарову и его жене Татьяне) (3:46)
03. Вниз по Лене по реке (4:12)
04. Живи и живи, что ещё... (4:22)
05. Птенец (4:46)
06. Весенняя ночь (4:52)
07. Тропиночки (4:00)
08. А вокруг тайга (4:53)
09. Есть еще и корабли (3:20)
10. Ялик (4:01)
11. Хочу замуж (3:49)
12. Всё когда-то случается (3:53)
13. Наша сторона (караоке) (3:06)
14. Ледостав (караоке) (3:45)
15. Вниз по Лене по реке (караоке) (4:12)
16. Живи и живи, что ещё... (караоке) (4:22)
17. Тропиночки (караоке) (4:01)
18. Есть еще и корабли (караоке) (3:20)
19. Всё когда-то случается (караоке) (3:49)
-
Код:
Exact Audio Copy V1.0 beta 3 from 29. August 2011
Отчёт EAC об извлечении, выполненном 6. февраля 2016, 22:19
Анатолий Полотно / Наша сторона
Дисковод: HL-DT-STDVDRAM GH22NS70   Adapter: 3  ID: 1
Режим чтения                 : Достоверность
Использование точного потока : Да
Отключение кэша аудио        : Да
Использование указателей C2  : Нет
Коррекция смещения при чтении                     : 667
Способность читать области Lead-in и Lead-out     : Нет
Заполнение пропущенных сэмплов тишиной            : Да
Удаление блоков с тишиной в начале и конце        : Нет
При вычислениях CRC использовались нулевые сэмплы : Да
Интерфейс                                         : Встроенный Win32-интерфейс для Win NT/2000
Выходной формат : Внутренние WAV-операции
Формат сэмплов  : 44.100 Гц; 16 бит; стерео
TOC извлечённого CD
     Трек |   Старт  | Длительность | Начальный сектор | Конечный сектор
    ---------------------------------------------------------------------
       1  |  0:00.00 |    3:06.37   |           0      |      13986
       2  |  3:06.37 |    3:45.55   |       13987      |      30916
       3  |  6:52.17 |    4:12.04   |       30917      |      49820
       4  | 11:04.21 |    4:22.23   |       49821      |      69493
       5  | 15:26.44 |    4:45.67   |       69494      |      90935
       6  | 20:12.36 |    4:52.24   |       90936      |     112859
       7  | 25:04.60 |    4:00.18   |      112860      |     130877
       8  | 29:05.03 |    4:52.74   |      130878      |     152851
       9  | 33:58.02 |    3:19.74   |      152852      |     167850
      10  | 37:18.01 |    4:01.24   |      167851      |     185949
      11  | 41:19.25 |    3:49.27   |      185950      |     203151
      12  | 45:08.52 |    3:52.73   |      203152      |     220624
      13  | 49:01.50 |    3:05.54   |      220625      |     234553
      14  | 52:07.29 |    3:44.69   |      234554      |     251422
      15  | 55:52.23 |    4:12.15   |      251423      |     270337
      16  | 60:04.38 |    4:22.19   |      270338      |     290006
      17  | 64:26.57 |    4:00.74   |      290007      |     308080
      18  | 68:27.56 |    3:19.74   |      308081      |     323079
      19  | 71:47.55 |    3:49.32   |      323080      |     340286
Характеристики диапазона извлечения и сообщения об ошибках
Выбранный диапазон
     Имя файла C:\defyz86\2015 - Анатолий Полотно - Наша сторона\Анатолий Полотно - Наша сторона.wav
     Пиковый уровень 99.0 %
     Скорость извлечения 4.9 X
     Качество диапазона 100.0 %
     CRC теста 4E13FB32
     CRC копии 4E13FB32
     Копирование... OK
Ошибок не произошло
AccurateRip: сводка
Трек  1  отсутствует в базе данных
Трек  2  отсутствует в базе данных
Трек  3  отсутствует в базе данных
Трек  4  отсутствует в базе данных
Трек  5  отсутствует в базе данных
Трек  6  отсутствует в базе данных
Трек  7  отсутствует в базе данных
Трек  8  отсутствует в базе данных
Трек  9  отсутствует в базе данных
Трек 10  отсутствует в базе данных
Трек 11  отсутствует в базе данных
Трек 12  отсутствует в базе данных
Трек 13  отсутствует в базе данных
Трек 14  отсутствует в базе данных
Трек 15  отсутствует в базе данных
Трек 16  отсутствует в базе данных
Трек 17  отсутствует в базе данных
Трек 18  отсутствует в базе данных
Трек 19  отсутствует в базе данных
Ни одного трека нет в базе AccurateRip
Конец отчёта
Код:
REM GENRE Chanson
REM DATE 2015
REM DISCID 0611B913
REM COMMENT "ExactAudioCopy v1.0b3"
PERFORMER "Анатолий Полотно"
TITLE "Наша сторона"
FILE "Анатолий Полотно - Наша сторона.wav" WAVE
  TRACK 01 AUDIO
    TITLE "Наша сторона"
    PERFORMER "Анатолий Полотно"
    FLAGS DCP
    INDEX 01 00:00:00
  TRACK 02 AUDIO
    TITLE "Ледостав (Посвящается моему другу Артуру Чилингарову и его жене Татьяне)"
    PERFORMER "Анатолий Полотно"
    FLAGS DCP
    INDEX 00 03:04:37
    INDEX 01 03:06:37
  TRACK 03 AUDIO
    TITLE "Вниз по Лене по реке"
    PERFORMER "Анатолий Полотно"
    FLAGS DCP
    INDEX 00 06:50:17
    INDEX 01 06:52:17
  TRACK 04 AUDIO
    TITLE "Живи и живи, что ещё..."
    PERFORMER "Анатолий Полотно"
    FLAGS DCP
    INDEX 00 11:02:21
    INDEX 01 11:04:21
  TRACK 05 AUDIO
    TITLE "Птенец"
    PERFORMER "Анатолий Полотно"
    FLAGS DCP
    INDEX 00 15:24:44
    INDEX 01 15:26:44
  TRACK 06 AUDIO
    TITLE "Весенняя ночь"
    PERFORMER "Анатолий Полотно"
    FLAGS DCP
    INDEX 00 20:10:36
    INDEX 01 20:12:36
  TRACK 07 AUDIO
    TITLE "Тропиночки"
    PERFORMER "Анатолий Полотно"
    FLAGS DCP
    INDEX 00 25:02:60
    INDEX 01 25:04:60
  TRACK 08 AUDIO
    TITLE "А вокруг тайга"
    PERFORMER "Анатолий Полотно"
    FLAGS DCP
    INDEX 00 29:03:03
    INDEX 01 29:05:03
  TRACK 09 AUDIO
    TITLE "Есть еще и корабли"
    PERFORMER "Анатолий Полотно"
    FLAGS DCP
    INDEX 00 33:56:02
    INDEX 01 33:58:02
  TRACK 10 AUDIO
    TITLE "Ялик"
    PERFORMER "Анатолий Полотно"
    FLAGS DCP
    INDEX 00 37:16:01
    INDEX 01 37:18:01
  TRACK 11 AUDIO
    TITLE "Хочу замуж"
    PERFORMER "Анатолий Полотно"
    FLAGS DCP
    INDEX 00 41:17:25
    INDEX 01 41:19:25
  TRACK 12 AUDIO
    TITLE "Всё когда-то случается"
    PERFORMER "Анатолий Полотно"
    FLAGS DCP
    INDEX 00 45:06:52
    INDEX 01 45:08:52
  TRACK 13 AUDIO
    TITLE "Наша сторона (караоке)"
    PERFORMER "Анатолий Полотно"
    FLAGS DCP
    INDEX 00 48:59:50
    INDEX 01 49:01:50
  TRACK 14 AUDIO
    TITLE "Ледостав (караоке)"
    PERFORMER "Анатолий Полотно"
    FLAGS DCP
    INDEX 00 52:05:29
    INDEX 01 52:07:29
  TRACK 15 AUDIO
    TITLE "Вниз по Лене по реке (караоке)"
    PERFORMER "Анатолий Полотно"
    FLAGS DCP
    INDEX 00 55:50:23
    INDEX 01 55:52:23
  TRACK 16 AUDIO
    TITLE "Живи и живи, что ещё... (караоке)"
    PERFORMER "Анатолий Полотно"
    FLAGS DCP
    INDEX 00 60:02:38
    INDEX 01 60:04:38
  TRACK 17 AUDIO
    TITLE "Тропиночки (караоке)"
    PERFORMER "Анатолий Полотно"
    FLAGS DCP
    INDEX 00 64:24:57
    INDEX 01 64:26:57
  TRACK 18 AUDIO
    TITLE "Есть еще и корабли (караоке)"
    PERFORMER "Анатолий Полотно"
    FLAGS DCP
    INDEX 00 68:25:56
    INDEX 01 68:27:56
  TRACK 19 AUDIO
    TITLE "Всё когда-то случается (караоке)"
    PERFORMER "Анатолий Полотно"
    FLAGS DCP
    INDEX 00 71:45:55
    INDEX 01 71:47:55
--
Download / Скачать

Хотите скачать бесплатно? Зарегистрируйтесь на сайте (ссылка на регистрацию). Pirat.ca - самый быстрый торрент трекер в рунете!

Как скачивать  ·   Что такое торрент  ·   Рейтинг и ограничения

Показать сообщения:    
Ответить на тему

Текущее время: Сегодня 19:56

Часовой пояс: GMT + 4



Вы не можете начинать темы
Вы не можете отвечать на сообщения
Вы не можете редактировать свои сообщения
Вы не можете удалять свои сообщения
Вы не можете голосовать в опросах
Вы не можете прикреплять файлы к сообщениям
Вы не можете скачивать файлы

Майнать ▼