Уважаемый Гость!
Вы можете поддержать проект и зарегистрироваться у наших партнеров - онлайн-стратегия MyLands. При регистрации в игре Вы получите код, который сможете активировать после регистрации на pirat.ca и получить 1000 дублонов.

Ваш код:
26839cd8c6b4848714d1d2f8fd66233fc251c7ab
 
     

Эластико (Михаил Расходников) [2016 г., спорт, мелодрама, криминал, WEB-DLRip-AVC] Original (RUS)][iTunes Russia]

Ответить на тему
 
Автор
Сообщение

Пост 15-Дек-2016 11:08

[Q] 

aleksey99

--Эластико-- Производство: Россия, Enjoy Movies
Год выпуска: 2016 г.
Жанр: спорт, мелодрама, криминал
Продолжительность: 01:21:25--Российская премьера: 24 ноября 2016, «Наше Кино»--Режиссер: Михаил Расходников--В ролях: Дмитрий Власкин, Ирина Антоненко, Алексей Маклаков, Александр Фролов, Владимир Епифанцев, Никита Волков, Никита Павленко, Ирина Безряднова, Максим Сорочинский, Петр Прозоровский--Описание: Матвей — простой парень из провинциального города. Он вырос с друзьями «на районе», здесь же встретил свою любовь — Дашу. От других Матвея отличают уникальные физические данные — крепкие ноги, мощная дыхалка, поразительная выносливость. Свой талант он использует, выигрывая со своей командой всех в дворовом футболе… и в мелких криминальных авантюрах, которые ему подгоняет друг Каша. Любимую девушку Дашу это очень беспокоит, и она всячески пытается оградить своего парня от необратимой ошибки. А подруги пытаются убедить Дашу бросить Матвея, ведь у нее даже есть перспективный вариант — обеспеченный ухажер Вадим. Неожиданно у Матвея появляется просто сказочная возможность поехать на смотр в Москву в футбольный клуб Премьер-лиги, но он не хочет оставлять Дашу, когда рядом «вьется» Вадим. А для того, чтобы взять её с собой, нужно достать деньги.-- --Качество видео: WEB-DLRip-AVC
Контейнер: MKV
Видео кодек: AVC/H.264
Аудио кодек: AC3
Видео: AVC, 1024x428 (2.40:1), 2273 kbps, 25,000 fps, 0.207 bpp
Аудио: 48 kHz, AC3 Dolby Digital, 3/2 (L,C,R,l,r) + LFE ch, ~384 kbps
Cубтитры: отсутствуют
Общее
Уникальный идентификатор : 223093312465430147667323329350401060060 (0xA7D63586B94683A6BA7C3DDE9188ECDC)
Полное имя : H:\Torrent2\Elastiko.2016.WEB-DLRip(AVC).mkv
Формат : Matroska
Версия формата : Version 2
Размер файла : 1,51 Гбайт
Продолжительность : 1 ч. 21 м.
Общий поток : 2656 Кбит/сек
Дата кодирования : UTC 2016-12-15 03:20:15
Программа кодирования : mkvmerge v7.8.0 ('River Man') 32bit built on Apr 3 2015 12:11:22
Библиотека кодирования : libebml v1.3.1 + libmatroska v1.4.2
Видео
Идентификатор : 1
Формат : AVC
Формат/Информация : Advanced Video Codec
Профиль формата : [email protected]
Параметр CABAC формата : Да
Параметр ReFrames формата : 10 кадров
Идентификатор кодека : V_MPEG4/ISO/AVC
Продолжительность : 1 ч. 21 м.
Битрейт : 2273 Кбит/сек
Ширина : 1024 пикселя
Высота : 428 пикселей
Соотношение сторон : 2,40:1
Режим частоты кадров : Постоянный
Частота кадров : 25,000 кадров/сек
Цветовое пространство : YUV
Субдискретизация насыщенности : 4:2:0
Битовая глубина : 8 бит
Тип развёртки : Прогрессивная
Бит/(Пиксели*Кадры) : 0.207
Размер потока : 1,26 Гбайт (84%)
Библиотека кодирования : x264 core 146 r2538 121396c
Настройки программы : cabac=1 / ref=10 / deblock=1:-3:-3 / analyse=0x3:0x133 / me=umh / subme=10 / psy=1 / psy_rd=1.00:0.03 / mixed_ref=1 / me_range=48 / chroma_me=1 / trellis=2 / 8x8dct=1 / cqm=0 / deadzone=21,11 / fast_pskip=0 / chroma_qp_offset=-3 / threads=6 / lookahead_threads=1 / sliced_threads=0 / nr=0 / decimate=0 / interlaced=0 / bluray_compat=0 / constrained_intra=0 / bframes=10 / b_pyramid=2 / b_adapt=2 / b_bias=0 / direct=3 / weightb=1 / open_gop=0 / weightp=2 / keyint=250 / keyint_min=25 / scenecut=40 / intra_refresh=0 / rc_lookahead=40 / rc=2pass / mbtree=0 / bitrate=2273 / ratetol=1.0 / qcomp=0.60 / qpmin=0 / qpmax=69 / qpstep=4 / cplxblur=20.0 / qblur=0.5 / vbv_maxrate=50000 / vbv_bufsize=62500 / nal_hrd=none / filler=0 / ip_ratio=1.40 / pb_ratio=1.30 / aq=1:1.00
Default : Да
Forced : Нет
Аудио
Идентификатор : 2
Формат : AC-3
Формат/Информация : Audio Coding 3
Расширение режима : CM (complete main)
Параметр Endianness формата : Big
Идентификатор кодека : A_AC3
Продолжительность : 1 ч. 21 м.
Вид битрейта : Постоянный
Битрейт : 384 Кбит/сек
Каналы : 6 каналов
Расположение каналов : Front: L C R, Side: L R, LFE
Частота : 48,0 КГц
Частота кадров : 31,250 кадров/сек (1536 spf)
Метод сжатия : С потерями
Размер потока : 224 Мбайт (14%)
Default : Да
Forced : Нет
Трейлер
Download / Скачать

Хотите скачать бесплатно? Зарегистрируйтесь на сайте (ссылка на регистрацию). Pirat.ca - самый быстрый торрент трекер в рунете!

Как скачивать  ·   Что такое торрент  ·   Рейтинг и ограничения

Barskavkaz

Корсар

Пост 15-Дек-2016 11:43 (спустя 35 минут)

[Q] 

Видимо буду первый) Посмотрим, что за новое творчество)

_________________
Д.Тк
[Профиль]  [ЛС] 

aka_johnny

Флибустьер

Пост 15-Дек-2016 20:03 (спустя 8 часов)

[Q] 

778111Видимо буду первый) Посмотрим, что за новое творчество)
ну шооо? как?)))
[Профиль]  [ЛС] 

Neogar

Корсар

Пост 15-Дек-2016 21:03 (спустя 59 минут)

[Q] 

Barskavkaz, ну и как фильм? Такой же как наш футбол?

_________________
Нас reboot, а мы крепчаем...
[Профиль]  [ЛС] 

Barskavkaz

Корсар

Пост 16-Дек-2016 11:54 (спустя 14 часов)

[Q] 

Да там особо и не про футбол) Если хочется посидеть вечером и просто потупить, что бы фильм на фоне какой то был. То советую)

_________________
Д.Тк
[Профиль]  [ЛС] 

zvezda_2s

Флибустьер

Пост 17-Дек-2016 16:37 (спустя 1 день 4 часа)

[Q] 

Значит такой как и футбол.
[Профиль]  [ЛС] 

Пост 21-Янв-2017 09:53 (спустя 1 месяц 3 дня)

Топик был перенесен из форума Новинки (HD|DVD|BD| TV|SAT|PDTV| - Rips) в форум Российские фильмы
aleksey99
 

Hippopotam

Корсар

Пост 18-Июл-2017 01:12 (спустя 7 месяцев)

[Q] 

Нормальный фильмец на один разочек Спасибо!!!
[Профиль]  [ЛС] 
Показать сообщения:    
Ответить на тему

Текущее время: Сегодня 08:09

Часовой пояс: GMT + 4



Вы не можете начинать темы
Вы не можете отвечать на сообщения
Вы не можете редактировать свои сообщения
Вы не можете удалять свои сообщения
Вы не можете голосовать в опросах
Вы не можете прикреплять файлы к сообщениям
Вы не можете скачивать файлы

▼ Вниз