Пьяный мастер / Drunken Master (Ву-Пин Юэнь / Woo-ping Yuen) [1978 г., боевик, комедия, DVDRip-AVC] (DVO)

Ответить на тему
 
Автор
Сообщение

Пост 30-Ноя-2011 18:10

[Q] 

jekich

Корсар

Пьяный мастер / Drunken Master(Jui kuen)- Год выпуска: 1978
Производство: Гонконг
Жанр: боевик, комедия
Продолжительность: 01:46:40
Перевод:
- Профессиональный (двухголосый, закадровый, ОРТ-СТС)
- Профессиональный (двухголосый, закадровый)
Оригинальный аудиопоток: Английский
Режиссер: Ву-Пин Юэнь / Woo-ping Yuen-В ролях: Джеки Чан, Сиу Тиен Юэнь, Янг Ли Хванг, Чен Тиен Лунг, Чинг Чианг, Джинг Мэн Фанг, Хсиа Хсю, Чао Лин, Линда Лин, Йинг Ли
Описание: Молодой Вонг Фей-Хун, будущий народный герой Китая, защитник обездоленных и обиженных, в молодости был весьма строптив и дерзок. Настолько, что отец отослал неуправляемого сына к дяде, известному мастеру кунг-фу и большому эксперту в двух вещах: распитии крепких спиртных напитков и выбивании дури из самонадеянных юнцов. Неудивительно, что герой сбегает от дяди-садиста при первой же возможности.
Увы, тут же побитый и униженный бандитом-профи, он возвращается назад к Пьяному Мастеру. Придется ему, скрепя зубами, терпеть иезуитские методы воспитания дяди, дабы потом, постигнув все тонкости боевых искусств, отомстить своему обидчику, который, к тому же, собирается убить его отца…-IMDB | КиноПоиск-Источник/Качество: DVDRip-AVC
Формат: MKV
Видео кодек: AVC
Аудио кодек: AC3
Видео: 720x432@1024x432 (2.37:1), 25 fps, AVC H.264 ~2343 kbps, 0.301 bit/pixel
Аудио #1: 48 kHz, AC3 Dolby Digital, 2 ch, 192 kbps | Русский (ОРТ-СТС)
Аудио #2: 48 kHz, AC3 Dolby Digital, 2 ch, 192 kbps | Русский
Аудио #3: 48 kHz, AC3 Dolby Digital, 2 ch, 192 kbps | Английский
General
Unique ID : 236413235670719445429141967829939869943 (0xB1DB88718F1500DDA79BB1B9D6CD58F7)
Complete name : C:\Users\евгений\Desktop\downloads\Пьяный мастер (ОРТ).mkv
Format : Matroska
Format version : Version 2
File size : 2.18 GiB
Duration : 1h 46mn
Overall bit rate : 2 921 Kbps
Encoded date : UTC 2010-03-22 09:16:33
Writing application : mkvmerge v3.0.0 ('Hang up your Hang-Ups') built on Dec 12 2009 15:20:35
Writing library : libebml v0.7.9 + libmatroska v0.8.1
Video
ID : 1
Format : AVC
Format/Info : Advanced Video Codec
Format profile : High@L3.0
Format settings, CABAC : Yes
Format settings, ReFrames : 4 frames
Codec ID : V_MPEG4/ISO/AVC
Duration : 1h 46mn
Bit rate : 2 343 Kbps
Width : 720 pixels
Height : 432 pixels
Display aspect ratio : 2.35:1
Original display aspect ratio : 1.667
Frame rate : 25.000 fps
Color space : YUV
Chroma subsampling : 4:2:0
Bit depth : 8 bits
Scan type : Progressive
Bits/(Pixel*Frame) : 0.301
Stream size : 1.70 GiB (78%)
Writing library : x264 core 67 r1128M 682b54d
Encoding settings : cabac=1 / ref=4 / deblock=1:0:0 / analyse=0x3:0x133 / me=hex / subme=6 / psy_rd=1.0:0.0 / mixed_ref=0 / me_range=16 / chroma_me=1 / trellis=0 / 8x8dct=1 / cqm=0 / deadzone=21,11 / chroma_qp_offset=-2 / threads=3 / nr=0 / decimate=1 / mbaff=0 / bframes=3 / b_pyramid=1 / b_adapt=2 / b_bias=0 / direct=2 / wpredb=0 / keyint=250 / keyint_min=25 / scenecut=40 / rc=2pass / bitrate=2343 / ratetol=1.0 / qcomp=0.60 / qpmin=10 / qpmax=51 / qpstep=4 / cplxblur=20.0 / qblur=0.5 / ip_ratio=1.40 / pb_ratio=1.30 / aq=1:1.00
Language : English
Audio #1
ID : 2
Format : AC-3
Format/Info : Audio Coding 3
Mode extension : CM (complete main)
Codec ID : A_AC3
Duration : 1h 46mn
Bit rate mode : Constant
Bit rate : 192 Kbps
Channel(s) : 2 channels
Channel positions : Front: L R
Sampling rate : 48.0 KHz
Bit depth : 16 bits
Compression mode : Lossy
Stream size : 146 MiB (7%)
Title : ОРТ-СТС
Language : Russian
Audio #2
ID : 3
Format : AC-3
Format/Info : Audio Coding 3
Mode extension : CM (complete main)
Codec ID : A_AC3
Duration : 1h 46mn
Bit rate mode : Constant
Bit rate : 192 Kbps
Channel(s) : 2 channels
Channel positions : Front: L R
Sampling rate : 48.0 KHz
Bit depth : 16 bits
Compression mode : Lossy
Stream size : 146 MiB (7%)
Language : Russian
Audio #3
ID : 4
Format : AC-3
Format/Info : Audio Coding 3
Mode extension : CM (complete main)
Codec ID : A_AC3
Duration : 1h 46mn
Bit rate mode : Constant
Bit rate : 192 Kbps
Channel(s) : 2 channels
Channel positions : Front: L R
Sampling rate : 48.0 KHz
Bit depth : 16 bits
Compression mode : Lossy
Stream size : 146 MiB (7%)
Language : English



Download / Скачать

Хотите скачать бесплатно? Зарегистрируйтесь на сайте (ссылка на регистрацию). Pirat.ca - самый быстрый торрент трекер в рунете!

Как скачивать  ·   Что такое торрент  ·   Рейтинг и ограничения

Пост 30-Ноя-2011 20:42 (спустя 2 часа 32 минуты)

Топик был перенесен из форума Художественные фильмы (Зарубежное кино) в форум Азиатское кино

Skinwalker
 

oleg55555

Штурман

Пост 26-Мар-2013 09:47 (спустя 1 год 3 месяца)

[Q] 

Такие фильмы надо смотреть на видеокассетах, под поскрипывание старенького ВМ-18, сразу многое вспоминается. А так, фильм хорош.
[Профиль]  [ЛС] 

Kuzalse

Морской Волк

Пост 19-Июл-2013 21:37 (спустя 3 месяца 24 дня)

[Q] 

Я этот фильм смотрел в видеосалоне на ламповом телевизоре, на первых импортных магнитофонах... Смотрел взахлёб...
[Профиль]  [ЛС] 

CHARLI2236

1218

Пост 11-Сен-2013 19:12 (спустя 1 месяц 22 дня)

[Q] 

подключусь AntiZip 35

_________________
[Профиль]  [ЛС] 

Женя1493

Морской Волк

Пост 23-Ноя-2013 00:18 (спустя 2 месяца 11 дней)

[Q] 

офигенный фильм Автору респект!!!
[Профиль]  [ЛС] 

AndyFox

Корсар

379

Пост 05-Янв-2014 22:02 (спустя 1 месяц 12 дней)

[Q] 

В переводе Гоблина отлично смотрится.

_________________
Torrent.
[Профиль]  [ЛС] 

vaspirat

Штурман

Пост 29-Июн-2014 14:32 (спустя 5 месяцев 23 дня)

[Q] 

отличный фильм
[Профиль]  [ЛС] 

sEo3000

Юнга

Пост 09-Июл-2014 17:23 (спустя 10 дней)

[Q] 

Фильм- легенда))))
[Профиль]  [ЛС] 

Alexe10

Гроза морей

36

Пост 19-Окт-2014 08:47 (спустя 3 месяца 9 дней)

[Q] 

Джеки!!! Супер!
[Профиль]  [ЛС] 

genadii5951

Шкипер

Пост 14-Апр-2015 19:52 (спустя 5 месяцев 26 дней)

[Q] 

фильм из детства Супер! Всем качать!!!
[Профиль]  [ЛС] 

Дэн

Гроза морей

Пост 19-Авг-2017 19:52 (спустя 2 года 4 месяца)

[Q] 

Балгодарю за Фильм!
[Профиль]  [ЛС] 
Показать сообщения:    
Ответить на тему

Текущее время: Сегодня 09:02

Часовой пояс: GMT + 4



Вы не можете начинать темы
Вы не можете отвечать на сообщения
Вы не можете редактировать свои сообщения
Вы не можете удалять свои сообщения
Вы не можете голосовать в опросах
Вы не можете прикреплять файлы к сообщениям
Вы не можете скачивать файлы

Майнать ▼